osu file format v14

[General]
AudioFilename: Todestrieb.mp3
AudioLeadIn: 0
PreviewTime: 41906
Countdown: 0
SampleSet: Soft
StackLeniency: 0.7
Mode: 3
LetterboxInBreaks: 0
SpecialStyle: 0
WidescreenStoryboard: 0

[Editor]
DistanceSpacing: 1.3
BeatDivisor: 4
GridSize: 4
TimelineZoom: 1.6

[Metadata]
Title:Todestrieb
TitleUnicode:Todestrieb
Artist:Rche
ArtistUnicode:Rche
Creator:SanadaYukimura
Version:Another
Source:beatmania IIDX
Tags:19 Lincle BEMANI KONAMI REFLEC BEAT groovin'!! Upper Tomosuke Funaki Zektbach 傲慢 傲慢ちゃん entelecheia PENDUAL MeowPaz
BeatmapID:917452
BeatmapSetID:424754

[Difficulty]
HPDrainRate:9
CircleSize:4
OverallDifficulty:9
ApproachRate:5
SliderMultiplier:1.4
SliderTickRate:1

[Events]
//Background and Video events
0,0,"rche.jpg",0,0
//Break Periods
//Storyboard Layer 0 (Background)
//Storyboard Layer 1 (Fail)
//Storyboard Layer 2 (Pass)
//Storyboard Layer 3 (Foreground)
//Storyboard Sound Samples

[TimingPoints]
393,324.324324324324,4,2,1,20,1,0
41906,-100,4,2,1,20,0,1
62663,-200,4,2,1,20,0,0
71744,-100,4,2,1,20,0,0
104176,-100,4,2,1,20,0,1
114555,-200,4,2,1,20,0,0

[HitObjects]
64,192,393,5,0,0:0:0:0:
448,192,393,1,0,0:0:0:70:0008.wav
192,192,555,1,0,0:0:0:0:
64,192,717,1,0,0:0:0:0:
448,192,879,1,0,0:0:0:0:
192,192,1041,1,0,0:0:0:0:
320,192,1203,1,0,0:0:0:0:
64,192,1365,1,0,0:0:0:0:
192,192,1528,1,0,0:0:0:0:
320,192,1690,1,0,0:0:0:0:
64,192,1852,1,0,0:0:0:0:
320,192,2014,1,0,0:0:0:0:
192,192,2176,1,0,0:0:0:0:
448,192,2338,1,0,0:0:0:0:
320,192,2663,1,0,0:0:0:0:
64,192,2987,1,0,0:0:0:0:
192,192,3149,1,0,0:0:0:0:
320,192,3311,1,0,0:0:0:0:
64,192,3474,1,0,0:0:0:0:
320,192,3636,1,0,0:0:0:0:
192,192,3798,1,0,0:0:0:0:
448,192,3960,1,0,0:0:0:0:
320,192,4122,1,0,0:0:0:0:
192,192,4284,1,0,0:0:0:0:
320,192,4447,1,0,0:0:0:0:
64,192,4609,1,0,0:0:0:0:
192,192,4771,1,0,0:0:0:0:
320,192,4933,1,0,0:0:0:0:
64,192,5257,1,0,0:0:0:0:
448,192,5582,1,0,0:0:0:0:
192,192,5744,1,0,0:0:0:0:
320,192,5906,1,0,0:0:0:0:
64,192,6068,1,0,0:0:0:0:
192,192,6230,1,0,0:0:0:0:
320,192,6392,1,0,0:0:0:0:
192,192,6555,1,0,0:0:0:0:
448,192,6717,1,0,0:0:0:0:
320,192,6879,1,0,0:0:0:0:
64,192,7041,1,0,0:0:0:0:
192,192,7203,1,0,0:0:0:0:
320,192,7365,1,0,0:0:0:0:
192,192,7528,1,0,0:0:0:0:
448,192,7852,1,0,0:0:0:0:
64,192,8176,1,0,0:0:0:0:
192,192,8338,1,0,0:0:0:0:
320,192,8501,1,0,0:0:0:0:
192,192,8663,1,0,0:0:0:0:
448,192,8825,1,0,0:0:0:0:
320,192,8987,1,0,0:0:0:0:
64,192,9149,1,0,0:0:0:0:
192,192,9311,1,0,0:0:0:0:
320,192,9474,1,0,0:0:0:0:
448,192,9636,1,0,0:0:0:0:
64,192,9798,1,0,0:0:0:0:
320,192,9960,1,0,0:0:0:0:
64,192,10122,1,0,0:0:0:0:
192,192,10447,1,0,0:0:0:0:
64,192,10771,1,0,0:0:0:0:
448,192,10771,1,4,0:0:0:0:
320,192,10771,1,0,0:0:0:0:
192,192,10933,1,0,0:0:0:0:
320,192,11095,1,0,0:0:0:0:
64,192,11257,1,0,0:0:0:0:
64,192,11420,1,0,0:0:0:0:
64,192,11582,1,0,0:0:0:0:
320,192,11744,1,0,0:0:0:0:
320,192,11906,1,0,0:0:0:0:
320,192,12068,1,0,0:0:0:0:
192,192,12230,1,0,0:0:0:0:
192,192,12392,1,0,0:0:0:0:
192,192,12555,1,0,0:0:0:0:
448,192,12717,1,0,0:0:0:0:
448,192,12879,1,0,0:0:0:0:
64,192,13041,1,0,0:0:0:0:
64,192,13203,1,0,0:0:0:0:
448,192,13365,1,0,0:0:0:0:
320,192,13528,1,0,0:0:0:0:
192,192,13690,1,0,0:0:0:0:
448,192,13852,1,0,0:0:0:0:
448,192,14014,1,0,0:0:0:0:
448,192,14176,1,0,0:0:0:0:
64,192,14338,1,0,0:0:0:0:
64,192,14501,1,0,0:0:0:0:
64,192,14663,1,0,0:0:0:0:
320,192,14825,1,0,0:0:0:0:
320,192,14987,1,0,0:0:0:0:
320,192,15149,1,0,0:0:0:0:
192,192,15311,1,0,0:0:0:0:
192,192,15474,1,0,0:0:0:0:
448,192,15636,1,0,0:0:0:0:
448,192,15798,1,0,0:0:0:0:
192,192,15960,1,0,0:0:0:0:
64,192,15960,1,0,0:0:0:70:0008.wav
320,192,16122,1,0,0:0:0:0:
448,192,16284,1,0,0:0:0:0:
192,192,16447,1,0,0:0:0:0:
192,192,16609,1,0,0:0:0:0:
192,192,16771,1,0,0:0:0:0:
448,192,16933,1,0,0:0:0:0:
448,192,17095,1,0,0:0:0:0:
448,192,17257,1,0,0:0:0:0:
64,192,17420,1,0,0:0:0:0:
64,192,17582,1,0,0:0:0:0:
64,192,17744,1,0,0:0:0:0:
320,192,17906,1,0,0:0:0:0:
320,192,18068,1,0,0:0:0:0:
192,192,18230,1,0,0:0:0:0:
192,192,18392,1,0,0:0:0:0:
448,192,18555,1,0,0:0:0:0:
320,192,18717,1,0,0:0:0:0:
192,192,18879,1,0,0:0:0:0:
448,192,19041,1,0,0:0:0:0:
448,192,19203,1,0,0:0:0:0:
448,192,19365,1,0,0:0:0:0:
64,192,19528,1,0,0:0:0:0:
64,192,19690,1,0,0:0:0:0:
64,192,19852,1,0,0:0:0:0:
448,192,19852,128,0,21149:0:0:0:0:
192,192,20014,1,0,0:0:0:0:
192,192,20176,1,0,0:0:0:0:
192,192,20338,1,0,0:0:0:0:
320,192,20501,1,0,0:0:0:0:
320,192,20663,1,0,0:0:0:0:
64,192,20825,1,0,0:0:0:0:
64,192,20987,1,0,0:0:0:0:
192,192,21149,1,2,0:0:0:0:
320,192,21149,1,4,0:0:0:0:
64,192,21311,1,0,0:0:0:0:
192,192,21474,1,2,0:0:0:0:
448,192,21474,1,0,0:0:0:0:
320,192,21636,1,0,0:0:0:0:
320,192,21798,1,0,0:0:0:0:
64,192,21798,1,2,0:0:0:0:
320,192,21960,1,0,0:0:0:0:
64,192,22122,1,0,0:0:0:0:
192,192,22122,1,2,0:0:0:0:
64,192,22284,1,0,0:0:0:0:
64,192,22447,1,0,0:0:0:0:
320,192,22447,1,2,0:0:0:0:
448,192,22609,1,0,0:0:0:0:
192,192,22771,1,2,0:0:0:0:
448,192,22771,1,0,0:0:0:0:
448,192,22933,1,0,0:0:0:0:
64,192,23095,1,0,0:0:0:0:
192,192,23095,1,2,0:0:0:0:
64,192,23257,1,0,0:0:0:0:
192,192,23420,1,2,0:0:0:0:
448,192,23420,1,0,0:0:0:0:
448,192,23582,1,0,0:0:0:0:
320,192,23744,1,2,0:0:0:0:
64,192,23744,1,0,0:0:0:0:
192,192,23906,1,0,0:0:0:0:
320,192,24068,1,2,0:0:0:0:
448,192,24068,1,0,0:0:0:0:
64,192,24230,1,0,0:0:0:0:
64,192,24392,1,2,0:0:0:0:
448,192,24392,1,0,0:0:0:0:
64,192,24555,1,0,0:0:0:0:
320,192,24717,1,2,0:0:0:0:
192,192,24717,1,0,0:0:0:0:
320,192,24879,1,0,0:0:0:0:
320,192,25041,1,0,0:0:0:0:
64,192,25041,1,2,0:0:0:0:
448,192,25203,1,0,0:0:0:0:
448,192,25365,1,0,0:0:0:0:
192,192,25365,1,2,0:0:0:0:
448,192,25528,1,0,0:0:0:0:
320,192,25690,1,2,0:0:0:0:
64,192,25690,1,0,0:0:0:0:
64,192,25852,1,0,0:0:0:0:
320,192,26014,1,2,0:0:0:0:
448,192,26014,1,0,0:0:0:0:
448,192,26176,1,0,0:0:0:0:
192,192,26338,1,2,0:0:0:0:
64,192,26338,1,0,0:0:0:70:0008.wav
320,192,26501,1,0,0:0:0:0:
448,192,26663,1,2,0:0:0:0:
64,192,26663,1,0,0:0:0:0:
192,192,26825,1,0,0:0:0:0:
192,192,26987,1,0,0:0:0:0:
448,192,26987,1,2,0:0:0:0:
192,192,27149,1,0,0:0:0:0:
64,192,27311,1,2,0:0:0:0:
320,192,27311,1,0,0:0:0:0:
320,192,27474,1,0,0:0:0:0:
320,192,27636,1,0,0:0:0:0:
192,192,27636,1,2,0:0:0:0:
448,192,27798,1,0,0:0:0:0:
448,192,27960,1,2,0:0:0:0:
64,192,27960,1,0,0:0:0:0:
448,192,28122,1,0,0:0:0:0:
192,192,28284,1,2,0:0:0:0:
64,192,28284,1,0,0:0:0:0:
192,192,28447,1,0,0:0:0:0:
320,192,28609,1,0,0:0:0:0:
448,192,28609,1,2,0:0:0:0:
448,192,28771,1,0,0:0:0:0:
320,192,28933,1,2,0:0:0:0:
64,192,28933,1,0,0:0:0:0:
192,192,29095,1,0,0:0:0:0:
320,192,29257,1,2,0:0:0:0:
448,192,29257,1,0,0:0:0:0:
64,192,29420,1,0,0:0:0:0:
64,192,29582,1,0,0:0:0:0:
320,192,29582,1,2,0:0:0:0:
64,192,29744,1,0,0:0:0:0:
192,192,29906,1,2,0:0:0:0:
448,192,29906,1,0,0:0:0:0:
448,192,30068,1,0,0:0:0:0:
64,192,30230,1,4,0:0:0:0:
448,192,30230,1,0,0:0:0:0:
192,192,30230,1,2,0:0:0:0:
320,192,30392,1,0,0:0:0:0:
192,192,30392,1,2,0:0:0:0:
320,192,30555,1,4,0:0:0:0:
448,192,30555,1,2,0:0:0:0:
64,192,30555,1,0,0:0:0:0:
192,192,30636,1,0,0:0:0:0:
320,192,30717,1,0,0:0:0:0:
448,192,30798,1,0,0:0:0:0:
64,192,30879,1,0,0:0:0:0:
192,192,30879,1,2,0:0:0:0:
320,192,30960,1,2,0:0:0:0:
448,192,30960,1,0,0:0:0:0:
192,192,31041,1,2,0:0:0:0:
64,192,31041,1,0,0:0:0:0:
320,192,31122,1,2,0:0:0:0:
448,192,31122,1,0,0:0:0:0:
192,192,31203,1,2,0:0:0:0:
64,192,31203,1,0,0:0:0:0:
320,192,31284,1,2,0:0:0:0:
448,192,31284,1,0,0:0:0:0:
192,192,31365,1,2,0:0:0:0:
64,192,31365,1,0,0:0:0:0:
320,192,31447,1,2,0:0:0:0:
448,192,31447,1,0,0:0:0:0:
192,192,31528,1,2,0:0:0:0:
64,192,31528,128,0,32825:0:0:0:70:000O.wav
448,192,31609,1,0,0:0:0:0:
320,192,31690,1,0,0:0:0:0:
192,192,31771,1,0,0:0:0:0:
448,192,31852,1,0,0:0:0:0:
320,192,31933,1,0,0:0:0:0:
192,192,32014,1,0,0:0:0:0:
448,192,32095,1,0,0:0:0:0:
320,192,32176,1,0,0:0:0:0:
448,192,32257,1,0,0:0:0:0:
192,192,32338,1,0,0:0:0:0:
320,192,32420,1,0,0:0:0:0:
192,192,32501,1,0,0:0:0:0:
448,192,32582,1,0,0:0:0:0:
320,192,32663,1,0,0:0:0:0:
192,192,32744,1,0,0:0:0:0:
448,192,32825,128,0,34122:0:0:0:70:000P.wav
320,192,32825,1,0,0:0:0:0:
64,192,32906,1,0,0:0:0:0:
192,192,32987,1,0,0:0:0:0:
320,192,33068,1,0,0:0:0:0:
64,192,33149,1,0,0:0:0:0:
192,192,33230,1,0,0:0:0:0:
64,192,33311,1,0,0:0:0:0:
320,192,33392,1,0,0:0:0:0:
192,192,33474,1,0,0:0:0:0:
64,192,33555,1,0,0:0:0:0:
320,192,33636,1,0,0:0:0:0:
192,192,33717,1,0,0:0:0:0:
320,192,33798,1,0,0:0:0:0:
64,192,33879,1,0,0:0:0:0:
192,192,33960,1,0,0:0:0:0:
320,192,34041,1,0,0:0:0:0:
64,192,34122,1,0,0:0:0:0:
192,192,34122,128,0,35420:0:0:0:70:000Q.wav
320,192,34203,1,0,0:0:0:0:
448,192,34284,1,0,0:0:0:0:
64,192,34365,1,0,0:0:0:0:
320,192,34447,1,0,0:0:0:0:
448,192,34528,1,0,0:0:0:0:
320,192,34609,1,0,0:0:0:0:
64,192,34690,1,0,0:0:0:0:
448,192,34771,1,0,0:0:0:0:
320,192,34852,1,0,0:0:0:0:
64,192,34933,1,0,0:0:0:0:
448,192,35014,1,0,0:0:0:0:
320,192,35095,1,0,0:0:0:0:
64,192,35176,1,0,0:0:0:0:
320,192,35257,1,0,0:0:0:0:
448,192,35338,1,0,0:0:0:0:
320,192,35420,128,0,36717:0:0:0:70:000R.wav
64,192,35420,1,0,0:0:0:0:
192,192,35501,1,0,0:0:0:0:
448,192,35582,1,0,0:0:0:0:
192,192,35663,1,0,0:0:0:0:
64,192,35744,1,0,0:0:0:0:
448,192,35825,1,0,0:0:0:0:
192,192,35906,1,0,0:0:0:0:
64,192,35987,1,0,0:0:0:0:
192,192,36068,1,0,0:0:0:0:
448,192,36149,1,0,0:0:0:0:
64,192,36230,1,0,0:0:0:0:
192,192,36311,1,0,0:0:0:0:
448,192,36392,1,0,0:0:0:0:
192,192,36474,1,0,0:0:0:0:
64,192,36555,1,0,0:0:0:0:
448,192,36636,1,0,0:0:0:0:
64,192,36717,128,0,38014:0:0:0:70:000S.wav
192,192,36717,1,0,0:0:0:0:
320,192,36798,1,0,0:0:0:0:
448,192,36879,1,0,0:0:0:0:
192,192,36960,1,0,0:0:0:0:
320,192,37041,1,0,0:0:0:0:
448,192,37122,1,0,0:0:0:0:
192,192,37203,1,0,0:0:0:0:
320,192,37284,1,0,0:0:0:0:
448,192,37365,1,0,0:0:0:0:
320,192,37447,1,0,0:0:0:0:
192,192,37528,1,0,0:0:0:0:
448,192,37609,1,0,0:0:0:0:
320,192,37690,1,0,0:0:0:0:
192,192,37771,1,0,0:0:0:0:
448,192,37852,1,0,0:0:0:0:
320,192,37933,1,0,0:0:0:0:
192,192,38014,1,0,0:0:0:0:
448,192,38014,1,0,0:0:0:70:000T.wav
320,192,38095,1,0,0:0:0:0:
192,192,38176,1,0,0:0:0:0:
320,192,38257,1,0,0:0:0:0:
64,192,38338,1,0,0:0:0:0:
448,192,38338,1,0,0:0:0:0:
320,192,38420,1,0,0:0:0:0:
192,192,38501,1,0,0:0:0:0:
320,192,38582,1,0,0:0:0:0:
448,192,38663,1,0,0:0:0:0:
192,192,38663,1,0,0:0:0:0:
64,192,38744,1,0,0:0:0:0:
320,192,38825,1,0,0:0:0:0:
192,192,38906,1,0,0:0:0:0:
64,192,38987,1,0,0:0:0:0:
448,192,38987,1,0,0:0:0:0:
320,192,39068,1,0,0:0:0:0:
192,192,39149,1,0,0:0:0:0:
320,192,39230,1,0,0:0:0:0:
448,192,39311,1,0,0:0:0:70:000U.wav
64,192,39311,1,0,0:0:0:0:
192,192,39392,1,0,0:0:0:0:
320,192,39474,1,0,0:0:0:0:
448,192,39555,1,0,0:0:0:0:
192,192,39636,1,0,0:0:0:0:
320,192,39636,1,0,0:0:0:0:
64,192,39717,1,0,0:0:0:0:
192,192,39798,1,0,0:0:0:0:
320,192,39879,1,0,0:0:0:0:
448,192,39960,1,0,0:0:0:0:
64,192,39960,1,0,0:0:0:0:
192,192,40041,1,0,0:0:0:0:
320,192,40122,1,0,0:0:0:0:
192,192,40203,1,0,0:0:0:0:
64,192,40284,1,0,0:0:0:0:
448,192,40284,1,0,0:0:0:0:
320,192,40365,1,0,0:0:0:0:
192,192,40447,1,0,0:0:0:0:
320,192,40528,1,0,0:0:0:0:
448,192,40609,1,0,0:0:0:0:
64,192,40609,1,0,0:0:0:70:000V.wav
192,192,40609,1,4,0:0:0:0:
320,192,40690,1,0,0:0:0:0:
192,192,40771,1,0,0:0:0:0:
64,192,40852,1,0,0:0:0:0:
320,192,40933,1,0,0:0:0:0:
192,192,40933,1,0,0:0:0:0:
448,192,41014,1,0,0:0:0:0:
320,192,41095,1,0,0:0:0:0:
192,192,41176,1,0,0:0:0:0:
448,192,41257,1,0,0:0:0:0:
64,192,41257,1,0,0:0:0:0:
320,192,41338,1,0,0:0:0:0:
64,192,41420,1,0,0:0:0:0:
192,192,41420,1,2,0:0:0:0:
448,192,41501,1,0,0:0:0:0:
64,192,41582,1,0,0:0:0:0:
320,192,41582,1,2,0:0:0:0:
192,192,41663,1,0,0:0:0:0:
320,192,41744,1,2,0:0:0:0:
448,192,41744,1,0,0:0:0:0:
192,192,41825,1,0,0:0:0:0:
320,192,41906,1,2,0:0:0:0:
64,192,41906,1,0,0:0:0:0:
448,192,41906,1,4,0:0:0:0:
192,192,42068,1,8,0:0:0:0:
64,192,42230,1,0,0:0:0:0:
448,192,42230,1,2,0:0:0:0:
320,192,42311,1,0,0:0:0:0:
192,192,42392,1,8,0:0:0:0:
320,192,42555,1,2,0:0:0:0:
448,192,42555,1,0,0:0:0:0:
64,192,42717,1,8,0:0:0:0:
192,192,42798,1,0,0:0:0:0:
448,192,42879,1,0,0:0:0:0:
320,192,42879,1,2,0:0:0:0:
64,192,43041,1,8,0:0:0:0:
192,192,43203,1,2,0:0:0:0:
320,192,43203,1,0,0:0:0:0:
448,192,43365,1,8,0:0:0:0:
64,192,43528,1,0,0:0:0:0:
320,192,43528,1,2,0:0:0:0:
192,192,43609,1,0,0:0:0:0:
320,192,43690,1,8,0:0:0:0:
448,192,43852,1,2,0:0:0:0:
64,192,43852,1,0,0:0:0:0:
320,192,43933,1,0,0:0:0:0:
192,192,44014,1,8,0:0:0:0:
64,192,44095,1,0,0:0:0:0:
320,192,44176,1,2,0:0:0:0:
448,192,44176,1,0,0:0:0:0:
64,192,44338,1,8,0:0:0:0:
192,192,44501,1,2,0:0:0:0:
448,192,44501,1,0,0:0:0:0:
320,192,44663,1,8,0:0:0:0:
448,192,44825,1,0,0:0:0:0:
64,192,44825,1,2,0:0:0:0:
192,192,44906,1,0,0:0:0:0:
320,192,44987,1,8,0:0:0:0:
448,192,45149,1,0,0:0:0:0:
64,192,45149,1,2,0:0:0:0:
320,192,45230,1,0,0:0:0:0:
192,192,45311,1,8,0:0:0:0:
320,192,45392,1,0,0:0:0:0:
64,192,45474,1,0,0:0:0:0:
448,192,45474,1,2,0:0:0:0:
192,192,45636,1,8,0:0:0:0:
64,192,45798,1,0,0:0:0:0:
320,192,45798,1,2,0:0:0:0:
448,192,45960,1,8,0:0:0:0:
320,192,46122,1,2,0:0:0:0:
64,192,46122,1,0,0:0:0:0:
192,192,46203,1,0,0:0:0:0:
320,192,46284,1,8,0:0:0:0:
448,192,46447,1,0,0:0:0:0:
64,192,46447,1,2,0:0:0:0:
192,192,46528,1,0,0:0:0:0:
320,192,46609,1,8,0:0:0:0:
448,192,46690,1,0,0:0:0:0:
64,192,46771,1,0,0:0:0:0:
192,192,46771,1,2,0:0:0:0:
448,192,46933,1,8,0:0:0:0:
320,192,47095,1,2,0:0:0:0:
64,192,47095,1,0,0:0:0:0:
192,192,47257,1,8,0:0:0:0:
64,192,47420,1,0,0:0:0:0:
448,192,47420,1,2,0:0:0:0:
192,192,47501,1,0,0:0:0:0:
320,192,47582,1,8,0:0:0:0:
64,192,47744,1,0,0:0:0:0:
192,192,47744,1,2,0:0:0:0:
448,192,47906,1,8,0:0:0:0:
320,192,47987,1,0,0:0:0:0:
192,192,48068,1,2,0:0:0:0:
64,192,48068,1,0,0:0:0:0:
448,192,48230,1,8,0:0:0:0:
192,192,48392,1,0,0:0:0:0:
320,192,48392,1,2,0:0:0:0:
64,192,48555,1,8,0:0:0:0:
448,192,48717,1,2,0:0:0:0:
192,192,48717,1,0,0:0:0:0:
320,192,48798,1,0,0:0:0:0:
448,192,48879,1,8,0:0:0:0:
64,192,49041,1,0,0:0:0:0:
320,192,49041,1,2,0:0:0:0:
192,192,49122,1,0,0:0:0:0:
320,192,49203,1,8,0:0:0:0:
192,192,49284,1,0,0:0:0:0:
64,192,49365,1,0,0:0:0:0:
448,192,49365,1,2,0:0:0:0:
320,192,49528,1,8,0:0:0:0:
64,192,49690,1,0,0:0:0:0:
192,192,49690,1,2,0:0:0:0:
448,192,49852,1,8,0:0:0:0:
320,192,50014,1,2,0:0:0:0:
64,192,50014,1,0,0:0:0:0:
192,192,50095,1,0,0:0:0:0:
320,192,50176,1,8,0:0:0:0:
448,192,50338,1,0,0:0:0:0:
64,192,50338,1,2,0:0:0:0:
320,192,50420,1,0,0:0:0:0:
192,192,50501,1,8,0:0:0:0:
64,192,50582,1,0,0:0:0:0:
192,192,50663,1,0,0:0:0:0:
320,192,50663,1,2,0:0:0:0:
448,192,50825,1,8,0:0:0:0:
64,192,50987,1,0,0:0:0:0:
320,192,50987,1,2,0:0:0:0:
192,192,51149,1,8,0:0:0:0:
64,192,51311,1,0,0:0:0:0:
448,192,51311,1,2,0:0:0:0:
320,192,51392,1,0,0:0:0:0:
192,192,51474,1,8,0:0:0:0:
448,192,51636,128,0,52284:0:0:0:0:
320,192,51636,1,2,0:0:0:0:
64,192,51798,1,8,0:0:0:0:
192,192,51879,1,0,0:0:0:0:
320,192,51960,1,2,0:0:0:0:
64,192,51960,1,0,0:0:0:0:
192,192,52122,1,8,0:0:0:0:
320,192,52284,1,4,0:0:0:0:
192,192,52284,1,2,0:0:0:0:
64,192,52284,1,0,0:0:0:0:
448,192,52447,1,8,0:0:0:0:
320,192,52609,1,2,0:0:0:0:
64,192,52609,1,0,0:0:0:0:
192,192,52690,1,0,0:0:0:0:
320,192,52771,1,8,0:0:0:0:
192,192,52933,1,2,0:0:0:0:
64,192,52933,1,0,0:0:0:0:
448,192,53095,1,8,0:0:0:0:
320,192,53176,1,0,0:0:0:0:
448,192,53257,1,2,0:0:0:0:
64,192,53257,1,0,0:0:0:0:
192,192,53420,1,8,0:0:0:0:
320,192,53582,1,2,0:0:0:0:
448,192,53582,1,0,0:0:0:0:
64,192,53744,1,8,0:0:0:0:
192,192,53906,1,2,0:0:0:0:
448,192,53906,1,0,0:0:0:0:
320,192,53987,1,0,0:0:0:0:
192,192,54068,1,8,0:0:0:0:
320,192,54230,1,2,0:0:0:0:
448,192,54230,1,0,0:0:0:0:
64,192,54311,1,0,0:0:0:0:
192,192,54392,1,8,0:0:0:0:
320,192,54474,1,0,0:0:0:0:
64,192,54555,1,0,0:0:0:0:
448,192,54555,1,2,0:0:0:0:
192,192,54717,1,8,0:0:0:0:
64,192,54879,1,0,0:0:0:0:
448,192,54879,1,2,0:0:0:0:
320,192,55041,1,8,0:0:0:0:
64,192,55203,1,0,0:0:0:0:
448,192,55203,1,2,0:0:0:0:
192,192,55284,1,0,0:0:0:0:
320,192,55365,1,8,0:0:0:0:
64,192,55528,1,0,0:0:0:0:
448,192,55528,1,2,0:0:0:0:
320,192,55609,1,0,0:0:0:0:
192,192,55690,1,8,0:0:0:0:
64,192,55771,1,0,0:0:0:0:
320,192,55852,1,2,0:0:0:0:
192,192,55852,1,0,0:0:0:0:
448,192,56014,1,8,0:0:0:0:
64,192,56176,1,0,0:0:0:0:
192,192,56176,1,2,0:0:0:0:
448,192,56338,1,8,0:0:0:0:
64,192,56501,1,0,0:0:0:0:
320,192,56501,1,2,0:0:0:0:
192,192,56582,1,0,0:0:0:0:
320,192,56663,1,8,0:0:0:0:
192,192,56825,1,2,0:0:0:0:
64,192,56825,1,0,0:0:0:0:
448,192,56906,1,0,0:0:0:0:
320,192,56987,1,8,0:0:0:0:
192,192,57068,1,0,0:0:0:0:
64,192,57149,1,0,0:0:0:0:
448,192,57149,1,2,0:0:0:0:
192,192,57311,1,8,0:0:0:0:
64,192,57474,1,0,0:0:0:0:
448,192,57474,1,2,0:0:0:0:
320,192,57636,1,8,0:0:0:0:
64,192,57798,1,0,0:0:0:0:
448,192,57798,1,2,0:0:0:0:
192,192,57879,1,0,0:0:0:0:
320,192,57960,1,8,0:0:0:0:
192,192,58122,1,2,0:0:0:0:
448,192,58122,1,0,0:0:0:0:
64,192,58284,1,8,0:0:0:0:
192,192,58365,1,0,0:0:0:0:
320,192,58447,1,2,0:0:0:0:
64,192,58447,1,0,0:0:0:0:
448,192,58609,1,8,0:0:0:0:
320,192,58771,1,2,0:0:0:0:
192,192,58771,1,0,0:0:0:0:
64,192,58933,1,8,0:0:0:0:
192,192,59095,1,2,0:0:0:0:
448,192,59095,1,0,0:0:0:0:
320,192,59176,1,0,0:0:0:0:
192,192,59257,1,8,0:0:0:0:
320,192,59420,1,2,0:0:0:0:
448,192,59420,1,0,0:0:0:0:
64,192,59501,1,0,0:0:0:0:
192,192,59582,1,8,0:0:0:0:
320,192,59663,1,0,0:0:0:0:
448,192,59744,1,2,0:0:0:0:
64,192,59744,1,0,0:0:0:0:
192,192,59906,1,8,0:0:0:0:
64,192,60068,1,2,0:0:0:0:
448,192,60068,1,0,0:0:0:0:
320,192,60149,1,0,0:0:0:0:
192,192,60230,1,8,0:0:0:0:
64,192,60311,1,0,0:0:0:0:
192,192,60392,1,0,0:0:0:0:
320,192,60392,1,2,0:0:0:0:
448,192,60474,1,0,0:0:0:0:
320,192,60555,1,8,0:0:0:0:
192,192,60636,1,0,0:0:0:0:
64,192,60717,1,0,0:0:0:0:
448,192,60717,1,2,0:0:0:0:
320,192,60798,1,0,0:0:0:0:
64,192,60879,1,8,0:0:0:0:
192,192,60960,1,0,0:0:0:0:
320,192,61041,1,2,0:0:0:0:
448,192,61041,1,0,0:0:0:0:
64,192,61122,1,0,0:0:0:0:
192,192,61203,1,8,0:0:0:0:
320,192,61284,1,0,0:0:0:0:
448,192,61365,1,0,0:0:0:0:
64,192,61365,1,2,0:0:0:0:
192,192,61447,1,0,0:0:0:0:
320,192,61528,1,8,0:0:0:0:
192,192,61609,1,0,0:0:0:0:
64,192,61690,1,0,0:0:0:0:
448,192,61690,1,2,0:0:0:0:
320,192,61771,1,0,0:0:0:0:
192,192,61852,1,8,0:0:0:0:
64,192,61933,1,0,0:0:0:0:
448,192,62014,1,2,0:0:0:0:
192,192,62014,1,0,0:0:0:0:
320,192,62095,1,0,0:0:0:0:
64,192,62176,1,0,0:0:0:0:
192,192,62176,1,2,0:0:0:0:
320,192,62257,1,0,0:0:0:0:
64,192,62338,1,0,0:0:0:0:
448,192,62338,1,2,0:0:0:0:
192,192,62420,1,0,0:0:0:0:
320,192,62501,1,0,0:0:0:0:
448,192,62501,1,2,0:0:0:0:
192,192,62582,1,0,0:0:0:0:
64,192,62663,1,0,0:0:0:0:
448,192,62663,128,0,63960:0:0:0:70:000W.wav
64,192,63960,128,0,65257:0:0:0:0:
192,192,63960,1,0,0:0:0:0:
192,192,64609,128,0,65906:0:0:0:0:
320,192,64609,1,0,0:0:0:0:
320,192,65257,128,0,66555:0:0:0:0:
448,192,65257,1,0,0:0:0:0:
448,192,65906,128,0,66555:0:0:0:70:000X.wav
64,192,66555,128,0,67852:0:0:0:70:000Y.wav
192,192,66555,1,0,0:0:0:0:
448,192,67852,128,0,69149:0:0:0:0:
320,192,67852,1,0,0:0:0:0:
192,192,69149,1,0,0:0:0:0:
64,192,69149,128,0,70447:0:0:0:70:000Z.wav
320,192,69798,128,0,70447:0:0:0:70:0010.wav
448,192,70447,1,0,0:0:0:0:
192,192,70447,128,0,71744:0:0:0:70:0011.wav
448,192,71095,128,0,71744:0:0:0:70:0012.wav
64,192,71744,128,0,73041:0:0:0:70:0013.wav
320,192,71744,1,0,0:0:0:0:
448,192,73041,1,0,0:0:0:0:
192,192,73041,1,0,0:0:0:0:
320,192,73203,1,0,0:0:0:0:
64,192,73365,1,0,0:0:0:0:
448,192,73365,1,0,0:0:0:0:
192,192,73474,1,0,0:0:0:0:
320,192,73582,1,0,0:0:0:0:
448,192,73690,1,0,0:0:0:0:
64,192,73690,1,0,0:0:0:0:
192,192,73852,1,0,0:0:0:0:
64,192,74014,1,0,0:0:0:0:
448,192,74014,1,0,0:0:0:0:
320,192,74176,1,0,0:0:0:0:
64,192,74338,1,0,0:0:0:0:
192,192,74501,1,0,0:0:0:0:
448,192,74663,1,0,0:0:0:0:
64,192,74663,1,0,0:0:0:0:
320,192,74771,1,0,0:0:0:0:
192,192,74879,1,0,0:0:0:0:
448,192,74987,1,0,0:0:0:0:
64,192,74987,1,0,0:0:0:0:
320,192,75149,1,0,0:0:0:0:
192,192,75311,1,0,0:0:0:0:
448,192,75311,1,0,0:0:0:0:
64,192,75474,1,0,0:0:0:0:
448,192,75636,1,0,0:0:0:0:
320,192,75798,1,0,0:0:0:0:
64,192,75960,1,0,0:0:0:0:
448,192,75960,1,0,0:0:0:0:
192,192,76068,1,0,0:0:0:0:
320,192,76176,1,0,0:0:0:0:
64,192,76284,1,0,0:0:0:0:
192,192,76284,1,0,0:0:0:0:
448,192,76447,1,0,0:0:0:0:
320,192,76609,1,0,0:0:0:0:
64,192,76609,1,0,0:0:0:0:
192,192,76771,1,0,0:0:0:0:
448,192,76933,1,0,0:0:0:0:
64,192,77095,1,0,0:0:0:0:
192,192,77257,1,0,0:0:0:0:
448,192,77257,1,0,0:0:0:0:
320,192,77365,1,0,0:0:0:0:
192,192,77474,1,0,0:0:0:0:
448,192,77582,1,0,0:0:0:0:
320,192,77582,1,0,0:0:0:0:
64,192,77744,1,0,0:0:0:0:
192,192,77906,1,0,0:0:0:0:
320,192,77906,1,0,0:0:0:0:
448,192,78068,1,0,0:0:0:0:
64,192,78230,1,0,0:0:0:0:
192,192,78392,1,0,0:0:0:0:
64,192,78555,1,0,0:0:0:0:
448,192,78555,1,0,0:0:0:0:
320,192,78663,1,0,0:0:0:0:
192,192,78771,1,0,0:0:0:0:
448,192,78879,1,0,0:0:0:0:
64,192,78879,1,0,0:0:0:0:
320,192,79041,1,0,0:0:0:0:
64,192,79203,1,0,0:0:0:0:
448,192,79203,1,0,0:0:0:0:
192,192,79365,1,0,0:0:0:0:
448,192,79528,1,0,0:0:0:0:
320,192,79690,1,0,0:0:0:0:
448,192,79852,1,0,0:0:0:0:
64,192,79852,1,0,0:0:0:0:
192,192,79960,1,0,0:0:0:0:
320,192,80068,1,0,0:0:0:0:
64,192,80176,1,0,0:0:0:0:
448,192,80176,1,0,0:0:0:0:
192,192,80338,1,0,0:0:0:0:
448,192,80501,1,0,0:0:0:0:
64,192,80501,1,0,0:0:0:0:
320,192,80663,1,0,0:0:0:0:
64,192,80825,1,0,0:0:0:0:
448,192,80825,1,0,0:0:0:0:
192,192,80906,1,0,0:0:0:0:
448,192,80987,1,0,0:0:0:0:
320,192,80987,1,0,0:0:0:0:
192,192,81068,1,0,0:0:0:0:
320,192,81149,1,0,0:0:0:0:
64,192,81149,1,0,0:0:0:0:
448,192,81230,1,0,0:0:0:0:
192,192,81311,1,0,0:0:0:0:
320,192,81311,1,0,0:0:0:0:
64,192,81392,1,0,0:0:0:0:
448,192,81474,1,0,0:0:0:0:
192,192,81474,1,0,0:0:0:0:
320,192,81555,1,0,0:0:0:0:
64,192,81636,1,0,0:0:0:0:
192,192,81636,1,0,0:0:0:0:
320,192,81717,1,0,0:0:0:0:
448,192,81798,1,0,0:0:0:0:
64,192,81798,1,0,0:0:0:0:
192,192,81879,1,0,0:0:0:0:
448,192,81960,1,0,0:0:0:0:
64,192,81960,1,0,0:0:0:0:
320,192,82041,1,0,0:0:0:0:
64,192,82122,1,0,0:0:0:0:
192,192,82163,1,0,0:0:0:0:
320,192,82203,1,0,0:0:0:0:
448,192,82244,1,0,0:0:0:0:
64,192,82284,1,0,0:0:0:0:
192,192,82325,1,0,0:0:0:0:
320,192,82365,1,0,0:0:0:0:
448,192,82406,1,0,0:0:0:0:
64,192,82447,1,0,0:0:0:0:
192,192,82487,1,0,0:0:0:0:
320,192,82528,1,0,0:0:0:0:
448,192,82568,1,0,0:0:0:0:
64,192,82609,1,0,0:0:0:0:
192,192,82649,1,0,0:0:0:0:
320,192,82690,1,0,0:0:0:0:
448,192,82730,1,0,0:0:0:0:
64,192,82771,1,0,0:0:0:0:
192,192,82811,1,0,0:0:0:0:
448,192,82852,1,0,0:0:0:0:
320,192,82892,1,0,0:0:0:0:
64,192,82933,1,0,0:0:0:0:
192,192,82974,1,0,0:0:0:0:
448,192,83014,1,0,0:0:0:0:
320,192,83055,1,0,0:0:0:0:
64,192,83095,1,0,0:0:0:0:
192,192,83136,1,0,0:0:0:0:
448,192,83176,1,0,0:0:0:0:
320,192,83217,1,0,0:0:0:0:
64,192,83257,1,0,0:0:0:0:
192,192,83298,1,0,0:0:0:0:
448,192,83338,1,0,0:0:0:0:
320,192,83379,1,0,0:0:0:0:
192,192,83420,1,0,0:0:0:0:
64,192,83420,1,2,0:0:0:0:
320,192,83582,1,8,0:0:0:0:
192,192,83663,1,0,0:0:0:0:
64,192,83744,1,2,0:0:0:0:
448,192,83744,1,0,0:0:0:0:
320,192,83825,1,0,0:0:0:0:
64,192,83906,1,8,0:0:0:0:
192,192,83987,1,0,0:0:0:0:
320,192,84068,1,2,0:0:0:0:
448,192,84068,1,0,0:0:0:0:
192,192,84149,1,0,0:0:0:0:
64,192,84149,1,0,0:0:0:0:
320,192,84230,1,8,0:0:0:0:
448,192,84230,1,0,0:0:0:0:
192,192,84392,1,2,0:0:0:0:
64,192,84392,1,0,0:0:0:0:
320,192,84474,1,0,0:0:0:0:
448,192,84474,1,0,0:0:0:0:
192,192,84555,1,8,0:0:0:0:
64,192,84555,1,0,0:0:0:0:
448,192,84717,1,2,0:0:0:0:
64,192,84717,1,0,0:0:0:0:
320,192,84798,1,0,0:0:0:0:
192,192,84879,1,8,0:0:0:0:
448,192,84960,1,0,0:0:0:0:
320,192,85041,1,2,0:0:0:0:
64,192,85041,1,0,0:0:0:0:
192,192,85122,1,0,0:0:0:0:
320,192,85203,1,8,0:0:0:0:
448,192,85284,1,0,0:0:0:0:
192,192,85365,1,2,0:0:0:0:
64,192,85365,1,0,0:0:0:0:
320,192,85447,1,0,0:0:0:0:
448,192,85447,1,0,0:0:0:0:
192,192,85528,1,8,0:0:0:0:
64,192,85528,1,0,0:0:0:0:
320,192,85690,1,2,0:0:0:0:
448,192,85690,1,0,0:0:0:0:
192,192,85771,1,0,0:0:0:0:
64,192,85771,1,0,0:0:0:0:
320,192,85852,1,8,0:0:0:0:
448,192,85852,1,0,0:0:0:0:
64,192,86014,1,0,0:0:0:0:
448,192,86014,1,2,0:0:0:0:
320,192,86095,1,0,0:0:0:0:
192,192,86176,1,8,0:0:0:0:
64,192,86257,1,0,0:0:0:0:
192,192,86338,1,2,0:0:0:0:
448,192,86338,1,0,0:0:0:0:
320,192,86420,1,0,0:0:0:0:
192,192,86501,1,8,0:0:0:0:
64,192,86582,1,0,0:0:0:0:
448,192,86663,1,0,0:0:0:0:
320,192,86663,1,2,0:0:0:0:
192,192,86744,1,0,0:0:0:0:
64,192,86744,1,0,0:0:0:0:
448,192,86825,1,0,0:0:0:0:
320,192,86825,1,8,0:0:0:0:
192,192,86987,1,2,0:0:0:0:
64,192,86987,1,0,0:0:0:0:
448,192,87068,1,0,0:0:0:0:
320,192,87068,1,0,0:0:0:0:
192,192,87149,1,8,0:0:0:0:
64,192,87149,1,0,0:0:0:0:
448,192,87311,1,2,0:0:0:0:
64,192,87311,1,0,0:0:0:0:
320,192,87392,1,0,0:0:0:0:
192,192,87474,1,8,0:0:0:0:
320,192,87555,1,0,0:0:0:0:
448,192,87636,1,2,0:0:0:0:
64,192,87636,1,0,0:0:0:0:
192,192,87717,1,0,0:0:0:0:
320,192,87798,1,8,0:0:0:0:
448,192,87879,1,0,0:0:0:0:
192,192,87960,1,2,0:0:0:0:
64,192,87960,1,0,0:0:0:0:
320,192,88041,1,0,0:0:0:0:
448,192,88041,1,0,0:0:0:0:
192,192,88122,1,8,0:0:0:0:
64,192,88122,1,0,0:0:0:0:
320,192,88284,1,2,0:0:0:0:
448,192,88284,1,0,0:0:0:0:
192,192,88365,1,0,0:0:0:0:
64,192,88365,1,0,0:0:0:0:
320,192,88447,1,8,0:0:0:0:
448,192,88447,1,0,0:0:0:0:
448,192,88609,1,0,0:0:0:0:
64,192,88609,1,2,0:0:0:0:
192,192,88690,1,0,0:0:0:0:
320,192,88771,1,8,0:0:0:0:
64,192,88852,1,0,0:0:0:0:
448,192,88933,1,0,0:0:0:0:
192,192,88933,1,2,0:0:0:0:
320,192,89014,1,0,0:0:0:0:
192,192,89095,1,8,0:0:0:0:
64,192,89176,1,0,0:0:0:0:
320,192,89257,1,2,0:0:0:0:
448,192,89257,1,0,0:0:0:0:
192,192,89338,1,0,0:0:0:0:
64,192,89338,1,0,0:0:0:0:
320,192,89420,1,8,0:0:0:0:
448,192,89420,1,0,0:0:0:0:
192,192,89582,1,2,0:0:0:0:
64,192,89582,1,0,0:0:0:0:
320,192,89663,1,0,0:0:0:0:
448,192,89663,1,0,0:0:0:0:
192,192,89744,1,8,0:0:0:0:
64,192,89744,1,0,0:0:0:0:
64,192,89906,1,0,0:0:0:0:
448,192,89906,1,2,0:0:0:0:
320,192,89987,1,0,0:0:0:0:
192,192,90068,1,8,0:0:0:0:
320,192,90149,1,0,0:0:0:0:
448,192,90230,1,2,0:0:0:0:
64,192,90230,1,0,0:0:0:0:
192,192,90311,1,0,0:0:0:0:
320,192,90392,1,8,0:0:0:0:
448,192,90474,1,0,0:0:0:0:
192,192,90555,1,2,0:0:0:0:
64,192,90555,1,0,0:0:0:0:
320,192,90636,1,0,0:0:0:0:
448,192,90636,1,0,0:0:0:0:
192,192,90717,1,8,0:0:0:0:
64,192,90717,1,0,0:0:0:0:
320,192,90879,1,2,0:0:0:0:
448,192,90879,1,0,0:0:0:0:
64,192,90960,1,0,0:0:0:0:
192,192,90960,1,0,0:0:0:0:
320,192,91041,1,8,0:0:0:0:
448,192,91041,1,0,0:0:0:0:
448,192,91203,1,0,0:0:0:0:
64,192,91203,1,2,0:0:0:0:
192,192,91284,1,0,0:0:0:0:
320,192,91365,1,8,0:0:0:0:
192,192,91447,1,0,0:0:0:0:
64,192,91528,1,2,0:0:0:0:
448,192,91528,1,0,0:0:0:0:
320,192,91609,1,0,0:0:0:0:
64,192,91690,1,8,0:0:0:0:
192,192,91771,1,0,0:0:0:0:
320,192,91852,1,2,0:0:0:0:
448,192,91852,1,0,0:0:0:0:
192,192,91933,1,0,0:0:0:0:
64,192,91933,1,0,0:0:0:0:
320,192,92014,1,8,0:0:0:0:
448,192,92014,1,0,0:0:0:0:
192,192,92176,1,2,0:0:0:0:
64,192,92176,1,0,0:0:0:0:
320,192,92257,1,0,0:0:0:0:
448,192,92257,1,0,0:0:0:0:
192,192,92338,1,8,0:0:0:0:
64,192,92338,1,0,0:0:0:0:
448,192,92501,1,2,0:0:0:0:
64,192,92501,1,0,0:0:0:0:
320,192,92582,1,0,0:0:0:0:
64,192,92663,1,8,0:0:0:0:
192,192,92744,1,0,0:0:0:0:
448,192,92825,1,0,0:0:0:0:
320,192,92825,1,2,0:0:0:0:
64,192,92906,1,0,0:0:0:0:
192,192,92987,1,8,0:0:0:0:
320,192,93068,1,0,0:0:0:0:
448,192,93149,1,0,0:0:0:0:
64,192,93149,1,2,0:0:0:0:
448,192,93311,1,0,0:0:0:0:
192,192,93311,1,2,0:0:0:0:
320,192,93474,1,2,0:0:0:0:
448,192,93474,1,0,0:0:0:0:
192,192,93555,1,2,0:0:0:0:
64,192,93555,1,0,0:0:0:0:
320,192,93636,1,2,0:0:0:0:
448,192,93636,1,0,0:0:0:0:
192,192,93717,1,2,0:0:0:0:
64,192,93717,1,0,0:0:0:0:
320,192,93798,1,2,0:0:0:0:
448,192,93798,1,4,0:0:0:0:
192,192,93879,1,0,0:0:0:0:
64,192,93960,1,8,0:0:0:0:
320,192,94041,1,0,0:0:0:0:
64,192,94122,1,2,0:0:0:0:
448,192,94122,1,0,0:0:0:0:
192,192,94203,1,0,0:0:0:0:
320,192,94284,1,8,0:0:0:0:
192,192,94365,1,0,0:0:0:0:
64,192,94447,1,2,0:0:0:0:
448,192,94447,1,0,0:0:0:0:
320,192,94528,1,0,0:0:0:0:
64,192,94609,1,8,0:0:0:0:
192,192,94690,1,0,0:0:0:0:
320,192,94771,1,2,0:0:0:0:
448,192,94771,1,0,0:0:0:0:
64,192,94852,1,0,0:0:0:0:
192,192,94933,1,8,0:0:0:0:
320,192,95014,1,0,0:0:0:0:
192,192,95095,1,2,0:0:0:0:
448,192,95176,1,0,0:0:0:0:
320,192,95257,1,8,0:0:0:0:
192,192,95338,1,0,0:0:0:0:
64,192,95420,1,2,0:0:0:0:
448,192,95420,1,0,0:0:0:0:
320,192,95501,1,0,0:0:0:0:
192,192,95582,1,8,0:0:0:0:
320,192,95663,1,0,0:0:0:0:
64,192,95744,1,2,0:0:0:0:
448,192,95744,1,0,0:0:0:0:
192,192,95825,1,0,0:0:0:0:
320,192,95906,1,8,0:0:0:0:
448,192,95987,1,0,0:0:0:0:
192,192,96068,1,2,0:0:0:0:
320,192,96068,1,0,0:0:0:0:
64,192,96149,1,0,0:0:0:0:
192,192,96230,1,8,0:0:0:0:
320,192,96311,1,0,0:0:0:0:
448,192,96392,1,2,0:0:0:0:
64,192,96474,1,0,0:0:0:0:
192,192,96555,1,8,0:0:0:0:
320,192,96636,1,0,0:0:0:0:
192,192,96717,1,2,0:0:0:0:
64,192,96717,1,0,0:0:0:0:
448,192,96798,1,0,0:0:0:0:
320,192,96879,1,8,0:0:0:0:
192,192,96960,1,0,0:0:0:0:
320,192,97041,1,2,0:0:0:0:
64,192,97041,1,0,0:0:0:0:
448,192,97122,1,0,0:0:0:0:
192,192,97203,1,8,0:0:0:0:
320,192,97284,1,0,0:0:0:0:
448,192,97365,1,0,0:0:0:0:
64,192,97365,1,2,0:0:0:0:
192,192,97447,1,0,0:0:0:0:
320,192,97528,1,8,0:0:0:0:
192,192,97609,1,0,0:0:0:0:
64,192,97690,1,2,0:0:0:0:
320,192,97771,1,0,0:0:0:0:
192,192,97852,1,8,0:0:0:0:
320,192,97933,1,0,0:0:0:0:
64,192,98014,1,2,0:0:0:0:
448,192,98014,1,0,0:0:0:0:
192,192,98095,1,0,0:0:0:0:
320,192,98176,1,8,0:0:0:0:
192,192,98257,1,0,0:0:0:0:
64,192,98338,1,2,0:0:0:0:
448,192,98338,1,0,0:0:0:0:
320,192,98420,1,0,0:0:0:0:
192,192,98501,1,8,0:0:0:0:
320,192,98582,1,0,0:0:0:0:
64,192,98663,1,2,0:0:0:0:
448,192,98663,1,0,0:0:0:0:
320,192,98744,1,0,0:0:0:0:
192,192,98825,1,8,0:0:0:0:
64,192,98906,1,0,0:0:0:0:
448,192,98987,1,2,0:0:0:0:
320,192,99068,1,0,0:0:0:0:
192,192,99149,1,8,0:0:0:0:
320,192,99230,1,0,0:0:0:0:
448,192,99311,1,2,0:0:0:0:
192,192,99311,1,0,0:0:0:0:
64,192,99392,1,0,0:0:0:0:
320,192,99474,1,8,0:0:0:0:
192,192,99555,1,0,0:0:0:0:
448,192,99636,1,2,0:0:0:0:
64,192,99636,1,0,0:0:0:0:
320,192,99717,1,0,0:0:0:0:
192,192,99798,1,8,0:0:0:0:
448,192,99879,1,0,0:0:0:0:
320,192,99960,1,2,0:0:0:0:
64,192,99960,1,0,0:0:0:0:
192,192,100041,1,0,0:0:0:0:
64,192,100122,1,8,0:0:0:0:
192,192,100203,1,0,0:0:0:0:
320,192,100284,1,2,0:0:0:0:
448,192,100365,1,0,0:0:0:0:
320,192,100447,1,8,0:0:0:0:
192,192,100528,1,0,0:0:0:0:
64,192,100609,1,2,0:0:0:0:
448,192,100609,1,0,0:0:0:0:
320,192,100690,1,0,0:0:0:0:
192,192,100771,1,8,0:0:0:0:
64,192,100852,1,0,0:0:0:0:
320,192,100933,1,0,0:0:0:0:
192,192,100933,1,2,0:0:0:0:
448,192,101014,1,0,0:0:0:0:
320,192,101095,1,8,0:0:0:0:
192,192,101176,1,0,0:0:0:0:
64,192,101257,1,0,0:0:0:0:
448,192,101257,1,2,0:0:0:0:
320,192,101338,1,0,0:0:0:0:
192,192,101420,1,8,0:0:0:0:
320,192,101501,1,0,0:0:0:0:
64,192,101582,1,2,0:0:0:0:
448,192,101582,1,0,0:0:0:0:
192,192,101663,1,0,0:0:0:0:
320,192,101744,1,8,0:0:0:0:
192,192,101825,1,0,0:0:0:0:
64,192,101906,1,2,0:0:0:0:
320,192,101906,1,0,0:0:0:0:
448,192,101987,1,0,0:0:0:0:
192,192,102068,1,8,0:0:0:0:
320,192,102149,1,0,0:0:0:0:
448,192,102230,1,0,0:0:0:0:
64,192,102230,1,2,0:0:0:0:
192,192,102311,1,0,0:0:0:0:
320,192,102392,1,8,0:0:0:0:
192,192,102474,1,0,0:0:0:0:
64,192,102555,1,2,0:0:0:0:
448,192,102555,1,0,0:0:0:0:
320,192,102636,1,0,0:0:0:0:
192,192,102717,1,8,0:0:0:0:
64,192,102798,1,0,0:0:0:0:
320,192,102879,1,2,0:0:0:0:
448,192,102879,1,0,0:0:0:0:
64,192,102960,1,0,0:0:0:0:
192,192,103041,1,8,0:0:0:0:
320,192,103122,1,0,0:0:0:0:
192,192,103203,1,2,0:0:0:0:
64,192,103203,1,0,0:0:0:0:
448,192,103284,1,0,0:0:0:0:
320,192,103365,1,8,0:0:0:0:
192,192,103447,1,0,0:0:0:0:
320,192,103528,1,2,0:0:0:0:
448,192,103528,1,0,0:0:0:0:
64,192,103609,1,0,0:0:0:0:
192,192,103690,1,8,0:0:0:0:
320,192,103771,1,0,0:0:0:0:
448,192,103852,1,0,0:0:0:0:
64,192,103852,1,2,0:0:0:0:
192,192,103933,1,0,0:0:0:0:
320,192,104014,1,8,0:0:0:0:
448,192,104095,1,0,0:0:0:0:
64,192,104176,1,4,0:0:0:0:
320,192,104176,1,0,0:0:0:0:
192,192,104176,1,2,0:0:0:0:
192,192,104338,1,8,0:0:0:0:
448,192,104501,1,2,0:0:0:0:
64,192,104501,128,0,104663:0:0:0:0:
320,192,104582,1,0,0:0:0:0:
192,192,104663,1,8,0:0:0:0:
448,192,104825,128,0,104987:0:0:0:0:
320,192,104825,1,2,0:0:0:0:
64,192,104987,1,8,0:0:0:0:
192,192,105068,1,0,0:0:0:0:
320,192,105149,128,0,105311:0:0:0:0:
64,192,105149,1,2,0:0:0:0:
448,192,105311,1,8,0:0:0:0:
192,192,105474,1,2,0:0:0:0:
320,192,105474,1,0,0:0:0:0:
64,192,105636,1,8,0:0:0:0:
320,192,105798,1,2,0:0:0:0:
448,192,105798,128,0,105960:0:0:0:0:
64,192,105879,1,0,0:0:0:0:
192,192,105960,1,8,0:0:0:0:
64,192,106122,128,0,106284:0:0:0:0:
320,192,106122,1,2,0:0:0:0:
448,192,106203,1,0,0:0:0:0:
192,192,106284,1,8,0:0:0:0:
320,192,106365,1,0,0:0:0:0:
448,192,106447,128,0,106609:0:0:0:0:
64,192,106447,1,2,0:0:0:0:
192,192,106609,1,8,0:0:0:0:
320,192,106771,1,2,0:0:0:0:
64,192,106771,1,0,0:0:0:0:
448,192,106933,1,8,0:0:0:0:
64,192,107095,1,2,0:0:0:0:
192,192,107095,128,0,107257:0:0:0:0:
448,192,107176,1,0,0:0:0:0:
320,192,107257,1,8,0:0:0:0:
448,192,107420,128,0,107582:0:0:0:0:
64,192,107420,1,2,0:0:0:0:
192,192,107501,1,0,0:0:0:0:
320,192,107582,1,8,0:0:0:0:
192,192,107663,1,0,0:0:0:0:
320,192,107744,128,0,107906:0:0:0:0:
64,192,107744,1,2,0:0:0:0:
448,192,107906,1,8,0:0:0:0:
192,192,108068,1,2,0:0:0:0:
64,192,108068,1,0,0:0:0:0:
320,192,108230,1,8,0:0:0:0:
448,192,108392,128,0,108555:0:0:0:0:
64,192,108392,1,2,0:0:0:0:
192,192,108474,1,0,0:0:0:0:
64,192,108555,1,8,0:0:0:0:
192,192,108717,128,0,108879:0:0:0:0:
448,192,108717,1,2,0:0:0:0:
320,192,108798,1,0,0:0:0:0:
64,192,108879,1,8,0:0:0:0:
192,192,108960,1,0,0:0:0:0:
320,192,109041,128,0,109203:0:0:0:0:
448,192,109041,1,2,0:0:0:0:
64,192,109203,1,8,0:0:0:0:
320,192,109365,1,0,0:0:0:0:
192,192,109365,1,2,0:0:0:0:
448,192,109528,1,8,0:0:0:0:
64,192,109690,128,0,109852:0:0:0:0:
192,192,109690,1,2,0:0:0:0:
448,192,109771,1,0,0:0:0:0:
320,192,109852,1,8,0:0:0:0:
448,192,110014,128,0,110176:0:0:0:0:
192,192,110014,1,2,0:0:0:0:
64,192,110176,1,8,0:0:0:0:
192,192,110257,1,0,0:0:0:0:
448,192,110338,1,2,0:0:0:0:
320,192,110338,128,0,110501:0:0:0:0:
64,192,110501,1,8,0:0:0:0:
192,192,110663,1,2,0:0:0:0:
448,192,110663,1,0,0:0:0:0:
320,192,110825,1,8,0:0:0:0:
192,192,110987,1,2,0:0:0:0:
64,192,110987,128,0,111149:0:0:0:0:
448,192,111068,1,0,0:0:0:0:
320,192,111149,1,8,0:0:0:0:
448,192,111311,128,0,111474:0:0:0:0:
64,192,111311,1,2,0:0:0:0:
192,192,111392,1,0,0:0:0:0:
320,192,111474,1,8,0:0:0:0:
448,192,111555,1,0,0:0:0:0:
192,192,111636,128,0,111798:0:0:0:0:
64,192,111636,1,2,0:0:0:0:
320,192,111798,1,8,0:0:0:0:
448,192,111960,1,2,0:0:0:0:
64,192,111960,1,0,0:0:0:0:
320,192,112122,1,8,0:0:0:0:
448,192,112284,128,0,112447:0:0:0:0:
64,192,112284,1,2,0:0:0:0:
192,192,112365,1,0,0:0:0:0:
320,192,112447,1,8,0:0:0:0:
64,192,112609,128,0,112771:0:0:0:0:
192,192,112609,1,2,0:0:0:0:
448,192,112690,1,0,0:0:0:0:
320,192,112771,1,8,0:0:0:0:
192,192,112852,1,0,0:0:0:0:
448,192,112933,1,2,0:0:0:0:
320,192,112933,128,0,113095:0:0:0:0:
64,192,113095,1,8,0:0:0:0:
320,192,113257,1,2,0:0:0:0:
64,192,113257,1,0,0:0:0:0:
448,192,113257,1,4,0:0:0:0:
192,192,113420,1,8,0:0:0:0:
64,192,113582,1,0,0:0:0:0:
320,192,113582,1,2,0:0:0:0:
448,192,113582,1,4,0:0:0:0:
192,192,113663,1,0,0:0:0:0:
320,192,113744,1,8,0:0:0:0:
192,192,113906,1,2,0:0:0:0:
64,192,113906,1,0,0:0:0:0:
448,192,113906,1,4,0:0:0:0:
320,192,113987,1,0,0:0:0:0:
192,192,114068,1,8,0:0:0:0:
64,192,114149,1,0,0:0:0:0:
320,192,114230,1,0,0:0:0:0:
448,192,114230,1,4,0:0:0:0:
192,192,114230,1,2,0:0:0:0:
320,192,114392,1,0,0:0:0:0:
192,192,114555,1,4,0:0:0:0:
64,192,114555,1,0,0:0:0:0:
448,192,114555,128,0,115852:0:0:0:70:001F.wav
192,192,115852,128,0,117149:0:0:0:70:001G.wav
320,192,117149,128,0,118447:0:0:0:70:001H.wav
64,192,118447,128,0,119744:0:0:0:70:001I.wav
448,192,119744,128,0,121041:0:0:0:70:001J.wav
320,192,121041,128,0,122338:0:0:0:70:001K.wav
192,192,122338,128,0,123636:0:0:0:70:001L.wav
448,192,123636,128,0,124933:0:0:0:70:001M.wav
64,192,124933,1,0,0:0:0:70:0008.wav
192,192,124933,1,0,0:0:0:0:
