osu file format v9

[General]
AudioFilename: Todestrieb.mp3
AudioLeadIn: 1000
PreviewTime: 42715
Countdown: 0
SampleSet: Soft
StackLeniency: 0.7
Mode: 0
LetterboxInBreaks: 1

[Editor]
DistanceSpacing: 0.8
BeatDivisor: 4
GridSize: 4

[Metadata]
Title:Todestrieb
Artist:Rche
Creator:Muya
Version:Normal
Source:beatmania IIDX
Tags:19 iidx19 lincle Gouman Lincle Kingdom taizai Phase2 DJ YOSHITAKA vs. TOMOSUKE

[Difficulty]
HPDrainRate:2
CircleSize:3
OverallDifficulty:4
ApproachRate:4
SliderMultiplier:1.1
SliderTickRate:2

[Events]
//Background and Video events
0,0,"bg.jpg"
//Break Periods
2,63772,72631
//Storyboard Layer 0 (Background)
//Storyboard Layer 1 (Fail)
//Storyboard Layer 2 (Pass)
//Storyboard Layer 3 (Foreground)
//Storyboard Sound Samples
//Background Colour Transformations
3,100,163,162,255

[TimingPoints]
1303.03389830508,324.324324324324,4,2,1,60,1,0
11681,-100,4,1,0,30,0,0
11843,-100,4,2,1,60,0,0
16870,-100,4,1,0,30,0,0
17032,-100,4,2,1,60,0,0
22059,-100,4,1,0,40,0,0
32438,-100,4,2,1,60,0,0
63573,-100,4,1,0,30,0,0
73951,-100,4,2,1,60,0,0
115465,-100,4,2,1,30,0,0
115546,-100,4,2,1,50,0,0
116762,-100,4,2,1,45,0,0
118059,-100,4,2,1,40,0,0
119357,-100,4,2,1,35,0,0
120654,-100,4,2,1,30,0,0
121951,-100,4,2,1,25,0,0
123248,-100,4,2,1,20,0,0
124546,-100,4,2,1,15,0,0
125843,-100,4,1,0,10,0,0

[Colours]
Combo1 : 130,130,0
Combo2 : 0,130,0
Combo3 : 0,0,130
Combo4 : 130,0,0

[HitObjects]
180,60,1303,2,0,B|92:92|28:28,4,165,2|0|2|0|2
332,148,3897,2,0,B|420:180|484:116,4,165,2|0|2|0|2
180,236,6492,6,0,B|92:268|28:204,4,165,2|0|2|0|2
332,324,9086,2,0,B|420:356|484:292,4,165,2|0|2|0|2
256,368,11356,1,2
176,332,11681,6,0,B|96:364|16:332,1,165,4|2
16,200,12654,2,0,B|96:168|176:200,1,165,0|2
292,268,13627,2,0,B|404:268,1,110,2|2
480,308,14276,6,0,B|512:228|480:148,1,165,0|2
356,192,15248,2,0,B|324:112|356:32,1,165,0|2
228,60,16221,2,0,B|116:60,1,110,2|2
32,36,16870,6,0,B|0:116|32:196,1,165,4|2
16,328,17843,2,0,B|52:248|148:248,1,165,0|2
272,296,18816,2,0,B|384:296,1,110,2|2
432,368,19465,6,0,B|476:332|476:252|432:220,1,165,0|2
308,184,20438,2,0,B|266:153|266:73|310:37,1,165,0|2
416,116,21411,2,0,B|416:228,1,110,2|2
496,268,22059,5,4
348,364,22708,1,0
256,212,23357,1,0
164,364,24005,1,0
68,216,24654,5,0
168,72,25303,1,0
344,72,25951,1,0
444,216,26600,1,0
344,360,27248,5,4
168,336,27897,1,0
192,160,28546,1,0
368,184,29194,1,0
256,48,29843,5,0
84,88,30492,1,0
4,244,31140,2,0,B|48:276|108:264,1,110,4|4
188,224,31789,1,4
256,60,32438,6,0,B|360:12|472:60,1,220,6|2
472,236,33735,2,0,B|368:284|256:236,1,220,2|2
172,84,35032,2,0,B|60:84,1,110,2|0
36,168,35681,2,0,B|148:168,1,110,2|0
228,200,36330,1,0
308,168,36654,2,0,B|396:152|460:224|444:312,1,220,2|0
372,344,37627,6,0,B|268:392|156:344,1,220,2|2
8,252,38924,2,0,B|112:204|224:252,1,220,2|2
396,272,40221,1,0
396,96,40870,1,2
232,32,41519,2,0,B|104:-4|0:104|40:224,1,330,2|2
0,296,42816,6,0,B|56:316|104:280,1,110,4|2
168,340,43465,2,0,B|215:304|271:324,1,110,0|2
348,280,44113,2,0,B|432:320|508:280,2,165,2|0|2
292,212,45411,6,0,B|264:160|292:108,1,110,0|2
364,160,46059,2,0,B|392:108|364:56,1,110,0|2
284,20,46708,2,0,B|224:24|188:80|208:140,2,165,2|0|2
296,108,48005,6,0,B|320:164|296:220,1,110,0|2
372,264,48654,2,0,B|292:224|212:256|188:336,1,220,2|0
112,368,49627,1,2
56,300,49951,2,0,B|32:244|56:188,1,110,0|2
12,116,50600,6,0,B|68:132|116:100,1,110,0|2
188,152,51248,2,0,B|268:64|392:104,1,220,0|0
460,156,52221,1,2
380,192,52546,2,0,B|340:236|356:296,1,110,0|2
404,368,53194,6,0,B|292:328|188:368,1,220,4|0
116,316,54167,1,2
40,360,54492,2,0,B|12:308|48:256,1,110,0|2
36,168,55140,2,0,B|88:192|144:168,1,110,0|2
92,96,55789,6,0,B|180:16|300:64,1,220,0|0
372,108,56762,1,2
444,56,57086,2,0,B|476:108|444:160,1,110,0|2
488,236,57735,2,0,B|436:204|384:224,1,110,0|2
428,300,58384,6,8,B|374:320|322:288,1,110,0|2
296,204,59032,2,0,B|272:132|184:100|112:140,1,220,0|0
44,192,60005,1,2
72,276,60330,2,0,B|108:324|168:324,1,110,0|2
248,292,60978,6,0,B|304:276|360:292,1,110,0|2
440,320,61627,2,0,B|504:272|504:176|440:128,1,220,2|0
372,76,62600,1,2
288,100,62924,2,0,B|228:108|184:68,2,110,0|2|4
260,112,73951,5,0
340,76,74276,2,0,B|456:76,2,110,2|2|0
180,148,75573,2,0,B|64:148,2,110,2|2|0
340,220,76870,2,0,B|456:220,2,110,2|2|0
180,292,78167,2,0,B|64:292,2,110,2|2|0
256,336,79140,6,0,B|308:352|364:336,1,110,0|2
424,272,79789,1,2
256,220,80438,2,0,B|204:236|148:220,1,110,0|2
88,156,81087,1,2
256,100,81735,6,0,B|312:116|364:100,1,110,0|2
444,60,82384,2,0,B|464:120|424:164,1,110,2|0
468,240,83032,2,0,B|344:228|292:344,1,220,0|2
184,204,84330,6,0,B|128:220|72:204,1,110,0|2
16,140,84978,2,0,B|0:84,2,55,2|0|2
104,124,85627,2,0,B|164:108|180:52,1,110,0|2
264,28,86275,2,0,B|316:44,2,55,2|0|2
252,116,86924,6,0,B|224:168|244:224,1,110,0|2
276,304,87573,2,0,B|232:336,2,55,2|0|2
352,348,88221,2,0,B|408:372|464:348,1,110,0|2
500,272,88870,2,0,B|512:220,2,55,2|0|2
416,296,89519,5,0
332,268,89843,1,2
276,200,90167,2,0,B|252:152|276:92,1,110,2|2
204,40,90816,1,0
132,92,91140,1,2
60,40,91465,2,0,B|16:80|24:144,1,110,2|2
4,224,92113,5,0
88,200,92438,1,2
172,224,92762,2,0,B|208:264|200:328,1,110,2|2
280,364,93411,1,0
364,340,93735,1,2
420,272,94059,2,0,B|452:224|440:168,1,110,2|2
500,104,94708,6,0,B|416:44|328:120|360:204,1,220,6|0
384,272,95681,1,0
296,260,96005,2,0,B|192:324|80:260,1,220,2|0
4,108,97303,6,0,B|52:20|156:12|252:68|244:180,1,330,2|0
172,212,98600,2,0,B|144:264|172:316,1,110,0|2
248,364,99248,2,0,B|296:336|356:348,1,110,0|2
440,368,99897,6,0,B|504:264|440:160,1,220,2|0
304,52,101194,2,0,B|240:156|304:260,1,220,2|0
156,356,102492,6,0,B|44:356,1,110,2|0
20,272,103140,2,0,B|132:272,1,110,2|0
212,236,103789,2,0,B|240:184|212:132,1,110,0|2
140,184,104438,2,0,B|112:132|140:80,1,110,0|2
220,40,105086,6,0,B|272:72|328:56,1,110,4|2
412,36,105735,2,0,B|508:104|460:236,1,220,2|0
416,308,106708,1,2
332,284,107032,2,0,B|220:284,1,110,0|2
148,332,107681,2,0,B|124:280|148:224,1,110,0|2
232,196,108330,2,0,B|288:116|224:28|140:44,1,220,2|0
168,128,109303,1,2
84,100,109627,1,2
12,260,110276,6,0,B|64:288|120:272,1,110,0|2
200,240,110924,2,0,B|256:224|308:252,1,110,2|0
372,312,111573,1,0
452,276,111897,2,0,B|504:248|508:184,2,110,2|2|0
420,192,112870,6,0,B|396:136|420:84,1,110,0|2
340,48,113519,2,0,B|288:24|232:36,1,110,2|0
168,96,114167,1,0
100,152,114492,2,0,B|68:100|96:44,2,110,2|2|0
156,220,115465,1,4
256,192,115546,12,4,125843
