osu file format v14

[General]
AudioFilename: audio.mp3
AudioLeadIn: 0
PreviewTime: 19
Countdown: 1
SampleSet: Normal
StackLeniency: 0.7
Mode: 2
LetterboxInBreaks: 0
WidescreenStoryboard: 1

[Editor]
DistanceSpacing: 1.4
BeatDivisor: 8
GridSize: 4
TimelineZoom: 1.7

[Metadata]
Title:And Dobby Was Watching!1
TitleUnicode:And Dobby Was Watching!1
Artist:Razor Sharp ft. Ditty
ArtistUnicode:Razor Sharp ft. Ditty
Creator:Sinnoh
Version:megastream
Source:
Tags:Magic Bomb Celerih Zexous Surono Noffy anime OzzyOzrock Litharrale Nifty SquirrelPascals JeirYagtama AncuL -Nicotine little witch academia Gabe Eldergleam Handsome Adiopulse harry potter fanfic soul evans
BeatmapID:1315169
BeatmapSetID:623956

[Difficulty]
HPDrainRate:6
CircleSize:4
OverallDifficulty:9
ApproachRate:9
SliderMultiplier:2
SliderTickRate:3

[Events]
//Background and Video events
0,0,"dobby.jpg",0,0
//Break Periods
//Storyboard Layer 0 (Background)
//Storyboard Layer 1 (Fail)
//Storyboard Layer 2 (Pass)
//Storyboard Layer 3 (Foreground)
//Storyboard Sound Samples

[TimingPoints]
86,535.714285714286,4,1,0,60,1,0

[HitObjects]
256,192,19,12,0,152,0:0:0:0:
374,297,86,5,0,0:0:0:0:
374,297,119,1,0,0:0:0:0:
381,273,185,1,0,0:0:0:0:
386,248,252,1,0,0:0:0:0:
390,224,319,1,0,0:0:0:0:
391,199,386,1,0,0:0:0:0:
390,174,453,1,0,0:0:0:0:
387,149,520,1,0,0:0:0:0:
381,124,554,1,0,0:0:0:0:
381,124,587,1,0,0:0:0:0:
154,239,621,5,0,0:0:0:0:
129,237,687,1,0,0:0:0:0:
107,225,754,1,0,0:0:0:0:
92,205,821,1,0,0:0:0:0:
87,181,888,1,0,0:0:0:0:
92,157,955,1,0,0:0:0:0:
106,137,1022,1,0,0:0:0:0:
128,125,1089,1,0,0:0:0:0:
378,92,1157,5,0,0:0:0:0:
353,91,1223,1,0,0:0:0:0:
328,90,1290,1,0,0:0:0:0:
303,89,1357,1,0,0:0:0:0:
278,88,1424,1,0,0:0:0:0:
253,87,1491,1,0,0:0:0:0:
455,202,1559,5,0,0:0:0:0:
457,177,1625,1,0,0:0:0:0:
68,315,1693,5,0,0:0:0:0:
66,290,1759,1,0,0:0:0:0:
64,265,1826,1,0,0:0:0:0:
62,240,1893,1,0,0:0:0:0:
61,215,1960,1,0,0:0:0:0:
59,190,2027,1,0,0:0:0:0:
57,165,2094,1,0,0:0:0:0:
292,226,2162,5,0,0:0:0:0:
315,218,2229,1,0,0:0:0:0:
335,203,2296,1,0,0:0:0:0:
349,182,2363,1,0,0:0:0:0:
355,158,2430,1,0,0:0:0:0:
353,133,2497,1,0,0:0:0:0:
153,322,2563,5,0,0:0:0:0:
133,306,2629,1,0,0:0:0:0:
120,285,2696,1,0,0:0:0:0:
419,265,2764,5,0,0:0:0:0:
394,264,2830,1,0,0:0:0:0:
369,263,2897,1,0,0:0:0:0:
344,262,2964,1,0,0:0:0:0:
319,261,3031,1,0,0:0:0:0:
487,203,3099,5,0,0:0:0:0:
489,178,3165,1,0,0:0:0:0:
206,231,3233,5,0,0:0:0:0:
204,206,3299,1,0,0:0:0:0:
203,181,3366,1,0,0:0:0:0:
202,156,3433,1,0,0:0:0:0:
200,131,3500,1,0,0:0:0:0:
428,97,3568,5,0,0:0:0:0:
406,84,3634,1,0,0:0:0:0:
384,72,3701,1,0,0:0:0:0:
96,226,3770,5,0,0:0:0:0:
72,218,3836,1,0,0:0:0:0:
54,201,3903,1,0,0:0:0:0:
44,178,3970,1,0,0:0:0:0:
44,154,4037,1,0,0:0:0:0:
54,131,4104,1,0,0:0:0:0:
72,114,4171,1,0,0:0:0:0:
96,107,4238,1,0,0:0:0:0:
355,315,4304,5,0,0:0:0:0:
256,192,4304,12,0,5443,0:0:0:0:
372,297,4370,5,0,0:0:0:0:
386,276,4437,1,0,0:0:0:0:
397,254,4504,1,0,0:0:0:0:
404,230,4571,1,0,0:0:0:0:
406,205,4638,1,0,0:0:0:0:
404,180,4705,1,0,0:0:0:0:
399,156,4772,1,0,0:0:0:0:
389,133,4839,1,0,0:0:0:0:
375,112,4906,1,0,0:0:0:0:
358,93,4973,1,0,0:0:0:0:
338,78,5040,1,0,0:0:0:0:
316,66,5107,1,0,0:0:0:0:
