osu file format v14

[General]
AudioFilename: audio.mp3
AudioLeadIn: 0
PreviewTime: 86
Countdown: 0
SampleSet: None
StackLeniency: 0.7
Mode: 3
LetterboxInBreaks: 0
SpecialStyle: 0
WidescreenStoryboard: 1

[Editor]
DistanceSpacing: 1.4
BeatDivisor: 6
GridSize: 4
TimelineZoom: 1.2

[Metadata]
Title:And Dobby Was Watching!1
TitleUnicode:And Dobby Was Watching!1
Artist:Razor Sharp ft. Ditty
ArtistUnicode:Razor Sharp ft. Ditty
Creator:Sinnoh
Version:9j
Source:
Tags:Magic Bomb Celerih Zexous Surono Noffy anime OzzyOzrock Litharrale Nifty SquirrelPascals JeirYagtama AncuL -Nicotine little witch academia Gabe Eldergleam Handsome Adiopulse harry potter fanfic soul evans
BeatmapID:1315131
BeatmapSetID:623956

[Difficulty]
HPDrainRate:5
CircleSize:9
OverallDifficulty:5
ApproachRate:5
SliderMultiplier:1.4
SliderTickRate:1

[Events]
//Background and Video events
0,0,"dobby.jpg",0,0
//Break Periods
//Storyboard Layer 0 (Background)
//Storyboard Layer 1 (Fail)
//Storyboard Layer 2 (Pass)
//Storyboard Layer 3 (Foreground)
//Storyboard Sound Samples

[TimingPoints]
86,535.714285714286,4,3,0,50,1,0

[HitObjects]
28,192,86,5,0,0:0:0:0:
142,192,86,1,0,0:0:0:0:
369,192,86,1,0,0:0:0:0:
483,192,86,1,0,0:0:0:0:
256,192,86,1,0,0:0:0:0:
85,192,152,1,0,0:0:0:0:
199,192,152,1,0,0:0:0:0:
312,192,152,1,0,0:0:0:0:
426,192,152,1,0,0:0:0:0:
142,192,219,1,0,0:0:0:0:
256,192,219,1,0,0:0:0:0:
483,192,219,1,0,0:0:0:0:
28,192,219,1,0,0:0:0:0:
369,192,219,1,0,0:0:0:0:
199,192,286,1,0,0:0:0:0:
426,192,286,1,0,0:0:0:0:
312,192,286,1,0,0:0:0:0:
85,192,286,1,0,0:0:0:0:
369,192,353,1,0,0:0:0:0:
142,192,353,1,0,0:0:0:0:
28,192,353,1,0,0:0:0:0:
256,192,353,1,0,0:0:0:0:
483,192,353,1,0,0:0:0:0:
85,192,420,1,0,0:0:0:0:
199,192,420,1,0,0:0:0:0:
312,192,420,1,0,0:0:0:0:
426,192,420,1,0,0:0:0:0:
369,192,487,1,0,0:0:0:0:
256,192,487,1,0,0:0:0:0:
142,192,487,1,0,0:0:0:0:
28,192,487,1,0,0:0:0:0:
483,192,487,1,0,0:0:0:0:
426,192,554,1,0,0:0:0:0:
312,192,554,1,0,0:0:0:0:
199,192,554,1,0,0:0:0:0:
85,192,554,1,0,0:0:0:0:
28,192,621,1,0,0:0:0:0:
142,192,621,128,0,1157:0:0:0:0:
256,192,621,128,0,1157:0:0:0:0:
369,192,621,128,0,1157:0:0:0:0:
483,192,621,128,0,1157:0:0:0:0:
28,192,1157,128,0,1514:0:0:0:0:
85,192,1157,128,0,1514:0:0:0:0:
426,192,1157,128,0,1514:0:0:0:0:
199,192,1157,128,0,1514:0:0:0:0:
312,192,1514,1,0,0:0:0:0:
369,192,1514,1,0,0:0:0:0:
256,192,1514,1,0,0:0:0:0:
142,192,1693,128,0,2161:0:0:0:0:
483,192,1693,128,0,2161:0:0:0:0:
28,192,1693,128,0,2161:0:0:0:0:
312,192,1693,128,0,2161:0:0:0:0:
256,192,2161,128,0,2764:0:0:0:0:
85,192,2161,128,0,2563:0:0:0:0:
426,192,2161,128,0,2563:0:0:0:0:
312,192,2563,1,0,0:0:0:0:
199,192,2563,1,0,0:0:0:0:
369,192,2664,1,0,0:0:0:0:
142,192,2664,1,0,0:0:0:0:
483,192,2764,128,0,3300:0:0:0:0:
426,192,2764,1,0,0:0:0:0:
28,192,2764,1,0,0:0:0:0:
85,192,2764,128,0,3121:0:0:0:0:
142,192,3121,1,0,0:0:0:0:
256,192,3121,1,0,0:0:0:0:
312,192,3121,1,0,0:0:0:0:
28,192,3300,128,0,3836:0:0:0:0:
199,192,3300,128,0,3568:0:0:0:0:
369,192,3300,128,0,3568:0:0:0:0:
426,192,3568,1,0,0:0:0:0:
483,192,3568,1,0,0:0:0:0:
85,192,3568,1,0,0:0:0:0:
142,192,3746,128,0,4282:0:0:0:0:
256,192,3746,128,0,4103:0:0:0:0:
312,192,3746,128,0,4103:0:0:0:0:
426,192,3746,128,0,4103:0:0:0:0:
256,192,4282,128,0,5978:0:0:0:0:
28,192,4282,128,0,4907:0:0:0:0:
85,192,4282,128,0,4907:0:0:0:0:
369,192,4282,128,0,4639:0:0:0:0:
483,192,4282,128,0,5978:0:0:0:0:
