osu file format v14

[General]
AudioFilename: audio.mp3
AudioLeadIn: 0
PreviewTime: 86
Countdown: 0
SampleSet: None
StackLeniency: 0.7
Mode: 3
LetterboxInBreaks: 0
SpecialStyle: 0
WidescreenStoryboard: 1

[Editor]
DistanceSpacing: 1.4
BeatDivisor: 12
GridSize: 4
TimelineZoom: 2.3

[Metadata]
Title:And Dobby Was Watching!1
TitleUnicode:And Dobby Was Watching!1
Artist:Razor Sharp ft. Ditty
ArtistUnicode:Razor Sharp ft. Ditty
Creator:Sinnoh
Version:8k
Source:
Tags:Magic Bomb Celerih Zexous Surono Noffy anime OzzyOzrock Litharrale Nifty SquirrelPascals JeirYagtama AncuL -Nicotine little witch academia Gabe Eldergleam Handsome Adiopulse harry potter fanfic soul evans
BeatmapID:1315291
BeatmapSetID:623956

[Difficulty]
HPDrainRate:9
CircleSize:6
OverallDifficulty:10
ApproachRate:5
SliderMultiplier:1.4
SliderTickRate:1

[Events]
//Background and Video events
0,0,"dobby.jpg",0,0
//Break Periods
//Storyboard Layer 0 (Background)
//Storyboard Layer 1 (Fail)
//Storyboard Layer 2 (Pass)
//Storyboard Layer 3 (Foreground)
//Storyboard Sound Samples

[TimingPoints]
86,535.714285714286,4,3,0,50,1,0

[HitObjects]
42,192,86,5,0,0:0:0:0:
469,192,86,1,0,0:0:0:0:
128,192,152,1,0,0:0:0:0:
384,192,152,1,0,0:0:0:0:
213,192,219,1,0,0:0:0:0:
298,192,219,1,0,0:0:0:0:
469,192,286,1,0,0:0:0:0:
42,192,287,1,0,0:0:0:0:
384,192,353,1,0,0:0:0:0:
128,192,354,1,0,0:0:0:0:
298,192,420,1,0,0:0:0:0:
213,192,421,1,0,0:0:0:0:
469,192,487,1,0,0:0:0:0:
42,192,487,1,0,0:0:0:0:
384,192,554,1,0,0:0:0:0:
128,192,554,1,0,0:0:0:0:
298,192,621,128,0,1068:0:0:0:0:
213,192,621,128,0,1068:0:0:0:0:
42,192,1068,1,0,0:0:0:0:
128,192,1068,128,0,1514:0:0:0:0:
469,192,1068,128,0,1514:0:0:0:0:
298,192,1514,1,0,0:0:0:0:
384,192,1514,1,0,0:0:0:0:
42,192,1693,128,0,2050:0:0:0:0:
384,192,1693,128,0,2050:0:0:0:0:
213,192,2050,1,0,0:0:0:0:
469,192,2050,1,0,0:0:0:0:
298,192,2139,1,0,0:0:0:0:
469,192,2228,128,0,2563:0:0:0:0:
128,192,2228,128,0,2563:0:0:0:0:
384,192,2563,1,0,0:0:0:0:
42,192,2563,1,0,0:0:0:0:
298,192,2719,128,0,3077:0:0:0:0:
469,192,2719,128,0,3077:0:0:0:0:
213,192,2719,128,0,3077:0:0:0:0:
42,192,3077,1,0,0:0:0:0:
128,192,3077,1,0,0:0:0:0:
384,192,3077,1,0,0:0:0:0:
384,192,3255,128,0,3568:0:0:0:0:
42,192,3255,128,0,3568:0:0:0:0:
128,192,3255,128,0,3568:0:0:0:0:
298,192,3568,128,0,3746:0:0:0:0:
213,192,3568,1,0,0:0:0:0:
469,192,3746,128,0,4282:0:0:0:0:
213,192,3746,128,0,4282:0:0:0:0:
384,192,4170,1,0,0:0:0:0:
298,192,4237,1,0,0:0:0:0:
384,192,4282,128,0,5443:0:0:0:0:
42,192,4282,128,0,5443:0:0:0:0:
128,192,4282,128,0,4639:0:0:0:0:
