osu file format v9

[General]
AudioFilename: RaymondWong .mp3
AudioLeadIn: 1985
PreviewTime: 522
Countdown: 0
SampleSet: Soft
StackLeniency: 0.7
Mode: 0
LetterboxInBreaks: 1

[Editor]
DistanceSpacing: 1
BeatDivisor: 4
GridSize: 8

[Metadata]
Title:Shaolin Soccer Opening
Artist:Raymond Wong
Creator:DarkRingSystem
Version:Insane
Source:Shaolin Soccer
Tags:Chinese

[Difficulty]
HPDrainRate:6
CircleSize:4
OverallDifficulty:6
ApproachRate:9
SliderMultiplier:1.4
SliderTickRate:2

[Events]
//Background and Video events
0,0,"BG.jpg"
//Break Periods
2,52891,55569
//Storyboard Layer 0 (Background)
//Storyboard Layer 1 (Fail)
//Storyboard Layer 2 (Pass)
//Storyboard Layer 3 (Foreground)
//Storyboard Sound Samples
//Background Colour Transformations
3,100,163,162,255

[TimingPoints]
522,434.735354852733,4,2,1,100,1,0
740,-50,4,2,1,20,0,0
794,-50,4,2,1,40,0,0
849,-50,4,2,1,60,0,0
903,-50,4,2,1,80,0,0
957,-50,4,2,1,100,0,0
1065,-50,4,2,1,50,0,0
1283,-50,4,2,1,100,0,0
1500,-50,4,2,1,50,0,0
1717,-50,4,2,1,100,0,0
1935,-50,4,2,1,50,0,0
2370,-50,4,2,1,40,0,0
2533,-50,4,2,1,40,0,0
2587,-50,4,2,1,60,0,0
2641,-50,4,2,1,80,0,0
2696,-50,4,2,1,100,0,0
2804,-50,4,2,1,50,0,0
3456,-50,4,2,1,100,0,0
3891,-50,4,2,1,50,0,0
4109,-50,4,2,1,40,0,0
4272,-50,4,2,1,40,0,0
4326,-50,4,2,1,60,0,0
4380,-50,4,2,1,80,0,0
4435,-50,4,2,1,100,0,0
4543,-50,4,2,1,50,0,0
5141,-50,4,2,1,100,0,0
5630,-50,4,2,1,50,0,0
5848,-50,4,2,1,20,0,0
6011,-50,4,2,1,40,0,0
6065,-50,4,2,1,60,0,0
6119,-50,4,2,1,80,0,0
6174,-50,4,2,1,100,0,0
6282,-50,4,2,1,50,0,0
6934,-50,4,2,1,100,0,0
7369,-50,4,2,1,50,0,0
7587,-50,4,2,1,100,0,0
7804,-50,4,2,1,40,0,0
7967,-50,4,2,1,60,0,0
8076,-50,4,2,1,80,0,0
8184,-50,4,2,1,100,0,0
8456,-50,4,2,1,50,0,0
8673,-50,4,2,1,75,0,0
8891,-50,4,2,1,100,0,0
9543,-50,4,2,1,60,0,0
9760,-50,4,2,1,60,0,0
9869,-50,4,2,1,80,0,0
9978,-50,4,2,1,100,0,0
10195,-50,4,2,1,30,0,0
10412,-50,4,2,1,70,0,0
10684,-50,4,2,1,70,0,0
10847,-50,4,2,1,90,0,0
11065,-50,4,2,1,100,0,0
11282,-50,4,2,1,70,0,0
11554,-50,4,2,1,70,0,0
11717,-50,4,2,1,100,0,0
11934,-50,4,2,1,30,0,0
12151,-50,4,2,1,50,0,0
12369,-50,4,2,1,70,0,0
12586,-50,4,2,1,85,0,0
12804,-50,4,2,1,100,0,0
13021,-50,4,2,1,40,0,0
13293,-50,4,2,1,70,0,0
13456,-50,4,2,1,100,0,0
13673,-50,4,2,1,70,0,0
13890,-50,4,2,1,70,0,0
14108,-50,4,2,1,70,0,0
14325,-50,4,2,1,70,0,0
14543,-50,4,2,1,30,0,0
14760,-50,4,2,1,30,0,0
14977,-50,4,2,1,60,0,0
15195,-50,4,2,1,50,0,0
15412,-50,4,2,1,70,0,0
15629,-50,4,2,1,70,0,0
15847,-50,4,2,1,80,0,0
16064,-50,4,2,1,90,0,0
16282,-50,4,2,1,50,0,0
16716,-50,4,2,1,50,0,0
17151,-50,4,2,1,100,0,0
17586,-50,4,2,1,80,0,0
18020,-50,4,2,1,100,0,0
18454,-50,4,2,1,80,0,0
19759,-50,4,2,1,100,0,0
20193,-50,4,2,1,80,0,0
20520,-50,4,2,1,50,0,0
20846,-50,4,2,1,50,0,0
21063,-50,4,2,1,100,0,0
21497,-50,4,2,1,60,0,0
22258,-50,4,2,1,100,0,0
23236,-50,4,2,1,60,0,0
23997,-50,4,2,1,100,0,0
24975,-50,4,2,1,60,0,0
25410,-50,4,2,1,100,0,0
26714,-50,4,2,1,60,0,0
27475,-50,4,2,1,100,0,0
28338,-100,4,2,1,100,0,0
29757,-100,4,2,1,60,0,0
30410,-100,4,2,1,50,0,0
30627,-100,4,2,1,66,0,0
30844,-100,4,2,1,80,0,0
31062,-100,4,2,1,90,0,0
31279,-100,4,2,1,100,0,0
34540,-100,4,2,1,70,0,0
36713,-100,4,2,1,100,0,0
42039,-100,4,2,1,60,0,0
43452,-100,4,2,1,100,0,0
43886,-100,4,2,1,60,0,0
45191,-100,4,2,1,100,0,0
45625,-100,4,2,1,60,0,0
47256,-100,4,2,1,100,0,0
66275,-100,4,2,1,50,0,0
66493,-100,4,2,1,100,0,0
73777,-100,4,2,1,30,0,0
74212,-100,4,2,1,60,0,0
74593,-100,4,2,1,70,0,0
75408,-100,4,2,1,80,0,0
75951,-100,4,2,1,100,0,0
98011,-100,4,2,1,0,0,0
100077,-100,4,2,1,100,0,0

[Colours]
Combo1 : 0,0,64
Combo2 : 19,1,243
Combo3 : 244,0,0

[HitObjects]
152,192,523,1,8
256,288,740,2,8,B|320:288,4,35
360,192,1175,1,8
80,192,1609,5,4
432,192,1827,1,4
168,280,2260,5,8
168,144,2477,2,8,B|224:144,4,35
24,144,2912,1,8
272,8,3346,5,4
272,352,3564,1,4
40,192,3999,5,8
184,192,4217,2,8,B|248:192,4,35
320,192,4651,1,8
240,8,5085,5,4
240,352,5303,1,4
456,192,5738,5,8
320,192,5956,2,8,B|256:192,4,35
184,192,6390,1,8
280,8,6825,5,4
280,352,7043,1,4
496,184,7477,5,8
360,184,7694,1,12
224,200,7912,2,2,B|224:136,5,35
424,256,8564,5,8
304,184,8781,1,8
184,256,8999,1,2
304,328,9216,1,8
304,184,9434,1,8
280,48,9651,2,2,B|336:48,5,35
280,224,10303,5,8
184,128,10520,1,8
280,32,10738,1,2
376,128,10955,1,8
280,224,11173,1,8
280,88,11390,2,2,B|280:152,5,35
376,272,12042,5,8
280,376,12260,1,8
184,272,12477,1,2
280,168,12694,1,8
184,64,12912,1,8
280,168,13129,2,2,B|344:168,5,35
256,336,13781,5,8
136,256,13999,1,8
192,128,14216,1,2
336,128,14434,1,8
384,256,14651,1,8
312,256,14759,1,8
240,256,14868,1,2
120,328,15086,1,8
120,192,15303,1,2
120,328,15520,1,8
120,192,15738,1,8
184,72,15955,5,8
328,72,16173,1,2
256,192,16389,1,8
256,264,16498,1,8
256,336,16607,1,2
368,256,16825,1,8
256,336,17042,1,10
144,256,17258,1,8
256,336,17476,1,4
368,256,17693,1,8
256,168,17911,5,4
152,72,18128,1,2
152,144,18237,1,2
152,216,18345,1,2
256,120,18563,1,4
352,216,18780,1,8
256,120,18997,1,2
152,216,19215,1,8
256,120,19432,1,4
256,264,19650,5,4
368,344,19867,1,2
368,272,19976,1,2
368,200,20084,1,2
256,120,20302,1,8
144,184,20519,6,8,B|216:184,1,70
56,80,20736,1,8
56,304,20954,1,12
304,184,21389,5,4
440,224,21606,2,2,B|440:144,2,70
344,120,22041,1,2
344,264,22258,1,8
256,336,22475,1,8
256,48,22693,1,8
256,192,22910,2,8,B|200:192|200:192|168:192|168:192|160:192,2,70
120,160,23345,6,2,B|120:248,2,70
120,304,23780,1,2
16,208,23997,1,8
120,304,24214,1,8
184,176,24432,1,4
120,304,24649,1,8
264,304,24867,5,8
336,184,25084,1,2
264,184,25193,1,2
192,184,25301,1,2
40,184,25519,1,2
112,304,25736,2,8,B|40:304,2,70
256,304,26171,1,8
328,184,26388,1,8
256,64,26606,5,4
256,192,26823,1,2
256,264,26932,1,2
256,336,27040,1,2
112,328,27258,1,2
112,192,27475,1,8
112,376,27692,1,2
112,144,27910,1,2
112,264,28127,5,8
112,264,28345,2,2,B|-8:264|-8:160|192:144,1,280
248,120,29431,1,8
320,144,29649,1,4
280,200,29866,1,2
264,232,29975,1,2
232,248,30084,1,2
168,272,30301,1,8
424,32,30518,5,8
368,344,30736,1,8
256,32,30953,1,4
144,344,31170,1,8
80,32,31388,1,8
216,192,31605,2,8,B|288:192,1,70
424,224,32257,5,2
424,152,32475,1,2
288,192,32909,2,8,B|216:192,1,70
218,192,33562,1,8
218,192,33996,2,8,B|298:192,1,70,8|8
360,192,34431,1,4
424,192,34648,5,8
392,192,34757,1,8
360,192,34866,1,8
288,192,35083,2,8,B|288:144|248:136,2,70
288,192,35735,2,8,B|288:240|240:248,2,70
216,192,36387,1,8
184,192,36496,1,8
152,192,36605,1,8
80,192,36822,1,8
16,192,37040,1,12
256,304,37474,5,4
368,120,37692,1,8
144,120,37909,1,8
256,352,38344,1,8
256,32,38779,1,8
192,288,39213,1,2
320,288,39430,1,2
160,192,39865,6,8,B|216:192,1,35
232,192,40083,1,4
304,192,40300,1,2
376,192,40518,1,8
280,64,40952,5,2
280,296,41170,1,2
280,296,41604,1,4
280,64,41822,1,8
136,192,42257,6,8,B|144:144|192:144,1,70
215,136,42582,1,8
248,146,42691,2,8,B|288:146|304:218,1,70
248,248,43126,2,8,B|216:280|184:248,2,70
328,136,43996,6,8,B|327:183|370:195,1,70
394,205,44321,1,8
427,195,44430,2,8,B|472:173|456:107,1,70
416,72,44865,2,0,B|384:104|344:64,1,70,8|2
384,8,45300,1,4
256,240,45735,6,8,B|251:281|195:281,2,70
256,168,46387,1,8
256,96,46604,2,8,B|264:64|312:56,2,70
256,168,47256,1,8
160,352,47474,5,8
352,352,47690,1,8
256,32,48126,1,10
256,104,48343,1,8
256,384,49213,1,4
176,264,49647,5,8
256,64,49865,1,8
328,264,50082,1,8
136,128,50300,1,2
376,128,50517,1,8
176,264,50734,1,2
48,96,50952,2,8,B|0:192|0:192|64:288,1,210,8|8
192,272,51821,1,8
320,272,52039,1,8
376,136,52256,1,8
256,56,52473,1,8
144,136,52691,1,8
256,192,56169,5,12
328,192,56386,1,8
360,192,56495,1,2
392,192,56603,1,2
432,136,56821,2,8,B|456:104|432:72,1,70
432,240,57254,2,8,B|456:264|432:304,1,70
256,192,57688,1,6
184,192,57906,5,8
112,192,58123,1,8
80,192,58232,1,2
48,192,58340,1,2
168,80,58558,2,8,B|200:48|240:48,1,70
168,288,58993,2,8,B|200:320|240:320,1,70
352,192,59427,2,8,B|272:192,1,70
216,192,59862,5,8
184,192,59971,1,2
152,192,60079,1,2
40,56,60297,1,8
184,328,60514,1,8
184,56,60732,1,8
40,336,60949,1,8
216,192,61166,1,8
216,192,61384,5,8
288,192,61601,1,8
320,192,61710,1,2
352,192,61818,1,2
424,192,62036,1,8
464,56,62253,1,8
328,328,62471,1,8
328,56,62688,1,8
464,328,62905,1,8
320,192,63123,1,4
320,192,63340,6,8,B|168:192,1,140
112,192,63992,1,8
152,136,64210,1,2
176,112,64318,1,2
208,96,64427,1,2
272,72,64644,1,8
272,288,64862,1,10
272,144,65079,1,2
272,216,65296,1,8
336,184,65514,5,8
208,184,65731,1,2
408,184,65949,1,2
136,184,66166,1,8
64,184,66383,1,12
472,184,66601,1,12
376,104,67035,6,8,B|320:48|240:64,1,140,8|2
320,192,67688,1,2
256,192,67905,2,2,B|200:192,2,35,8|8|8
340,292,68340,6,8,B|324:340|268:340,1,70,2|8
221,336,68775,2,8,B|170:327|165:272,1,70,2|8
224,248,69210,2,8,B|264:216|304:264,2,70,8|8|2
272,200,69862,2,0,B|312:200,2,35,8|8|8
232,144,70297,2,2,B|184:144,2,35,8|8|8
256,40,70731,5,8
256,320,70948,1,8
256,104,71166,1,8
256,256,71383,1,8
256,184,71600,1,8
0,184,71817,5,4
456,184,72252,1,8
56,184,72687,1,8
384,0,73122,1,8
112,368,73557,1,12
256,184,73991,6,8,B|200:200|200:112|328:112|328:248|200:248|208:248,1,210
184,232,74752,1,8
160,208,74861,1,8
136,144,75078,1,8
176,80,75296,1,2
256,48,75513,1,8
344,80,75730,1,2
400,160,75948,1,8
360,272,76165,1,10
256,328,76383,1,8
136,192,76600,1,12
128,96,77035,5,8
192,128,77252,1,8
128,96,77469,1,8
256,160,77687,1,10
128,96,77904,1,8
320,192,78122,1,8
128,96,78339,1,14
480,280,78774,5,8
416,248,78991,1,8
480,280,79208,1,8
352,216,79426,1,10
480,280,79643,1,8
288,184,79861,1,8
480,280,80078,1,14
144,152,80513,6,8,B|208:112,1,70
256,240,80947,2,8,B|256:200,2,35
368,152,81382,2,8,B|296:112,1,70
256,104,81708,2,0,B|256:152,1,35,8|8
256,208,82034,1,8
256,280,82252,5,8
328,280,82469,1,8
184,280,82686,1,8
400,280,82904,1,8
112,280,83121,1,8
256,280,83556,6,8,B|256:184,1,70
256,210,83991,1,12
264,168,84425,6,8,B|288:128|336:136,1,70,8|8
264,232,84860,2,8,B|240:272|200:264,1,70,8|8
256,104,85295,2,8,B|265:65|304:56,1,70,8|8
256,312,85730,2,8,B|248:352|208:368,1,70,8|8
104,248,86164,1,8
158,192,86382,1,10
216,144,86599,1,8
280,192,86817,2,10,B|352:192,2,70
456,192,87469,5,8
400,248,87686,2,8,B|352:248,2,35
256,192,88121,2,8,B|216:192,2,35
80,232,88556,2,2,B|80:160,2,70
216,192,89208,1,8
216,192,89425,6,8,B|264:192,2,35
360,96,89860,2,8,B|400:96,2,35
432,232,90295,2,2,B|432:160,2,70
256,192,90947,5,8
184,192,91164,2,8,B|160:192,4,17.5
112,192,91599,1,12
256,48,91816,1,8
256,312,92034,1,10
256,48,92251,1,8
256,312,92468,1,10
480,192,92686,5,8
408,192,92903,2,8,B|376:192,4,17.5
160,48,93338,1,8
256,312,93555,1,8
352,48,93773,1,2
256,312,93990,1,8
160,48,94207,1,10
256,312,94425,5,8
256,240,94642,2,8,B|256:208,4,17.5
136,48,95077,1,12
376,112,95294,1,8
136,176,95512,1,2
376,232,95729,1,8
136,312,95946,1,2
488,176,96164,5,8
416,176,96381,2,8,B|392:176,4,17.5
264,176,96816,1,12
240,248,97033,2,8,B|160:248|152:112|248:104,1,210
264,176,97903,1,4
256,192,98011,12,0,99859
