osu file format v9

[General]
AudioFilename: RaymondWong .mp3
AudioLeadIn: 1985
PreviewTime: 522
Countdown: 0
SampleSet: Soft
StackLeniency: 0.4
Mode: 0
LetterboxInBreaks: 1

[Editor]
DistanceSpacing: 1
BeatDivisor: 4
GridSize: 8

[Metadata]
Title:Shaolin Soccer Opening
Artist:Raymond Wong
Creator:DarkRingSystem
Version:Hard
Source:Shaolin Soccer
Tags:Chinese

[Difficulty]
HPDrainRate:5
CircleSize:4
OverallDifficulty:6
ApproachRate:7
SliderMultiplier:1.2
SliderTickRate:2

[Events]
//Background and Video events
0,0,"BG.jpg"
//Break Periods
2,52890,55269
//Storyboard Layer 0 (Background)
//Storyboard Layer 1 (Fail)
//Storyboard Layer 2 (Pass)
//Storyboard Layer 3 (Foreground)
//Storyboard Sound Samples
//Background Colour Transformations
3,100,163,162,255

[TimingPoints]
522,434.735354852733,4,2,1,100,1,0
739,-50,4,2,1,100,0,0
49642,-100,4,2,1,100,0,0
50294,-66.6666666666667,4,2,1,100,0,0
51164,-50,4,2,1,100,0,0
98120,-50,4,2,1,10,0,0

[Colours]
Combo1 : 0,0,64
Combo2 : 19,1,243
Combo3 : 244,0,0

[HitObjects]
104,192,522,1,8
224,192,740,2,8,B|288:192,2,60,8|8|8
344,192,1175,1,8
112,128,1609,1,2
112,248,1826,1,2
256,56,2260,5,8
256,176,2477,2,8,B|256:240,2,60
256,296,2912,1,8
432,136,3347,1,2
432,248,3564,1,2
256,80,3999,5,8
160,144,4216,1,8
160,208,4325,1,8
160,272,4434,1,8
256,344,4651,1,8
464,192,5086,1,2
344,192,5303,1,2
104,192,5738,5,4
224,192,5955,1,8
288,192,6064,1,8
352,192,6173,1,8
464,192,6390,1,8
232,136,6825,1,2
232,256,7042,1,2
136,328,7260,1,8
8,352,7477,6,8,B|112:264,1,120,8|2
144,232,7803,1,2
192,192,7912,1,2
96,120,8129,1,8
248,304,8564,1,8
192,192,8781,1,2
376,40,9216,6,8,B|288:120,1,120,8|2
248,160,9542,1,10
200,200,9651,1,10
304,264,9868,1,2
144,88,10303,1,8
200,200,10520,1,2
408,312,10955,5,8
312,248,11173,1,2
256,248,11281,1,2
192,248,11390,1,2
88,304,11607,1,8
201,92,12042,2,8,B|256:40|313:100,1,120,8|2
376,192,12477,1,2
285,270,12694,5,8
285,270,12912,2,8,B|237:270|205:270,2,60,8|2|2
376,192,13347,2,8,B|224:104|104:224,1,240,2|8
56,264,13999,1,2
176,264,14216,1,8
296,264,14434,1,8
392,192,14651,1,8
296,120,14868,5,2
176,120,15086,1,2
176,240,15303,1,8
296,240,15520,1,8
296,120,15738,5,2
176,240,15955,1,2
296,120,16173,1,8
176,240,16390,1,2
176,120,16607,5,8
296,240,16825,1,2
176,120,17042,1,8
296,240,17260,1,8
384,320,17477,5,2
472,240,17694,1,2
472,120,17912,1,8
384,32,18129,1,2
328,56,18238,1,2
272,80,18347,1,2
272,200,18564,1,8
272,200,18781,2,8,B|272:280,2,60,2|2|2
272,200,19216,1,2
160,240,19433,6,8,B|160:112,1,120,8|8
160,120,19867,1,2
264,184,20085,1,2
160,240,20302,1,2
56,184,20519,2,2,B|136:184,2,60
56,184,20954,1,2
296,144,21389,6,8,B|304:104|368:104,2,60,8|8|10
416,152,21824,2,8,B|400:216|320:224,2,120,8|10|8
440,272,22476,2,8,B|440:224|528:224,2,60,10|8|10
320,256,22910,1,8
248,160,23128,6,2,B|232:192|200:192,2,60
128,144,23563,2,8,B|144:88|224:72,1,120,8|2
320,64,23997,1,8
416,136,24215,1,2
440,192,24323,1,2
432,256,24432,2,8,B|416:328|344:336,1,120,2|8
336,152,24867,5,8
336,272,25085,1,2
272,104,25302,1,8
272,312,25519,1,2
208,208,25736,2,8,B|272:208,2,60
208,208,26171,2,8,B|80:208,1,120,8|2
416,208,26606,5,8
312,144,26824,1,2
312,264,27041,1,8
416,208,27259,1,2
296,208,27475,2,8,B|224:208,1,60
176,208,27693,2,8,B|40:208,1,120,8|2
104,96,28127,1,2
224,40,28346,6,4,B|424:112|448:280|200:360,1,480,4|8
136,264,29430,1,8
40,192,29649,1,8
136,120,29866,1,8
232,192,30084,1,10
328,264,30301,1,8
432,200,30518,1,10
328,128,30736,1,8
136,264,30953,1,10
136,120,31171,1,8
328,264,31388,1,10
328,128,31605,1,8
136,264,31823,1,12
368,192,32256,5,8
40,192,32908,1,12
280,192,33343,1,8
160,192,33560,1,12
400,192,33995,1,8
264,192,34866,6,8,B|320:192|296:288|192:288|208:96,1,240,8|8
296,40,35518,1,8
208,120,35736,1,2
320,160,35953,1,8
240,72,36171,1,2
264,192,36388,1,8
352,112,36605,1,2
232,136,36823,1,8
312,224,37040,1,2
384,280,37475,6,8,B|256:280,1,120
352,200,37910,2,8,B|488:200,1,120
424,312,38343,2,8,B|296:312,1,120
352,200,38777,6,8,B|584:200|584:64|64:72,1,600
88,72,40082,1,12
168,200,40516,6,8,B|-64:200|-64:336|456:328,1,600
432,328,41821,1,12
232,192,42256,6,8,B|256:136|336:136,1,120
288,248,42690,2,8,B|272:304|184:312,1,120
168,192,43125,1,8
256,112,43343,1,8
344,192,43560,1,2
72,192,43995,6,8,B|128:136|208:160,1,120
440,192,44430,2,8,B|400:256|312:224,1,120
104,192,44864,1,8
256,40,45082,1,8
408,192,45299,1,2
264,384,45734,5,8
200,280,45951,2,2,B|200:200,2,60
280,192,46386,2,8,B|280:328,1,120
376,240,46821,1,8
376,120,47038,1,2
280,192,47256,1,2
184,120,47473,1,8
184,256,47690,2,8,B|280:184|280:184|384:264,1,240,8|2
280,312,48343,1,2
0,192,49212,5,4
96,120,49647,2,8,B|104:96|152:96,1,60
96,256,50082,2,8,B|112:280|160:280,1,60
208,72,50517,2,8,B|248:32|304:40,1,89.9999973177911
208,312,50951,2,8,B|232:352|304:352,1,89.9999973177911
344,32,51386,2,8,B|408:80|344:144,1,120
352,360,51821,2,8,B|400:288|336:232,1,120
208,192,52256,1,8
360,192,52473,1,8
48,192,52690,1,4
104,192,56169,5,12
224,192,56386,2,8,B|304:192,2,60
256,80,56821,1,8
256,80,57254,1,2
256,200,57471,1,8
256,200,57688,5,8
256,320,57906,1,8
256,320,58123,2,8,B|320:320,2,60
152,256,58558,1,8
152,256,58993,5,2
152,136,59210,1,8
256,80,59428,1,8
256,200,59645,1,8
256,200,59862,2,8,B|336:200,2,60
256,320,60297,1,8
464,200,60732,6,8,B|432:136|344:136,2,120,2|8|8
360,264,61384,1,8
256,208,61601,1,8
200,232,61710,1,8
144,256,61819,1,8
48,184,62036,1,8
256,72,62471,5,2
360,128,62688,1,8
464,184,62906,1,8
256,384,63123,1,4
256,264,63341,2,8,B|256:120,1,120
256,144,63775,1,8
256,144,64210,5,8
256,144,64428,2,8,B|160:240,1,120,8|8
171,228,64862,1,4
171,228,65080,1,8
171,228,65297,1,4
256,144,65514,2,8,B|344:232,1,120,4|8
340,228,65949,1,4
340,228,66167,1,8
340,228,66384,1,4
256,384,66601,1,4
256,144,67036,5,8
256,264,67254,1,8
256,24,67688,1,12
256,264,68123,1,8
256,144,68341,1,8
24,192,68775,1,8
144,192,68993,1,4
376,144,69428,6,8,B|424:200|368:256,2,120
256,112,70080,1,8
192,216,70297,1,8
312,216,70514,1,8
376,112,70732,1,8
256,112,70949,1,8
312,216,71167,1,8
376,312,71384,1,8
440,216,71601,1,8
312,216,71819,1,12
440,216,72254,5,8
192,216,72688,1,8
440,216,73123,1,8
336,272,73341,1,4
336,152,73558,1,12
256,64,73993,6,8,B|336:128|192:208|272:312,1,240
257,288,74645,1,4
360,232,74862,1,8
257,289,75080,1,4
360,352,75297,1,8
258,288,75514,1,4
176,200,75732,1,8
257,288,75949,2,8,B|224:256|288:216|240:168,2,120,4|4|4
246,175,76601,1,12
448,48,77036,5,8
448,48,77252,1,8
344,104,77470,1,8
344,104,77688,1,8
256,192,77905,1,8
256,192,78122,1,4
256,192,78340,1,12
40,304,78774,5,8
40,304,78992,1,8
160,272,79209,1,8
160,272,79427,1,8
256,192,79644,1,8
360,136,79861,1,4
360,136,79969,1,8
360,136,80079,1,12
456,72,80514,6,8,B|432:136|360:136,1,120
264,88,80949,2,8,B|184:96|160:168,1,120
136,264,81382,2,8,B|96:320|16:296,2,120
224,176,82034,2,8,B|272:128|360:136,1,120
456,120,82469,2,8,B|448:48|360:24,2,120
344,152,83121,1,8
128,248,83556,1,4
256,184,83991,5,12
16,184,84426,1,8
128,144,84643,1,8
256,184,84860,1,4
368,144,85078,1,8
480,184,85295,1,8
368,232,85512,1,4
256,184,85730,1,8
128,144,85947,1,4
16,192,86165,1,8
96,280,86382,2,8,B|128:336|208:336,1,120,12|8
320,336,86817,2,8,B|392:336|440:248,1,120,12|8
256,184,87251,2,8,B|256:272,2,60,8|8|12
256,184,90947,5,12
376,184,91165,2,2,B|448:184,2,60
312,80,91599,1,4
312,320,92034,1,8
200,320,92252,1,8
200,80,92686,5,4
144,184,92904,2,2,B|80:184,2,60
256,224,93337,1,4
496,184,93771,2,8,B|376:184,1,120
136,184,94424,5,4
136,184,94641,2,2,B|208:184,2,60
16,184,95076,1,8
256,184,95510,1,8
376,184,95728,1,8
136,184,96163,5,4
136,184,96380,2,2,B|56:184,2,60
200,80,96815,1,8
312,280,97250,1,8
256,184,97467,1,8
312,80,97684,1,8
200,280,97902,1,12
256,192,98120,12,0,99859
