osu file format v7

[General]
AudioFilename: 07. Metallic Menace.mp3
AudioLeadIn: 0
PreviewTime: 20357
Countdown: 1
SampleSet: Normal
StackLeniency: 0.7
Mode: 0
LetterboxInBreaks: 1

[Editor]
Bookmarks: 20571,34285,54857
DistanceSpacing: 1
BeatDivisor: 1
GridSize: 8

[Metadata]
Title:Metallic Menace
Artist:Raymond Gramke
Creator:Xgor
Version:Normal
Source:Eduardo the Samurai Toaster
Tags:Wiiware Wii Toast run 'n' gun Semnat Studios

[Difficulty]
HPDrainRate:2
CircleSize:4
OverallDifficulty:4
SliderMultiplier:1.4
SliderTickRate:1

[Events]
//Background and Video events
0,0,"wallpaper2-1024x768.jpg"
//Break Periods
//Storyboard Layer 0 (Background)
//Storyboard Layer 1 (Fail)
//Storyboard Layer 2 (Pass)
//Storyboard Layer 3 (Foreground)
//Storyboard Sound Samples
//Background Colour Transformations
3,100,163,162,255

[TimingPoints]
8,428.571428571429,4,1,1,41,1,0
20285,-100,4,2,0,67,0,0
34142,-100,4,1,1,41,0,0
54535,-100,4,2,0,68,0,0
68464,-100,4,1,1,61,0,0

[Colours]
Combo1 : 232,203,0
Combo2 : 4,183,4
Combo3 : 4,4,198
Combo4 : 198,4,4

[HitObjects]
48,232,6865,5,0
136,344,7293,1,8
224,232,7722,2,0,C|224:80,1,140,0|2
352,32,8579,5,0
432,152,9008,1,8
296,152,9436,2,0,C|296:296,1,140,0|2
216,176,10293,5,0
80,192,10722,2,8,B|32:336|256:344,1,280,8|2
312,216,12008,5,0
376,336,12436,2,0,B|480:232,1,140,8|0
400,120,13293,1,4
256,104,13722,5,0
120,72,14150,2,0,C|64:128,1,70,8|0
72,264,14793,2,0,C|128:320,1,70,0|8
256,280,15436,5,0
392,312,15865,2,0,C|441:262,1,70,8|0
440,120,16508,2,0,C|390:70,1,70,0|10
320,192,17150,5,0
296,328,17579,2,0,B|192:336|184:240,1,140,8|0
256,256,18222,2,0,C|344:264,1,70,0|2
368,128,18865,5,0
256,40,19293,1,8
256,184,19722,1,0
184,168,19936,1,0
160,104,20150,1,4
88,224,20579,6,0,B|168:224|80:280|176:280,3,105,2|2|2|2
256,312,21865,1,8
392,280,22293,6,0,B|470:280|382:224|462:224,2,105,2|2|2
344,224,23150,2,0,B|192:224|336:96|200:96,1,210,2|2
152,88,24008,5,0
64,192,24436,1,8
144,304,24865,1,0
200,352,25079,1,0
256,304,25293,1,8
392,320,25722,5,0
448,192,26150,1,8
368,80,26579,1,0
312,32,26793,1,0
256,80,27008,1,10
128,136,27436,6,0,B|32:136|128:184|32:184,3,105,2|2|2|2
152,208,28722,1,8
272,136,29150,6,0,B|368:136|272:184|368:184,2,105,2|2|2
304,72,30008,2,0,B|440:104|424:256,1,210,2|2
424,288,30865,6,0,B|320:280|288:216,1,140,2|8
208,128,31722,1,0
176,64,31936,1,0
104,48,32150,1,8
88,184,32579,6,0,B|112:304|264:232,1,140,2|8
288,160,33436,1,0
328,104,33650,1,0
384,64,33865,1,4
440,192,34293,6,0,C|440:336|456:320|360:320,1,280
336,256,35365,1,2
192,256,35794,1,8
160,320,36008,6,0,C|32:320|48:336|48:224,1,280
120,192,37079,1,2
264,192,37508,1,8
336,192,37722,6,0,B|328:272|256:304,2,140
368,128,38794,1,2
256,48,39222,1,8
184,40,39436,6,0,B|48:32|8:96|72:152,1,210
192,176,40508,1,8
256,208,40722,1,0
320,176,40936,1,4
376,128,41150,6,0,B|344:24|280:24,1,140,2|0
224,24,41793,2,0,B|144:48|128:184,1,140,2|0
136,264,42650,1,8
136,264,42865,6,0,B|168:368|232:368,1,140,2|0
288,368,43508,2,0,B|368:344|384:208,1,140,2|0
400,128,44365,1,2
352,72,44579,6,0,B|256:32|256:112,2,105,8|0|8
256,168,45650,1,2
256,312,46079,1,0
304,264,46293,6,0,B|368:200,2,70,0|8|0
192,184,47150,2,0,B|136:128,2,70,0|8|0
256,56,48008,6,0,B|328:48|336:80,1,70
360,128,48436,2,0,B|304:136|288:168,1,70,2|0
328,216,48865,1,8
256,336,49293,1,4
128,288,49722,6,0,B|184:280|208:256,1,70
240,208,50150,2,0,B|224:184|160:192,1,70,2|0
144,128,50579,1,8
256,40,51008,1,4
360,128,51436,6,0,B|288:248,1,105,8|2
408,224,52079,2,0,B|336:344,1,105,8|2
256,264,52722,1,4
120,264,53150,6,0,B|176:208,1,70,2|0
216,168,53579,1,0
336,80,54008,2,0,B|336:184|240:216,1,140,8|4
160,280,54865,6,0,C|32:232,1,105,2|2
64,136,55508,2,0,C|168:88,1,105,2|2
200,192,56151,1,8
320,128,56579,6,0,C|200:128,1,105,2|2
272,216,57222,1,8
272,216,57436,1,4
304,352,57865,2,0,C|216:352,1,70
176,312,58293,6,0,B|112:304|88:248,1,105,2|2
96,152,58936,2,0,B|112:104|192:88,2,105,2|2|8
232,208,60008,6,0,B|240:280|280:288,2,105,2|2|2
304,128,60972,2,0,B|320:104|328:56|304:32,1,105,2|2
232,24,61508,1,4
160,32,61722,6,0,C|136:160,1,105,2|2
136,240,62365,2,0,C|164:372,1,105,2|2
256,304,63008,1,8
376,232,63436,6,0,C|464:160,2,105,2|2|8
344,168,64293,1,4
224,96,64722,2,0,C|168:152,1,70
192,216,65150,6,0,B|112:216|96:256,1,105,2|2
192,288,65793,2,0,B|192:368|232:384,1,105,2|2
328,344,66436,1,8
264,216,66865,6,0,B|344:216|360:176,1,105,2|2
264,144,67508,2,0,B|264:64|224:48,1,105,2|2
160,128,68150,1,2
160,128,68365,1,8
160,128,68579,1,4
