osu file format v7

[General]
AudioFilename: 07. Metallic Menace.mp3
AudioLeadIn: 0
PreviewTime: 20357
Countdown: 1
SampleSet: Soft
StackLeniency: 0.7
Mode: 0
LetterboxInBreaks: 1

[Editor]
Bookmarks: 6857,20571,34285,54857,68571
DistanceSpacing: 1.20000004768372
BeatDivisor: 2
GridSize: 8

[Metadata]
Title:Metallic Menace
Artist:Raymond Gramke
Creator:Xgor
Version:Hard
Source:Eduardo the Samurai Toaster
Tags:Wiiware Wii Toast run 'n' gun Semnat Studios

[Difficulty]
HPDrainRate:5
CircleSize:4
OverallDifficulty:6
SliderMultiplier:1.7
SliderTickRate:2

[Events]
//Background and Video events
0,0,"wallpaper2-1024x768.jpg"
//Break Periods
//Storyboard Layer 0 (Background)
//Storyboard Layer 1 (Fail)
//Storyboard Layer 2 (Pass)
//Storyboard Layer 3 (Foreground)
//Storyboard Sound Samples
//Background Colour Transformations
3,100,163,162,255

[TimingPoints]
8,428.571428571429,4,1,1,41,1,0
20464,-100,4,2,0,76,0,0
34142,-100,4,1,1,41,0,0
54535,-100,4,2,0,76,0,0
68250,-100,4,1,1,29,0,0

[Colours]
Combo1 : 232,203,0
Combo2 : 4,183,4
Combo3 : 4,4,198
Combo4 : 198,4,4

[HitObjects]
136,48,6865,5,2
224,40,7079,1,0
312,48,7293,1,8
392,64,7508,2,0,B|464:96|456:176,1,85,0|0
440,224,7936,2,0,B|376:336|264:328,1,170,0|0
216,312,8579,5,2
144,272,8793,1,0
96,200,9008,1,8
176,168,9222,2,0,B|216:216|272:232,1,85,0|0
320,248,9650,2,0,B|376:160|272:96,1,170
184,72,10293,6,0,B|120:80|88:128,1,85,2|0
96,208,10722,2,0,B|96:248|160:280,1,85,8|0
216,312,11150,1,0
304,312,11365,1,0
376,160,11793,1,0
336,80,12008,6,0,B|256:8|168:88,1,170,0|8
256,224,12865,1,0
256,312,13079,1,0
256,224,13293,1,12
264,56,13722,6,0,B|176:56|104:152,1,170,2|8
200,144,14365,1,0
288,144,14579,1,2
376,144,14793,2,0,B|480:144,2,85,0|8|0
424,216,15436,6,0,B|464:312|304:320,1,170,2|8
240,320,16079,1,0
160,304,16293,1,2
80,280,16508,2,0,B|24:176,2,85,0|8|0
152,232,17150,6,0,B|208:136,1,85,2|0
224,240,17579,2,0,B|272:152,1,85,8|0
336,208,18008,1,2
416,176,18222,2,0,B|408:88|248:80,1,170,0|0
256,32,18865,5,0
192,144,19079,1,0
320,144,19293,1,8
176,344,19722,2,0,B|256:392|352:336,1,170,0|8
256,264,20365,1,4
256,120,20579,6,0,B|168:120|168:208,1,127.5,2|2
168,192,21008,1,0
168,280,21222,2,0,B|168:368|256:368,1,127.5,2|2
240,368,21650,1,0
328,368,21865,1,8
456,144,22293,6,0,B|464:64|360:64,1,127.5,2|2
378,64,22722,1,0
288,64,22936,1,8
200,64,23150,2,0,B|96:48|96:176,1,170,2|8
152,232,23793,1,0
224,272,24008,6,0,B|288:320|376:296,1,127.5,2|2
345,301,24436,1,0
416,192,24650,2,0,B|424:120|352:88,1,127.5,2|2
356,89,25079,1,0
272,72,25293,1,8
184,80,25508,1,0
104,112,25722,6,0,B|32:184|48:240,1,127.5,2|2
46,222,26150,1,0
104,280,26365,2,0,B|152:312|232:280,1,127.5,2|2
226,282,26793,1,0
312,264,27008,1,8
304,176,27222,1,4
264,104,27436,6,0,B|256:48|160:56,1,85,2|0
200,56,27758,2,0,B|96:72|96:96,1,85,2|0
117,75,28079,2,0,B|56:96|64:152,1,85,2|0
63,133,28400,2,0,B|48:224|144:248,1,127.5,2|8
312,112,29150,6,0,B|368:80|400:112,1,85,2|0
392,106,29472,2,0,B|456:144|448:224,1,127.5,2|0
408,288,30008,1,8
328,328,30222,1,0
248,312,30436,1,2
176,272,30650,1,0
128,200,30865,6,0,B|120:152|152:104,1,85,2|0
144,120,31186,2,0,B|152:64|240:56,1,85,2|0
200,64,31508,2,0,B|240:48|288:48,1,85,2|0
283,48,31829,2,0,B|382:46|435:73,1,127.5,2|0
480,136,32365,1,8
464,240,32579,6,0,B|464:280|416:320,1,85,2|0
424,312,32900,2,0,B|392:360|320:360,1,85,2|0
356,357,33222,2,0,B|311:367|271:359,1,85,2|0
272,359,33543,2,0,B|207:360|138:316,1,127.5,2|0
88,264,34079,1,4
40,192,34293,6,0,B|64:72|200:72,1,170,2|8
160,192,34936,2,0,B|264:192|296:64,1,170,0|2
400,56,35579,1,8
448,168,35793,1,4
464,288,36008,6,0,B|432:368|304:344,1,170,2|8
200,344,36650,2,0,B|64:368|40:256,1,170,0|2
112,192,37293,1,8
200,112,37508,1,4
312,72,37722,5,2
400,120,37936,1,0
440,216,38150,1,8
376,296,38365,2,0,B|264:328|184:280,1,170
120,240,39008,1,8
72,152,39222,1,0
136,40,39436,6,0,B|184:16|224:48,1,85,2|0
176,152,39865,2,0,B|216:200|272:160,1,85,8|0
288,56,40293,2,0,B|336:24|392:80,1,85,2|0
328,168,40722,2,0,B|368:200|424:176,1,85,12|0
408,328,41150,6,0,B|232:360|144:272,1,255,8|0
96,224,42008,1,2
96,224,42115,1,0
96,224,42222,1,0
80,144,42436,1,0
128,72,42650,1,0
208,96,42865,6,0,B|320:48|456:88|464:152,1,255,8|0
432,208,43722,1,2
432,208,43829,1,0
432,208,43936,1,0
376,272,44150,2,0,B|272:336,1,85,8|0
216,328,44579,6,0,B|128:288,1,85,2|0
136,208,45008,2,0,B|32:168,1,85,8|0
48,96,45436,2,8,B|120:128|232:112,1,170,2|8
272,176,46079,1,0
304,96,46293,5,2
392,96,46508,1,0
344,24,46722,1,8
256,24,46936,1,0
208,96,47150,1,2
120,96,47365,1,0
168,24,47579,1,4
256,192,48008,5,2
256,192,48115,1,0
256,192,48222,1,0
296,272,48436,1,8
368,320,48650,1,0
448,336,48865,2,0,B|504:264|456:144,1,170,2|8
256,192,49722,5,2
256,192,49829,1,0
256,192,49936,1,0
216,112,50150,1,8
144,64,50364,1,0
64,48,50579,2,0,B|8:120|56:240,1,170,2|0
360,344,51436,5,2
256,40,51758,1,4
152,344,52079,1,2
424,160,52400,1,4
88,160,52722,1,2
256,344,53150,5,8
256,344,53258,1,0
256,344,53365,1,0
256,232,53579,1,0
256,232,53686,1,0
256,232,53793,1,2
256,136,54008,1,8
256,136,54115,1,0
256,136,54222,1,0
256,32,54436,1,4
416,96,54865,5,2
448,192,55079,1,0
448,192,55186,1,8
400,280,55400,1,0
400,280,55508,1,2
312,328,55722,1,0
312,328,55829,1,8
208,328,56043,1,0
208,328,56150,2,0,B|160:264|224:232,1,85,2|0
256,168,56579,5,2
208,80,56793,1,0
208,80,56900,1,8
112,104,57115,1,0
112,104,57222,1,2
80,200,57436,2,0,B|48:304|176:344,1,170,4|0
256,328,58079,1,8
360,336,58293,6,0,B|448:320|448:208,2,127.5,2|0|2
344,232,59150,1,0
344,232,59258,1,8
344,128,59472,1,0
344,128,59579,1,0
256,184,59793,1,8
168,128,60008,6,0,B|88:128|88:48,2,127.5,2|0|2
168,232,60865,1,0
168,232,60972,1,8
256,288,61186,1,0
256,288,61293,1,2
256,184,61508,1,4
256,80,61722,6,0,B|304:56|352:64,1,85,2|0
384,80,62043,1,8
424,112,62150,1,0
496,184,62365,2,0,B|520:256|448:304,1,85,2|0
456,304,62686,1,8
416,336,62793,2,0,B|376:368|320:344,1,85,0|2
280,256,63222,1,8
256,48,63436,6,0,B|264:120|352:120,1,127.5,2|0
424,184,63972,1,0
448,232,64079,1,2
368,296,64293,2,0,B|304:360|224:336,1,127.5,4|0
152,328,64829,1,0
112,296,64936,1,8
80,200,65150,6,0,B|80:128|152:96,1,127.5,2|2
200,88,65579,1,0
296,96,65793,2,0,B|352:96|392:144,1,85,2|0
408,168,66115,1,0
432,216,66222,2,0,B|464:288|424:312,1,85,2|0
336,328,66650,1,8
184,328,66865,6,0,B|112:312|88:232,1,127.5,2|2
80,200,67293,1,0
88,96,67507,2,0,B|104:56|232:40,1,85,2|0
208,40,67829,1,0
256,35,67936,1,2
304,120,68150,1,0
256,208,68365,1,0
256,208,68436,1,0
256,208,68508,1,0
256,208,68579,1,4
