osu file format v5

[General]
AudioFilename: Ghostbustersosu.mp3
AudioLeadIn: 0
PreviewTime: -1
Countdown: 1
SampleSet: Normal
StackLeniency: 0.7
Mode: 0
LetterboxInBreaks: 0

[Metadata]
Title:Ghostbusters!
Artist:Ray Parker jr.
Creator:Chuu
Version:Terrifying
Source:Ghostbusters
Tags:

[Difficulty]
HPDrainRate:8
CircleSize:6
OverallDifficulty:7
SliderMultiplier:2
SliderTickRate:4

[Events]
//Background and Video events
0,0,"ghostbusters-gbn-1920x1200.jpg"
//Break Periods
2,16018,16454
2,32618,33184
//Storyboard Layer 0 (Background)
//Storyboard Layer 1 (Failing)
//Storyboard Layer 2 (Passing)
//Storyboard Layer 3 (Foreground)
//Storyboard Sound Samples
//Background Colour Transformations
3,100,0,0,0

[TimingPoints]
1040,518.761888293273,4,1,0,53,1

[HitObjects]
48,40,1040,1,0
96,40,1299,1,0
144,40,1558,1,0
144,40,1688,1,0
144,40,1818,1,0
192,40,2077,2,2,B|320:8|344:152,1,200,2|8
400,208,3115,5,0
440,232,3374,1,0
440,232,3504,1,0
440,232,3633,1,0
456,280,3893,1,0
408,288,4152,2,2,B|400:184|240:312,1,200,2|10
328,232,5190,5,0
304,192,5449,1,0
272,152,5708,1,0
272,152,5838,1,0
272,152,5968,1,0
232,120,6227,2,2,B|232:0|88:136,1,200,2|10
48,216,7265,5,0
96,232,7524,1,0
96,232,7654,1,2
96,232,7783,1,0
136,256,8043,1,2
184,256,8302,2,2,B|384:208|384:208,1,200,2|10
464,328,9599,5,8
464,328,9729,1,8
464,328,9858,1,8
416,328,10118,1,8
368,328,10377,1,8
320,328,10637,1,8
72,312,11933,5,8
72,312,12063,1,8
72,312,12193,1,8
72,312,12322,1,8
72,312,12452,1,8
112,280,12712,1,8
304,320,13749,5,8
304,320,13879,1,8
304,320,14009,1,8
256,320,14268,1,8
256,272,14527,1,8
304,272,14787,1,8
256,192,15046,12,0,15824
16,280,17510,6,0,B|80:280,1,50
112,280,17900,1,0
160,280,18159,1,0
256,280,18677,1,12
256,280,18807,1,0
256,280,18937,1,0
352,288,19456,6,0,B|352:224,1,50
352,240,19715,1,0
400,232,19974,1,0
400,184,20234,1,0
336,104,20752,1,12
336,104,20882,1,0
336,104,21012,1,0
288,104,21271,1,12
288,104,21401,1,0
288,104,21531,1,0
240,120,21790,5,0
240,120,21920,1,0
240,120,22049,1,0
240,120,22179,1,0
240,120,22309,1,0
320,176,22827,1,12
320,176,22957,1,12
320,176,23087,1,12
272,192,23346,2,8,B|216:256|240:216,1,50
160,232,23865,5,8
160,232,23995,1,8
160,232,24125,1,8
288,304,24903,1,8
288,304,25032,1,8
288,304,25162,1,8
184,312,25681,5,0
184,312,25810,1,0
184,312,25940,1,0
136,312,26199,1,0
136,264,26459,1,0
208,192,26978,1,8
208,192,27107,1,0
208,192,27237,1,0
248,96,27756,5,0
248,96,27885,1,0
248,96,28015,1,0
296,96,28274,1,0
272,136,28534,1,0
176,96,29053,5,8
176,96,29182,1,8
176,96,29312,1,8
128,112,29571,1,8
128,112,29701,1,8
128,112,29831,1,8
168,144,30090,5,0
168,144,30220,1,0
168,144,30350,1,0
168,144,30479,1,0
168,144,30609,1,0
256,192,31128,1,8
256,192,31257,1,8
256,192,31387,1,8
256,192,31646,12,0,32424
248,72,34240,6,0,B|144:72,1,100
144,72,34629,1,0
112,136,35018,2,0,B|216:136,1,100
216,136,35407,1,0
248,200,35797,2,0,B|144:200,1,100
144,200,36186,1,0
104,256,36575,2,0,B|208:256,1,100
208,256,36964,1,0
144,304,37353,6,0,C|216:304,1,50
199,304,37612,1,0
168,344,37872,1,8
168,344,38001,1,8
168,344,38131,1,8
216,344,38390,6,0,B|320:344,1,100
320,344,38779,1,0
352,272,39168,2,0,B|248:272,1,100
248,272,39557,1,0
192,216,39947,2,0,B|296:216,1,100
296,216,40336,1,0
352,160,40725,2,0,B|248:160,1,100
248,160,41114,1,0
312,120,41503,6,0,C|240:120,1,50
256,120,41762,1,0
280,72,42022,1,8
280,72,42151,1,8
280,72,42281,1,8
328,56,42540,6,0,B|432:56,1,100
432,56,42929,1,0
424,128,43318,2,0,B|424:232,1,100
424,232,43707,1,0
352,224,44097,2,0,B|352:120,1,100
352,120,44486,1,0
280,120,44875,2,0,B|280:224,1,100
280,224,45264,1,0
232,168,45653,6,0,C|232:240,1,50
232,224,45912,1,0
192,192,46172,1,8
192,192,46301,1,8
192,192,46431,1,8
184,240,46691,6,0,B|184:376,1,100
184,344,47080,1,0
112,344,47469,2,0,B|112:232,1,100
112,240,47858,1,0
104,168,48247,2,0,B|200:168|216:168,1,100
208,168,48636,1,0
256,168,48895,2,0,B|256:272,1,100
256,272,49284,1,0
352,272,49804,6,0,C|352:168,1,100
304,168,50322,1,8
304,168,50452,1,8
304,168,50581,1,8
256,168,50841,5,0
208,168,51100,1,0
208,216,51359,1,0
208,264,51619,1,0
208,312,51878,1,0
208,312,52008,1,0
208,312,52138,1,0
208,312,52267,1,0
208,312,52397,1,0
160,312,52656,5,0
120,288,52916,1,0
72,296,53175,1,0
32,264,53434,2,2,C|32:96|120:136|152:16|312:136,1,600
312,184,55250,5,0
296,232,55509,1,0
344,240,55769,1,0
328,288,56028,1,8
328,288,56158,1,8
328,288,56288,1,8
328,288,56417,1,8
328,288,56547,1,8
328,336,56806,5,0
376,336,57066,1,0
376,288,57325,1,0
376,240,57585,1,0
328,240,57844,1,0
328,192,58103,1,0
376,192,58363,1,0
376,144,58622,5,0
344,112,58881,1,0
304,136,59141,1,0
280,176,59400,1,0
288,216,59660,1,0
320,248,59919,1,0
352,280,60178,1,8
352,280,60308,1,8
352,280,60438,1,8
352,280,60567,1,8
352,280,60697,1,8
392,248,60956,5,0
368,200,61216,1,0
344,152,61475,1,0
304,184,61735,2,2,B|392:328|16:256|136:-8|496:32,1,600
488,80,63550,5,0
488,128,63810,1,0
488,176,64069,1,0
488,224,64328,1,8
488,224,64458,1,8
488,224,64588,1,8
488,224,64718,1,8
488,224,64847,1,8
480,272,65107,5,0
432,296,65366,1,0
384,296,65625,1,0
336,296,65885,1,0
288,296,66144,1,0
240,296,66403,1,0
160,296,66793,1,0
264,72,67441,6,0,B|368:72,1,100
368,72,67830,1,0
408,120,68219,2,0,B|304:120,1,100
304,120,68608,1,0
272,176,68998,2,0,B|376:176,1,100
376,176,69387,1,0
400,240,69776,2,0,B|296:240,1,100
296,240,70165,1,0
360,280,70554,6,0,C|288:280,1,50
304,280,70813,1,0
352,336,71073,1,8
352,336,71202,1,8
352,336,71332,1,8
304,336,71591,6,0,B|200:336,1,100
200,336,71980,1,0
160,288,72369,2,0,B|264:288,1,100
264,288,72758,1,0
296,232,73148,2,0,B|192:232,1,100
192,232,73537,1,0
168,168,73926,2,0,B|272:168,1,100
272,168,74315,1,0
208,128,74704,6,0,C|280:128,1,50
264,128,74963,1,0
216,72,75223,1,8
216,72,75352,1,8
216,72,75482,1,8
128,224,75741,6,0,B|128:120,1,100
128,120,76130,1,0
176,80,76519,2,0,B|176:184,1,100
176,184,76908,1,0
232,216,77298,2,0,B|232:112,1,100
232,112,77687,1,0
296,88,78076,2,0,B|296:192,1,100
296,192,78465,1,0
336,128,78854,6,0,C|336:200,1,50
336,184,79113,1,0
392,136,79373,1,8
392,136,79502,1,8
392,136,79632,1,8
256,192,80021,12,4,83782
80,88,84300,5,8
80,88,84430,1,8
80,88,84560,1,8
120,112,84820,2,0,B|208:168,1,100
240,192,85338,1,0
344,304,86116,5,0
304,272,86376,1,0
344,304,86635,1,0
304,272,86895,1,0
344,304,87154,1,0
272,320,87543,1,0
200,312,87932,1,0
104,280,88451,5,0
104,280,88581,1,0
104,280,88710,1,0
120,232,88970,1,0
168,216,89229,1,0
120,232,89488,1,0
160,264,89748,2,2,B|256:328|296:368|376:168,1,300
344,136,90785,5,4
344,136,90915,1,4
344,136,91045,1,4
344,136,91174,1,4
344,136,91304,1,4
296,144,91563,1,0
272,96,91823,1,0
294,140,92082,5,0
296,144,92212,1,0
296,144,92342,1,0
248,200,92731,1,0
264,272,93120,1,0
256,224,93379,1,0
392,120,94288,5,0
392,120,94417,1,0
392,120,94547,1,0
392,120,94677,1,0
392,120,94806,1,0
392,120,94935,1,0
360,160,95195,5,0
384,168,95324,1,0
256,288,96232,1,0
208,272,96492,1,0
208,272,96621,1,0
208,272,96751,1,0
256,288,97010,5,0
208,272,97270,1,0
256,288,97529,1,0
208,272,97789,1,0
256,288,98048,1,0
304,200,98567,1,0
304,248,98826,1,0
304,200,99085,1,0
200,192,99604,5,8
200,192,99734,1,8
200,192,99864,1,8
200,192,99993,1,8
200,192,100123,1,8
200,192,100253,1,8
200,192,100382,1,8
