osu file format v13

[General]
AudioFilename: Ray - Sign.mp3
AudioLeadIn: 2000
PreviewTime: 54492
Countdown: 0
SampleSet: Soft
StackLeniency: 0.7
Mode: 0
LetterboxInBreaks: 0
WidescreenStoryboard: 0

[Editor]
DistanceSpacing: 0.8
BeatDivisor: 4
GridSize: 4
TimelineZoom: 1

[Metadata]
Title:sign
TitleUnicode:sign
Artist:Ray
ArtistUnicode:Ray
Creator:alacat
Version:Normal
Source:あの夏で待ってる
Tags:TV Size Ano Natsu de Matteru iyasine Opening KOTOKO Orito Shinji Summer Natsumachi Anonatsu waiting
BeatmapID:439085
BeatmapSetID:183101

[Difficulty]
HPDrainRate:4
CircleSize:3
OverallDifficulty:4
ApproachRate:4
SliderMultiplier:1.2
SliderTickRate:1

[Events]
//Background and Video events
0,0,"ano.png",0,0
Video,0,"flv.flv"
//Break Periods
//Storyboard Layer 0 (Background)
//Storyboard Layer 1 (Fail)
//Storyboard Layer 2 (Pass)
//Storyboard Layer 3 (Foreground)
//Storyboard Sound Samples
//Background Colour Transformations
3,100,0,0,0

[TimingPoints]
-911,483.870967741935,4,2,2,50,1,0
540,-100,4,2,1,50,0,0
1024,-100,4,2,1,70,0,0
1992,-100,4,2,2,70,0,0
2476,-100,4,2,1,70,0,0
2718,-100,4,2,2,70,0,0
3443,-100,4,2,1,70,0,0
3927,-100,4,2,2,70,0,0
4411,-100,4,2,1,70,0,0
4653,-100,4,2,2,70,0,0
4895,-100,4,2,1,70,0,0
6105,-100,4,2,2,50,0,0
8766,-100,4,2,1,30,0,0
9734,-100,4,2,1,50,0,0
12637,-100,4,2,2,50,0,0
12758,-100,4,2,1,50,0,0
18443,-100,4,2,2,50,0,0
18564,-100,4,2,1,50,0,0
21347,-100,4,2,2,50,0,0
21468,-100,4,2,1,50,0,0
23040,-100,4,2,1,30,0,0
23282,-100,4,2,1,50,0,0
28121,-100,4,2,2,50,0,0
28242,-100,4,2,1,50,0,0
35863,-100,4,2,2,50,0,0
36105,-100,4,2,1,50,0,0
36830,-100,4,2,2,50,0,0
37072,-100,4,2,1,50,0,0
38766,-100,4,2,2,50,0,0
39250,-100,4,2,1,50,0,0
39734,-100,4,2,2,60,0,0
41185,-100,4,2,1,60,0,0
41306,-100,4,2,2,60,0,0
43121,-100,4,2,1,60,0,0
43242,-100,4,2,2,60,0,0
44814,-100,4,2,1,60,0,0
45298,-100,4,2,2,60,0,0
46750,-100,4,2,1,60,0,0
46992,-100,4,2,2,60,0,0
47959,-100,4,2,1,60,0,0
48080,-100,4,2,2,60,0,0
48927,-100,4,2,1,60,0,0
49169,-100,4,2,2,60,0,0
49895,-100,4,2,1,60,0,0
50379,-100,4,2,2,60,0,0
50621,-100,4,2,1,60,0,0
50863,-100,4,2,2,60,0,0
53282,-100,4,2,1,50,0,0
55218,-100,4,2,1,70,0,1
69734,-100,4,2,1,70,0,0
70701,-100,4,2,1,70,0,1
82798,-100,4,2,1,60,0,1
83766,-100,4,2,2,60,0,1
84734,-100,4,2,1,60,0,1
85218,-100,4,2,1,40,0,1
85459,-100,4,2,2,60,0,1
85701,-100,4,2,1,60,0,1
86185,-100,4,2,1,60,0,0
86669,-100,4,2,1,50,0,0
87153,-100,4,2,1,40,0,0
87637,-100,4,2,1,30,0,0
88121,-100,4,2,1,20,0,0
88605,-100,4,2,1,10,0,0
89088,-100,4,2,1,5,0,0

[Colours]
Combo1 : 255,255,147
Combo2 : 255,174,136
Combo3 : 162,208,255
Combo4 : 142,255,142
Combo5 : 193,132,132

[HitObjects]
332,324,56,6,0,L|272:332,2,60,4|2|8,0:0|0:0|0:0,0:0:0:0:
428,344,1024,6,0,P|444:292|436:228,1,120,6|8,0:0|0:0,0:0:0:0:
352,184,1992,1,2,0:0:0:0:
272,236,2476,2,0,L|280:296,2,60,8|2|6,0:0|0:0|0:0,0:0:0:0:
256,140,3443,1,8,0:0:0:0:
172,96,3927,2,0,P|112:96|56:128,1,120,2|8,0:0|0:0,0:0:0:0:
32,164,4653,1,2,0:0:0:0:
24,212,4895,5,6,0:0:0:0:
92,280,5379,1,8,0:0:0:0:
180,244,5863,2,0,L|240:256,1,60,2|2,0:0|0:0,0:0:0:0:
284,240,6347,2,0,L|344:252,1,60,2|2,0:0|0:0,0:0:0:0:
256,192,6830,12,4,8766,0:0:0:0:
192,52,9734,6,0,L|208:176,1,120,2|0,0:0|0:0,0:0:0:0:
272,240,10701,2,0,B|388:276|388:196|508:236,1,240,2|2,0:0|0:0,0:0:0:0:
348,344,12637,6,0,P|288:340|232:320,1,120,2|0,0:0|0:0,0:0:0:0:
152,264,13605,1,2,0:0:0:0:
104,348,14088,1,0,0:0:0:0:
20,300,14572,2,0,B|0:236|32:184|32:184|96:196|148:164,1,240,2|2,0:0|0:0,0:0:0:0:
300,52,16508,6,0,P|360:44|420:52,2,120,2|0|2,0:0|0:0|0:0,0:0:0:0:
240,128,17959,1,0,0:0:0:0:
296,204,18443,2,0,B|316:276|316:276|272:348|172:340,1,240,2|2,0:0|0:0,0:0:0:0:
64,180,20379,5,2,0:0:0:0:
140,240,20863,1,0,0:0:0:0:
228,200,21347,2,0,P|220:140|232:80,2,120,2|0|2,0:0|0:0|0:0,0:0:0:0:
292,272,22798,2,0,L|352:256,1,60,8|2,0:0|0:0,0:0:0:0:
388,224,23282,2,0,L|448:240,1,60,2|0,0:0|0:0,0:0:0:0:
484,208,23766,2,0,L|467:148,1,60,2|0,0:0|0:0,0:0:0:0:
452,104,24250,6,2,P|392:84|336:84,1,120,4|0,0:0|0:0,0:0:0:0:
256,140,25218,1,2,0:0:0:0:
300,224,25701,1,0,0:0:0:0:
244,304,26185,2,0,P|132:316|68:216,1,240,2|2,0:0|0:0,0:0:0:0:
156,48,28121,5,2,0:0:0:0:
80,108,28605,1,0,0:0:0:0:
56,200,29088,2,0,L|76:320,1,120,2|0,0:0|0:0,0:0:0:0:
160,360,30056,2,0,B|244:320|332:356|332:356|304:296,1,240,2|2,0:0|0:0,0:0:0:0:
176,156,31992,5,2,0:0:0:0:
248,92,32476,1,0,0:0:0:0:
332,136,32959,2,0,P|392:136|444:104,1,120,2|0,0:0|0:0,0:0:0:0:
464,12,33927,2,0,B|484:164|484:164|488:204|464:248,1,240,2|2,0:0|0:0,0:0:0:0:
288,320,35863,6,0,L|228:316,2,60,2|8|8,0:0|0:0|0:0,0:0:0:0:
356,252,36830,2,0,L|416:248,2,60,2|8|8,0:0|0:0|0:0,0:0:0:0:
324,216,37556,2,0,B|304:164|304:164|240:148|184:184,1,180,2|8,0:0|0:0,0:0:0:0:
140,268,38766,2,0,L|155:325,1,60,2|0,0:0|0:0,0:0:0:0:
117,357,39250,2,0,L|59:341,1,60,8|0,0:0|0:0,0:0:0:0:
20,312,39734,6,0,P|4:252|12:192,1,120,4|2,0:0|0:0,0:0:0:0:
68,116,40701,1,2,0:0:0:0:
152,164,41185,1,8,0:0:0:0:
240,124,41669,2,0,B|272:72|272:72|332:72,1,120,2|2,0:0|0:0,0:0:0:0:
420,108,42637,1,2,0:0:0:0:
400,204,43121,1,8,0:0:0:0:
308,236,43605,6,0,P|252:228|188:236,1,120,2|2,0:0|0:0,0:0:0:0:
124,308,44572,2,0,L|140:368,2,60,2|8|8,0:0|0:0|0:0,0:0:0:0:
84,284,45298,2,0,P|60:228|60:168,1,120,4|2,0:0|0:0,0:0:0:0:
84,128,46024,1,0,0:0:0:0:
120,96,46266,2,0,L|240:96,1,120,4|8,0:0|0:0,0:0:0:0:
280,68,46992,2,0,L|340:68,1,60,2|2,0:0|0:0,0:0:0:0:
384,92,47476,6,0,P|396:152|384:212,1,120,4|8,0:0|0:0,0:0:0:0:
300,252,48443,1,2,0:0:0:0:
212,216,48927,2,0,L|196:156,2,60,8|2|4,0:0|0:0|0:0,0:0:0:0:
168,300,49895,1,8,0:0:0:0:
76,280,50379,2,0,L|60:337,2,60,2|8|2,0:0|0:0|0:0,0:0:0:0:
256,192,51105,12,2,53282,0:0:0:0:
176,284,54492,6,0,L|160:344,2,60,0|8|0,0:0|0:0|0:0,0:0:0:0:
164,236,55218,5,4,0:0:0:0:
228,164,55701,2,0,P|288:160|348:176,1,120,8|2,0:0|0:0,0:0:0:0:
420,236,56669,1,8,0:0:0:0:
420,236,56911,2,0,B|444:180|444:180|428:124,1,120,2|2,0:0|0:0,0:0:0:0:
408,80,57637,1,8,0:0:0:0:
336,16,58121,1,2,0:0:0:0:
256,64,58605,2,0,L|196:64,1,60,8|0,0:0|0:0,0:0:0:0:
160,96,59088,6,0,B|144:156|144:156|136:184|152:216,1,120,2|8,0:0|0:0,0:0:0:0:
228,272,60056,2,0,P|288:274|348:256,1,120,2|8,0:0|0:0,0:0:0:0:
384,232,60782,2,0,L|372:352,2,120,4|8|4,0:0|0:0|0:0,0:0:0:0:
428,144,62234,2,0,L|416:80,1,60,2|8,0:0|0:0,0:0:0:0:
388,48,62718,1,8,0:0:0:0:
340,36,62959,6,0,L|220:56,1,120,4|8,0:0|0:0,0:0:0:0:
128,32,63927,1,2,0:0:0:0:
76,112,64411,1,8,0:0:0:0:
120,196,64895,2,0,P|172:228|232:232,1,120,2|8,0:0|0:0,0:0:0:0:
312,180,65863,2,0,P|371:184|421:216,1,120,2|8,0:0|0:0,0:0:0:0:
440,260,66588,1,8,0:0:0:0:
432,308,66830,6,0,L|312:328,1,120,4|8,0:0|0:0,0:0:0:0:
276,360,67556,2,0,L|156:340,1,120,4|8,0:0|0:0,0:0:0:0:
84,276,68524,2,0,P|72:212|84:156,1,120,4|8,0:0|0:0,0:0:0:0:
120,128,69250,2,0,L|180:136,2,60,8|2|8,0:0|0:0|0:0,0:0:0:0:
180,52,70218,2,0,L|240:60,1,60,8|8,0:0|0:0,0:0:0:0:
280,88,70701,6,0,P|296:148|276:208,1,120,4|8,0:0|0:0,0:0:0:0:
196,248,71669,1,2,0:0:0:0:
228,336,72153,1,8,0:0:0:0:
228,336,72395,2,0,B|284:368|344:356,1,120,2|2,0:0|0:0,0:0:0:0:
372,316,73121,2,0,L|492:340,1,120,8|2,0:0|0:0,0:0:0:0:
480,244,74088,2,0,L|468:184,1,60,8|0,0:0|0:0,0:0:0:0:
492,144,74572,6,0,P|491:84|464:32,1,120,2|8,0:0|0:0,0:0:0:0:
368,20,75540,1,2,0:0:0:0:
280,60,76024,1,8,0:0:0:0:
280,60,76266,2,0,L|160:48,1,120,4|8,0:0|0:0,0:0:0:0:
116,32,76992,1,8,0:0:0:0:
80,64,77234,2,0,P|68:124|84:184,1,120,4|8,0:0|0:0,0:0:0:0:
112,216,77959,2,0,L|104:280,1,60,8|0,0:0|0:0,0:0:0:0:
100,324,78443,6,0,B|152:352|152:352|216:352,1,120,4|8,0:0|0:0,0:0:0:0:
300,312,79411,1,2,0:0:0:0:
252,228,79895,1,8,0:0:0:0:
252,228,80137,2,0,P|236:140|272:56,1,180,4|8,0:0|0:0,0:0:0:0:
316,40,81105,2,0,P|400:70|454:143,1,180,2|8,0:0|0:0,0:0:0:0:
444,188,82072,6,0,P|375:245|285:256,1,180,4|8,0:0|0:0,0:0:0:0:
220,188,83282,2,0,L|232:128,2,60,0|8|0,0:0|0:0|0:0,0:0:0:0:
180,212,84008,2,0,L|200:336,1,120,2|2,0:0|0:0,0:0:0:0:
168,368,84734,1,8,0:0:0:0:
84,320,85218,2,0,L|92:260,1,60,12|2,0:0|0:0,0:0:0:0:
96,212,85701,2,0,L|88:152,1,60,8|0,0:0|0:0,0:0:0:0:
256,192,86185,12,0,89088,0:0:0:0:
