osu file format v13

[General]
AudioFilename: Ray - Sign.mp3
AudioLeadIn: 2000
PreviewTime: 54492
Countdown: 0
SampleSet: Soft
StackLeniency: 0.7
Mode: 0
LetterboxInBreaks: 0
WidescreenStoryboard: 0

[Editor]
DistanceSpacing: 1.1
BeatDivisor: 4
GridSize: 4
TimelineZoom: 1

[Metadata]
Title:sign
TitleUnicode:sign
Artist:Ray
ArtistUnicode:Ray
Creator:alacat
Version:Insane
Source:あの夏で待ってる
Tags:TV Size Ano Natsu de Matteru iyasine Opening KOTOKO Orito Shinji Summer Natsumachi Anonatsu waiting
BeatmapID:438783
BeatmapSetID:183101

[Difficulty]
HPDrainRate:7
CircleSize:4
OverallDifficulty:7.5
ApproachRate:8
SliderMultiplier:1.8
SliderTickRate:1

[Events]
//Background and Video events
0,0,"ano.png",0,0
Video,0,"flv.flv"
//Break Periods
//Storyboard Layer 0 (Background)
//Storyboard Layer 1 (Fail)
//Storyboard Layer 2 (Pass)
//Storyboard Layer 3 (Foreground)
//Storyboard Sound Samples
//Background Colour Transformations
3,100,0,0,0

[TimingPoints]
-911,483.870967741935,4,2,2,50,1,0
540,-100,4,2,1,50,0,0
782,-100,4,2,2,50,0,0
1024,-100,4,2,1,70,0,0
1992,-100,4,2,2,70,0,0
2234,-100,4,2,1,70,0,0
2718,-100,4,2,2,70,0,0
2959,-100,4,2,1,70,0,0
3927,-100,4,2,2,70,0,0
4169,-100,4,2,1,70,0,0
4290,-100,4,2,2,70,0,0
4411,-100,4,2,1,70,0,0
4653,-100,4,2,2,70,0,0
4895,-100,4,2,1,70,0,0
5863,-100,4,2,1,50,0,0
6105,-100,4,2,2,60,0,0
6347,-100,4,2,2,50,0,0
6588,-100,4,2,2,40,0,0
6830,-100,4,2,1,60,0,0
8524,-100,4,2,1,5,0,0
8766,-100,4,2,1,30,0,0
8887,-100,4,2,1,50,0,0
12637,-100,4,2,2,40,0,0
12758,-100,4,2,1,50,0,0
18443,-100,4,2,2,40,0,0
18564,-100,4,2,1,50,0,0
21347,-100,4,2,2,40,0,0
22072,-100,4,2,1,50,0,0
28121,-100,4,2,2,40,0,0
28242,-100,4,2,1,50,0,0
31750,-100,4,2,2,40,0,0
31871,-100,4,2,1,50,0,0
33927,-100,4,2,2,40,0,0
34048,-100,4,2,1,50,0,0
35863,-100,4,2,2,40,0,0
35984,-100,4,2,1,50,0,0
37193,-100,4,2,2,40,0,0
37314,-100,4,2,1,50,0,0
37556,-100,4,2,2,40,0,0
37677,-100,4,2,1,50,0,0
39734,-100,4,2,2,60,0,0
41185,-100,4,2,1,60,0,0
41306,-100,4,2,2,60,0,0
43121,-100,4,2,1,60,0,0
43242,-100,4,2,2,60,0,0
44814,-100,4,2,1,60,0,0
45177,-100,4,2,2,60,0,0
46992,-100,4,2,1,60,0,0
47234,-100,4,2,2,60,0,0
47959,-100,4,2,1,60,0,0
48443,-100,4,2,2,60,0,0
48927,-100,4,2,1,60,0,0
49169,-100,4,2,2,60,0,0
49895,-100,4,2,1,60,0,0
50379,-100,4,2,2,60,0,0
50500,-100,4,2,1,60,0,0
53282,-200,4,2,1,50,0,0
54492,-133.333333333333,4,2,1,60,0,0
55218,-100,4,2,1,70,0,1
69734,-100,4,2,1,70,0,0
70701,-100,4,2,1,70,0,1
83524,-100,4,2,1,60,0,1
83766,-100,4,2,2,60,0,1
84734,-100,4,2,1,60,0,1
85218,-100,4,2,1,40,0,1
85459,-100,4,2,2,60,0,1
85701,-100,4,2,1,60,0,1
86185,-100,4,2,1,60,0,0
86669,-100,4,2,1,50,0,0
87153,-100,4,2,1,40,0,0
87637,-100,4,2,1,30,0,0
88121,-100,4,2,1,20,0,0
88605,-100,4,2,1,10,0,0
89088,-100,4,2,1,5,0,0

[Colours]
Combo1 : 255,255,147
Combo2 : 255,174,136
Combo3 : 162,208,255
Combo4 : 142,255,142
Combo5 : 193,132,132

[HitObjects]
172,240,56,5,4,0:0:0:0:
220,104,298,1,2,0:0:0:0:
220,104,419,1,2,0:0:0:0:
220,104,540,2,0,L|232:60,2,45,8|8|2,0:0|0:0|0:0,0:0:0:0:
148,156,1024,6,0,P|84:164|20:132,2,135,4|2|2,0:0|0:0|0:0,0:0:0:0:
240,16,1992,2,0,L|220:104,1,90,2|2,0:0|0:0,0:0:0:0:
236,136,2355,1,0,0:0:0:0:
252,168,2476,2,0,L|232:256,1,90,8|2,0:0|0:0,0:0:0:0:
352,360,2959,6,0,P|411:330|477:338,2,135,6|2|2,0:0|0:0|0:0,0:0:0:0:
204,256,3927,1,2,0:0:0:0:
180,352,4169,1,2,0:0:0:0:
180,352,4290,1,2,0:0:0:0:
180,352,4411,2,0,P|224:348|268:332,1,90,8|2,0:0|0:0,0:0:0:0:
180,88,4895,6,0,P|160:127|151:173,1,90,6|0,0:0|0:0,0:0:0:0:
204,256,5379,1,8,0:0:0:0:
184,284,5500,1,0,0:0:0:0:
152,300,5621,1,2,0:0:0:0:
116,304,5742,1,8,0:0:0:0:
80,292,5863,2,0,P|60:252|51:206,1,90,4|2,0:0|0:0,0:0:0:0:
64,40,6347,1,2,0:0:0:0:
112,128,6588,1,2,0:0:0:0:
256,40,6830,5,2,0:0:0:0:
256,192,6951,12,0,8524,0:0:0:0:
276,32,8766,6,0,L|268:76,1,45,4|0,0:0|0:0,0:0:0:0:
320,200,9129,2,0,L|328:156,1,45,0|2,0:0|0:0,0:0:0:0:
232,260,9492,1,0,0:0:0:0:
232,260,9613,1,0,0:0:0:0:
232,260,9734,2,0,P|188:282|148:288,1,90,0|2,0:0|0:0,0:0:0:0:
116,308,10097,2,0,P|188:316|244:344,1,135,0|2,0:0|0:0,0:0:0:0:
332,304,10701,5,0,0:0:0:0:
260,236,10943,1,0,0:0:0:0:
260,236,11064,1,0,0:0:0:0:
260,236,11185,2,0,P|252:188|256:148,1,90,2|0,0:0|0:0,0:0:0:0:
296,56,11669,1,0,0:0:0:0:
200,72,11911,2,0,L|156:68,1,45,0|2,0:0|0:0,0:0:0:0:
352,140,12274,2,0,L|396:136,1,45,0|2,0:0|0:0,0:0:0:0:
492,60,12637,5,2,0:0:0:0:
424,132,12879,1,0,0:0:0:0:
492,60,13121,1,2,0:0:0:0:
476,216,13363,1,0,0:0:0:0:
324,168,13605,2,0,L|232:156,1,90,0|2,0:0|0:0,0:0:0:0:
212,128,13968,2,0,L|244:264,1,135,0|2,0:0|0:0,0:0:0:0:
108,380,14572,6,0,P|152:368|184:336,1,90
172,304,14935,2,0,L|160:260,1,45,0|2,0:0|0:0,0:0:0:0:
68,160,15298,1,0,0:0:0:0:
68,160,15419,1,0,0:0:0:0:
68,160,15540,2,0,P|44:224|52:292,2,135,0|2|2,0:0|0:0|0:0,0:0:0:0:
204,88,16508,5,0,0:0:0:0:
204,88,16629,1,0,0:0:0:0:
108,68,16871,1,0,0:0:0:0:
108,68,16992,1,2,0:0:0:0:
200,232,17234,1,0,0:0:0:0:
200,232,17355,1,0,0:0:0:0:
200,232,17476,1,0,0:0:0:0:
268,160,17718,1,2,0:0:0:0:
268,160,17838,2,0,P|332:148|400:160,1,135,0|2,0:0|0:0,0:0:0:0:
312,342,18443,6,0,P|295:300|296:256,2,90,2|0|2,0:0|0:0|0:0,0:0:0:0:
432,280,19169,1,0,0:0:0:0:
468,188,19411,1,0,0:0:0:0:
296,256,19653,1,0,0:0:0:0:
296,256,19774,1,2,0:0:0:0:
308,80,20016,1,0,0:0:0:0:
308,80,20137,1,2,0:0:0:0:
416,136,20379,6,0,P|464:136|508:128,2,90,0|0|2,0:0|0:0|0:0,0:0:0:0:
240,136,21105,1,0,0:0:0:0:
332,180,21347,2,0,P|340:244|340:316,2,135,2|2|2,0:0|0:0|0:0,0:0:0:0:
256,44,22314,6,0,P|172:28|100:80,1,180,0|8,0:0|0:0,0:0:0:0:
164,248,23040,1,0,0:0:0:0:
164,248,23161,1,0,0:0:0:0:
164,248,23282,1,2,0:0:0:0:
212,160,23524,1,0,0:0:0:0:
16,240,23766,1,2,0:0:0:0:
224,328,24008,1,0,0:0:0:0:
104,172,24250,5,4,0:0:0:0:
84,200,24371,2,0,P|72:244|76:288,1,90
96,320,24734,1,2,0:0:0:0:
264,244,24976,1,0,0:0:0:0:
264,244,25097,1,0,0:0:0:0:
264,244,25218,2,0,P|308:252|348:276,1,90,0|2,0:0|0:0,0:0:0:0:
368,304,25580,2,0,P|340:244|344:176,1,135,0|2,0:0|0:0,0:0:0:0:
404,100,26185,5,0,0:0:0:0:
248,156,26427,1,0,0:0:0:0:
248,156,26548,2,0,B|176:172|176:136|116:156,1,135,2|2,0:0|0:0,0:0:0:0:
40,220,27153,1,0,0:0:0:0:
132,252,27395,2,0,L|140:296,1,45,0|2,0:0|0:0,0:0:0:0:
24,128,27758,2,0,L|32:84,1,45,0|2,0:0|0:0,0:0:0:0:
108,20,28121,5,2,0:0:0:0:
32,148,28363,1,0,0:0:0:0:
196,72,28605,1,2,0:0:0:0:
40,168,28847,1,0,0:0:0:0:
228,160,29088,2,0,P|236:208|228:252,1,90,0|2,0:0|0:0,0:0:0:0:
208,280,29451,2,0,P|244:240|320:216,1,135,0|2,0:0|0:0,0:0:0:0:
460,256,30056,5,0,0:0:0:0:
372,152,30298,1,0,0:0:0:0:
372,152,30419,2,0,L|356:292,1,135,2|2,0:0|0:0,0:0:0:0:
368,312,31266,1,2,0:0:0:0:
464,340,31508,1,0,0:0:0:0:
488,244,31750,1,2,0:0:0:0:
368,312,31992,5,0,0:0:0:0:
368,312,32113,1,0,0:0:0:0:
268,240,32355,2,0,L|272:284,1,45,0|2,0:0|0:0,0:0:0:0:
188,176,32718,2,0,L|192:132,1,45
168,104,32959,2,0,L|160:196,1,90,0|2,0:0|0:0,0:0:0:0:
132,212,33322,2,0,P|64:224|8:192,1,135,0|2,0:0|0:0,0:0:0:0:
148,32,33927,6,0,L|132:212,1,180,2|2,0:0|0:0,0:0:0:0:
60,280,34653,1,0,0:0:0:0:
228,240,34895,1,0,0:0:0:0:
36,184,35137,1,0,0:0:0:0:
36,184,35258,1,2,0:0:0:0:
156,312,35500,1,0,0:0:0:0:
156,312,35621,1,2,0:0:0:0:
208,136,35863,5,2,0:0:0:0:
300,172,36105,1,8,0:0:0:0:
336,164,36226,1,0,0:0:0:0:
372,156,36347,2,0,L|420:144,2,45,8|0|0,0:0|0:0|0:0,0:0:0:0:
228,240,36830,1,0,0:0:0:0:
192,232,36951,1,8,0:0:0:0:
156,224,37072,1,8,0:0:0:0:
120,216,37193,1,2,0:0:0:0:
84,208,37314,1,8,0:0:0:0:
40,120,37556,1,2,0:0:0:0:
124,316,37798,6,0,L|167:326,2,45,0|8|8,0:0|0:0|0:0,0:0:0:0:
32,352,38282,1,8,0:0:0:0:
268,356,38524,2,0,L|311:345,1,45,0|8,0:0|0:0,0:0:0:0:
380,284,38766,1,8,0:0:0:0:
416,292,38887,1,8,0:0:0:0:
452,300,39008,1,8,0:0:0:0:
488,308,39129,1,8,0:0:0:0:
512,280,39250,2,0,L|500:232,1,45,8|0,0:0|0:0,0:0:0:0:
440,168,39492,2,0,L|452:120,1,45,8|0,0:0|0:0,0:0:0:0:
472,36,39734,6,0,B|404:0|336:20|336:20|324:60,1,180,4|2,0:0|0:0,0:0:0:0:
348,152,40459,1,0,0:0:0:0:
236,44,40701,2,0,L|204:136,1,90,2|0,0:0|0:0,0:0:0:0:
232,224,41185,1,8,0:0:0:0:
128,88,41427,6,0,B|96:176|96:176|96:224|132:252,1,180
212,192,42153,1,2,0:0:0:0:
20,264,42395,2,0,B|60:340|136:344|136:344|152:372,1,180
208,280,43121,1,8,0:0:0:0:
248,372,43363,1,0,0:0:0:0:
400,216,43605,6,0,P|311:209|234:252,1,180,2|2,0:0|0:0,0:0:0:0:
224,352,44330,1,0,0:0:0:0:
316,316,44572,1,2,0:0:0:0:
136,296,44814,1,8,0:0:0:0:
316,316,45056,1,8,0:0:0:0:
227,174,45298,6,0,B|199:266|247:266|224:352,1,180,4|2,0:0|0:0,0:0:0:0:
128,380,46024,1,0,0:0:0:0:
324,224,46266,2,0,B|392:224|452:264|452:264|432:224,1,180,4|2,0:0|0:0,0:0:0:0:
388,136,46992,1,8,0:0:0:0:
240,268,47234,5,2,0:0:0:0:
240,268,47355,1,0,0:0:0:0:
240,268,47476,2,0,P|176:272|104:260,1,135,4|2,0:0|0:0,0:0:0:0:
92,228,47959,2,0,L|108:140,1,90,8|0,0:0|0:0,0:0:0:0:
76,44,48443,1,2,0:0:0:0:
32,344,48806,1,2,0:0:0:0:
32,344,48927,2,0,P|72:356|120:356,1,90,8|2,0:0|0:0,0:0:0:0:
240,268,49411,6,0,L|216:132,1,135,4|0,0:0|0:0,0:0:0:0:
248,152,49895,1,8,0:0:0:0:
92,228,50137,1,0,0:0:0:0:
212,352,50379,1,2,0:0:0:0:
328,252,50621,1,8,0:0:0:0:
180,204,50863,1,8,0:0:0:0:
316,348,51105,5,4,0:0:0:0:
256,192,51226,12,0,53040,0:0:0:0:
104,96,53282,6,2,B|176:100|228:56|228:56|252:76|252:104,1,180,2|2,0:0|0:0,0:0:0:0:
208,236,54492,6,0,P|197:204|197:170,1,67.5000025749208,0|8,0:0|0:0,0:0:0:0:
340,88,54976,5,0,0:0:0:0:
340,88,55097,1,0,0:0:0:0:
340,88,55218,2,0,P|356:132|356:176,1,90,4|0,0:0|0:0,0:0:0:0:
304,260,55701,1,8,0:0:0:0:
152,152,55943,2,0,L|104:144,2,45,2|0|0,0:0|0:0|0:0,0:0:0:0:
268,96,56427,1,2,0:0:0:0:
304,92,56548,1,0,0:0:0:0:
340,88,56669,1,8,0:0:0:0:
168,44,56911,6,0,L|136:224,1,180,2|2,0:0|0:0,0:0:0:0:
8,180,57637,1,8,0:0:0:0:
60,28,57879,1,2,0:0:0:0:
64,64,58000,1,0,0:0:0:0:
68,100,58121,1,0,0:0:0:0:
56,264,58363,1,2,0:0:0:0:
232,180,58605,1,8,0:0:0:0:
72,132,58847,1,2,0:0:0:0:
40,296,59088,6,0,B|52:336|52:336|120:364|184:316,1,180,2|8,0:0|0:0,0:0:0:0:
160,220,59814,1,0,0:0:0:0:
160,220,59935,1,0,0:0:0:0:
160,220,60056,2,0,P|148:172|152:132,1,90,2|0,0:0|0:0,0:0:0:0:
228,68,60540,1,8,0:0:0:0:
136,36,60782,5,4,0:0:0:0:
256,320,61266,1,8,0:0:0:0:
488,120,61750,1,4,0:0:0:0:
396,80,61992,1,2,0:0:0:0:
361,95,62113,1,0,0:0:0:0:
328,87,62234,1,8,0:0:0:0:
297,102,62355,1,0,0:0:0:0:
260,94,62476,1,8,0:0:0:0:
180,36,62718,5,10,0:0:0:0:
145,47,62838,1,8,0:0:0:0:
108,44,62959,2,0,P|64:125|76:209,1,180,4|8,0:0|0:0,0:0:0:0:
227,318,63685,1,0,0:0:0:0:
227,318,63806,1,0,0:0:0:0:
227,318,63927,2,0,P|196:285|156:268,1,90,2|0,0:0|0:0,0:0:0:0:
64,304,64411,1,8,0:0:0:0:
140,368,64653,1,0,0:0:0:0:
280,240,64895,6,0,P|322:228|366:233,1,90,2|0,0:0|0:0,0:0:0:0:
240,344,65379,1,8,0:0:0:0:
144,219,65621,2,0,P|139:175|152:132,1,90,2|0,0:0|0:0,0:0:0:0:
252,368,66105,1,2,0:0:0:0:
64,304,66347,1,8,0:0:0:0:
296,200,66588,5,0,0:0:0:0:
296,200,66709,1,0,0:0:0:0:
296,200,66830,2,0,B|288:152|308:112|308:112|280:76|228:72,1,180,4|8,0:0|0:0,0:0:0:0:
152,132,67556,1,4,0:0:0:0:
40,244,67798,1,0,0:0:0:0:
40,244,67919,1,0,0:0:0:0:
40,244,68040,2,0,P|84:244|128:224,1,90,8|8,0:0|0:0,0:0:0:0:
8,152,68524,6,0,L|24:336,1,180,4|2,0:0|0:0,0:0:0:0:
132,384,69250,1,2,0:0:0:0:
153,355,69371,1,8,0:0:0:0:
186,339,69492,1,0,0:0:0:0:
220,336,69613,1,8,0:0:0:0:
255,345,69734,1,8,0:0:0:0:
352,312,69976,1,2,0:0:0:0:
296,168,70218,1,8,0:0:0:0:
285,203,70339,1,8,0:0:0:0:
275,238,70459,1,10,0:0:0:0:
440,352,70701,6,0,P|504:308|496:212,1,180,4|8,0:0|0:0,0:0:0:0:
408,168,71427,1,0,0:0:0:0:
408,168,71548,1,0,0:0:0:0:
408,168,71669,2,0,P|388:124|388:84,2,90,2|0|8,0:0|0:0|0:0,0:0:0:0:
480,40,72395,6,0,L|300:56,1,180,2|2,0:0|0:0,0:0:0:0:
120,72,73121,1,8,0:0:0:0:
212,104,73363,1,2,0:0:0:0:
212,104,73484,1,0,0:0:0:0:
212,104,73605,1,0,0:0:0:0:
136,164,73847,1,2,0:0:0:0:
308,136,74088,1,8,0:0:0:0:
196,8,74330,1,2,0:0:0:0:
328,232,74572,6,0,B|348:296|336:360|336:360|356:344|360:312,1,180,2|8,0:0|0:0,0:0:0:0:
248,360,75298,1,0,0:0:0:0:
216,372,75419,1,0,0:0:0:0:
180,384,75540,2,0,P|136:380|92:364,1,90,2|0,0:0|0:0,0:0:0:0:
36,284,76024,1,8,0:0:0:0:
100,40,76266,6,0,B|141:92|125:168|125:168|97:204,2,180,4|2|4,0:0|0:0|0:0,0:0:0:0:
256,284,77718,1,2,0:0:0:0:
312,200,77959,1,8,0:0:0:0:
304,164,78080,1,0,0:0:0:0:
296,128,78201,1,2,0:0:0:0:
288,92,78322,1,8,0:0:0:0:
280,56,78443,6,0,L|368:72,1,90,4|0,0:0|0:0,0:0:0:0:
496,180,78927,2,0,L|408:164,1,90,8|0,0:0|0:0,0:0:0:0:
216,108,79411,2,0,L|256:284,1,180,2|8,0:0|0:0,0:0:0:0:
56,312,80137,5,4,0:0:0:0:
140,252,80379,2,0,L|160:340,1,90,2|0,0:0|0:0,0:0:0:0:
60,192,80863,1,8,0:0:0:0:
256,284,81105,2,0,B|384:320|384:320|432:304,1,180,2|2,0:0|0:0,0:0:0:0:
484,220,81830,1,8,0:0:0:0:
280,376,82072,5,4,0:0:0:0:
280,376,82556,1,2,0:0:0:0:
244,152,82798,2,0,L|236:196,1,45,8|0,0:0|0:0,0:0:0:0:
192,312,83040,2,0,L|184:268,1,45,0|8,0:0|0:0,0:0:0:0:
128,204,83282,2,0,P|80:208|36:216,1,90,0|8,0:0|0:0,0:0:0:0:
0,124,83766,1,0,0:0:0:0:
212,232,84008,6,0,B|272:280|336:256|336:256|364:216,1,180,2|2,0:0|0:0,0:0:0:0:
440,76,84734,1,8,0:0:0:0:
132,164,85218,2,0,L|120:256,1,90,12|2,0:0|0:0,0:0:0:0:
100,284,85580,1,2,0:0:0:0:
84,316,85701,2,0,L|92:360,2,45,8|8|8,0:0|0:0|0:0,0:0:0:0:
256,192,86185,12,0,89088,0:0:0:0:
