osu file format v13

[General]
AudioFilename: Ray - Sign.mp3
AudioLeadIn: 2000
PreviewTime: 54492
Countdown: 0
SampleSet: Soft
StackLeniency: 0.7
Mode: 0
LetterboxInBreaks: 0
WidescreenStoryboard: 0

[Editor]
DistanceSpacing: 1.1
BeatDivisor: 4
GridSize: 4
TimelineZoom: 1

[Metadata]
Title:sign
TitleUnicode:sign
Artist:Ray
ArtistUnicode:Ray
Creator:alacat
Version:Easy
Source:あの夏で待ってる
Tags:TV Size Ano Natsu de Matteru iyasine Opening KOTOKO Orito Shinji Summer Natsumachi Anonatsu waiting
BeatmapID:439084
BeatmapSetID:183101

[Difficulty]
HPDrainRate:2
CircleSize:3
OverallDifficulty:2
ApproachRate:3
SliderMultiplier:0.9
SliderTickRate:1

[Events]
//Background and Video events
0,0,"ano.png",0,0
Video,0,"flv.flv"
//Break Periods
//Storyboard Layer 0 (Background)
//Storyboard Layer 1 (Fail)
//Storyboard Layer 2 (Pass)
//Storyboard Layer 3 (Foreground)
//Storyboard Sound Samples
//Background Colour Transformations
3,100,0,0,0

[TimingPoints]
-911,483.870967741935,4,2,1,50,1,0
1024,-100,4,2,2,70,0,0
2476,-100,4,2,1,70,0,0
3927,-100,4,2,2,70,0,0
4411,-100,4,2,1,70,0,0
6347,-100,4,2,2,50,0,0
8766,-100,4,2,1,30,0,0
9734,-100,4,2,1,50,0,0
12637,-100,4,2,2,50,0,0
12758,-100,4,2,1,50,0,0
18443,-100,4,2,2,50,0,0
18564,-100,4,2,1,50,0,0
21347,-100,4,2,2,50,0,0
21468,-100,4,2,1,50,0,0
28121,-100,4,2,2,50,0,0
28242,-100,4,2,1,50,0,0
35863,-100,4,2,2,50,0,0
35984,-100,4,2,1,50,0,0
38766,-100,4,2,2,50,0,0
38887,-100,4,2,1,50,0,0
39734,-100,4,2,2,60,0,0
41185,-100,4,2,1,60,0,0
41306,-100,4,2,2,60,0,0
43121,-100,4,2,1,60,0,0
43242,-100,4,2,2,60,0,0
46992,-100,4,2,1,60,0,0
47113,-100,4,2,2,60,0,0
48927,-100,4,2,1,60,0,0
50379,-100,4,2,2,60,0,0
50621,-100,4,2,1,60,0,0
50863,-100,4,2,2,60,0,0
53282,-100,4,2,1,60,0,0
55218,-100,4,2,1,70,0,1
67556,-100,4,2,1,60,0,1
67798,-100,4,2,1,70,0,1
69734,-100,4,2,1,70,0,0
70701,-100,4,2,1,70,0,1
82798,-100,4,2,1,60,0,1
83282,-100,4,2,2,60,0,1
84734,-100,4,2,1,60,0,1
85218,-100,4,2,1,40,0,1
85701,-100,4,2,1,60,0,1
86185,-100,4,2,1,60,0,0
86669,-100,4,2,1,50,0,0
87153,-100,4,2,1,40,0,0
87637,-100,4,2,1,30,0,0
88121,-100,4,2,1,20,0,0
88605,-100,4,2,1,10,0,0
89088,-100,4,2,1,5,0,0

[Colours]
Combo1 : 255,255,147
Combo2 : 255,174,136
Combo3 : 162,208,255
Combo4 : 142,255,142
Combo5 : 193,132,132

[HitObjects]
40,72,56,6,0,L|128:56,1,90,4|8,0:0|0:0,0:0:0:0:
220,96,1024,6,0,B|246:184|190:184|218:272,1,180,6|2,0:0|0:0,0:0:0:0:
296,336,2476,1,8,0:0:0:0:
388,304,2959,2,0,P|432:304|480:316,2,90,6|8|2,0:0|0:0|0:0,0:0:0:0:
312,240,4411,1,8,0:0:0:0:
220,276,4895,6,0,P|152:268|112:220,2,135,6|2|2,0:0|0:0|0:0,0:0:0:0:
256,192,6830,12,4,8766,0:0:0:0:
232,348,9734,6,0,L|324:336,1,90,2|0,0:0|0:0,0:0:0:0:
412,380,10701,2,0,B|444:292|376:292|412:204,1,180,2|2,0:0|0:0,0:0:0:0:
460,16,12637,6,0,P|380:56|288:56,1,180,2|2,0:0|0:0,0:0:0:0:
196,32,14088,1,0,0:0:0:0:
136,108,14572,2,0,L|160:288,1,180,2|2,0:0|0:0,0:0:0:0:
352,332,16508,6,0,P|396:332|444:340,2,90,2|0|2,0:0|0:0|0:0,0:0:0:0:
280,268,17959,1,0,0:0:0:0:
208,332,18443,2,0,P|120:344|68:276,1,180,2|2,0:0|0:0,0:0:0:0:
160,104,20379,5,2,0:0:0:0:
28,252,21347,2,0,L|8:344,2,90,2|0|2,0:0|0:0|0:0,0:0:0:0:
100,184,22798,1,8,0:0:0:0:
184,232,23282,2,0,P|228:231|273:223,1,90,2|2,0:0|0:0,0:0:0:0:
336,148,24250,6,0,P|424:144|488:204,1,180,4|2,0:0|0:0,0:0:0:0:
464,300,25701,1,0,0:0:0:0:
384,360,26185,2,0,B|296:384|296:336|208:348,1,180,2|2,0:0|0:0,0:0:0:0:
124,168,28121,6,0,P|172:160|216:160,2,90,2|0|2,0:0|0:0|0:0,0:0:0:0:
44,224,29572,1,0,0:0:0:0:
28,128,30056,2,0,B|16:28|16:28|60:48|96:52,1,180,2|2,0:0|0:0,0:0:0:0:
296,24,31992,6,0,B|344:156|344:156|320:188,1,180,2|2,0:0|0:0,0:0:0:0:
256,264,33443,1,0,0:0:0:0:
188,332,33927,2,0,B|76:312|76:312|40:305|28:272,1,180,2|2,0:0|0:0,0:0:0:0:
4,76,35863,6,0,L|96:76,1,90,2|8,0:0|0:0,0:0:0:0:
168,140,36830,2,0,P|234:125|301:134,2,135,2|8|8,0:0|0:0|0:0,0:0:0:0:
108,220,38766,2,0,L|120:312,1,90,2|8,0:0|0:0,0:0:0:0:
196,372,39734,5,4,0:0:0:0:
276,312,40218,2,0,B|323:318|357:351|357:351|394:331|446:338,1,180,2|8,0:0|0:0,0:0:0:0:
508,260,41669,2,0,P|508:212|496:172,1,90,2|2,0:0|0:0,0:0:0:0:
408,124,42637,1,2,0:0:0:0:
440,32,43121,1,8,0:0:0:0:
344,52,43605,6,0,P|296:64|252:64,1,90,2|2,0:0|0:0,0:0:0:0:
160,44,44572,2,0,P|92:56|48:104,1,135,2|4,0:0|0:0,0:0:0:0:
96,192,45782,1,2,0:0:0:0:
48,280,46266,2,0,P|94:328|160:339,1,135,4|8,0:0|0:0,0:0:0:0:
240,280,47476,6,0,B|256:176|256:176|264:136|236:104,1,180,4|2,0:0|0:0,0:0:0:0:
144,68,48927,1,8,0:0:0:0:
72,136,49411,2,0,L|56:224,1,90,4|8,0:0|0:0,0:0:0:0:
108,308,50379,2,0,L|116:356,2,45,2|8|2,0:0|0:0|0:0,0:0:0:0:
256,192,51105,12,2,53282,0:0:0:0:
256,320,54734,5,8,0:0:0:0:
188,248,55218,2,0,P|144:244|96:252,1,90,4|8,0:0|0:0,0:0:0:0:
36,328,56185,2,0,L|72:148,1,180,2|2,0:0|0:0,0:0:0:0:
40,56,57637,1,8,0:0:0:0:
132,20,58121,2,0,P|176:20|220:36,1,90,2|8,0:0|0:0,0:0:0:0:
232,132,59088,5,2,0:0:0:0:
164,208,59572,2,0,L|176:300,1,90,8|2,0:0|0:0,0:0:0:0:
256,356,60540,2,0,L|304:364,1,45,8|4,0:0|0:0,0:0:0:0:
400,352,61266,1,8,0:0:0:0:
496,332,61750,2,0,L|468:200,1,135,4|8,0:0|0:0,0:0:0:0:
448,104,62959,5,4,0:0:0:0:
364,48,63443,2,0,P|272:44|196:92,1,180,8|8,0:0|0:0,0:0:0:0:
180,184,64895,1,2,0:0:0:0:
104,120,65379,1,8,0:0:0:0:
80,216,65863,2,0,L|108:304,1,90,2|8,0:0|0:0,0:0:0:0:
192,352,66830,6,0,P|252:316|272:256,1,135,4|4,0:0|0:0,0:0:0:0:
200,192,68040,1,8,0:0:0:0:
272,126,68524,2,0,P|249:64|192:32,1,135,4|8,0:0|0:0,0:0:0:0:
96,60,69734,1,8,0:0:0:0:
68,156,70218,1,8,0:0:0:0:
148,216,70701,6,0,L|240:216,1,90,4|8,0:0|0:0,0:0:0:0:
316,156,71669,2,0,P|404:144|460:208,1,180,2|2,0:0|0:0,0:0:0:0:
412,292,73121,1,8,0:0:0:0:
320,328,73605,2,0,P|276:316|232:292,1,90,2|8,0:0|0:0,0:0:0:0:
140,280,74572,6,0,L|152:372,2,90,2|8|2,0:0|0:0|0:0,0:0:0:0:
64,216,76024,2,0,L|76:168,1,45,8|4,0:0|0:0,0:0:0:0:
32,84,76750,1,2,0:0:0:0:
120,40,77234,2,0,B|184:24|184:72|256:56,1,135,4|8,0:0|0:0,0:0:0:0:
340,100,78443,5,4,0:0:0:0:
292,188,78927,1,8,0:0:0:0:
200,224,79411,2,0,P|188:296|200:356,2,135,2|4|8,0:0|0:0|0:0,0:0:0:0:
136,148,81347,2,0,P|148:76|136:16,2,135,2|4|8,0:0|0:0|0:0,0:0:0:0:
64,216,83282,1,2,0:0:0:0:
168,320,84008,6,0,L|304:304,1,135,2|8,0:0|0:0,0:0:0:0:
376,236,85218,2,0,L|468:240,1,90,12|8,0:0|0:0,0:0:0:0:
256,192,86185,12,0,89088,0:0:0:0:
