osu file format v14

[General]
AudioFilename: ray desu.mp3
AudioLeadIn: 0
PreviewTime: 54622
Countdown: 0
SampleSet: Normal
StackLeniency: 0.7
Mode: 1
LetterboxInBreaks: 0
WidescreenStoryboard: 0

[Editor]
DistanceSpacing: 0.8
BeatDivisor: 4
GridSize: 4
TimelineZoom: 1

[Metadata]
Title:sign
TitleUnicode:sign
Artist:Ray
ArtistUnicode:Ray
Creator:Xinely
Version:Muzukashii
Source:あの夏で待ってる
Tags:Hanjamon Senritsu Ano Natsu de Matteru opening waiting in the summer
BeatmapID:1089474
BeatmapSetID:512589

[Difficulty]
HPDrainRate:5
CircleSize:3
OverallDifficulty:5
ApproachRate:3
SliderMultiplier:1.4
SliderTickRate:1

[Events]
//Background and Video events
0,0,"taikobg.jpg",0,45
//Break Periods
//Storyboard Layer 0 (Background)
//Storyboard Layer 1 (Fail)
//Storyboard Layer 2 (Pass)
//Storyboard Layer 3 (Foreground)
//Storyboard Sound Samples

[TimingPoints]
-902,483.870967741935,4,1,0,100,1,0
8775,-100,4,1,0,60,0,0
24259,-100,4,1,0,80,0,0
39743,-100,4,1,0,80,0,0
55227,-100,4,1,0,100,0,1
86194,-100,4,1,0,100,0,0

[HitObjects]
176,152,65,5,0,0:0:0:0:
176,152,549,1,8,0:0:0:0:
176,152,670,1,8,0:0:0:0:
176,152,791,1,8,0:0:0:0:
176,152,1033,1,4,0:0:0:0:
176,152,1396,1,8,0:0:0:0:
176,152,1759,1,8,0:0:0:0:
176,152,2001,1,0,0:0:0:0:
176,152,2364,1,8,0:0:0:0:
176,152,2727,1,0,0:0:0:0:
176,152,2968,1,8,0:0:0:0:
176,152,3331,1,8,0:0:0:0:
176,152,3694,1,0,0:0:0:0:
176,152,3936,1,0,0:0:0:0:
176,152,4299,1,8,0:0:0:0:
176,152,4662,1,8,0:0:0:0:
176,152,4904,1,0,0:0:0:0:
176,152,5630,1,0,0:0:0:0:
176,152,5872,1,0,0:0:0:0:
176,152,6114,1,8,0:0:0:0:
176,152,6597,1,0,0:0:0:0:
176,152,6839,1,8,0:0:0:0:
220,144,8775,1,4,0:0:0:0:
220,144,9743,1,0,0:0:0:0:
220,144,10710,1,0,0:0:0:0:
220,144,10952,1,8,0:0:0:0:
220,144,11073,1,8,0:0:0:0:
220,144,11920,1,8,0:0:0:0:
220,144,12041,1,8,0:0:0:0:
220,144,12283,1,0,0:0:0:0:
220,144,12404,1,0,0:0:0:0:
220,144,12646,1,8,0:0:0:0:
220,144,13614,1,0,0:0:0:0:
220,144,14581,1,0,0:0:0:0:
220,144,14823,1,0,0:0:0:0:
220,144,14944,1,8,0:0:0:0:
220,144,15307,1,0,0:0:0:0:
220,144,15791,1,8,0:0:0:0:
220,144,16033,1,0,0:0:0:0:
220,144,16275,1,8,0:0:0:0:
220,144,16517,1,0,0:0:0:0:
220,144,17485,1,0,0:0:0:0:
220,144,17727,1,0,0:0:0:0:
220,144,17847,1,0,0:0:0:0:
220,144,18210,1,8,0:0:0:0:
220,144,18452,1,8,0:0:0:0:
220,144,19178,1,0,0:0:0:0:
220,144,19420,1,0,0:0:0:0:
220,144,19662,1,8,0:0:0:0:
220,144,19783,1,8,0:0:0:0:
220,144,20025,1,8,0:0:0:0:
220,144,20146,1,8,0:0:0:0:
220,144,20388,1,0,0:0:0:0:
220,144,21356,1,0,0:0:0:0:
220,144,21718,1,8,0:0:0:0:
220,144,22081,1,0,0:0:0:0:
220,144,22323,1,8,0:0:0:0:
220,144,23291,1,8,0:0:0:0:
220,144,23533,1,0,0:0:0:0:
220,144,23775,1,8,0:0:0:0:
220,144,24017,1,0,0:0:0:0:
220,144,24259,1,12,0:0:0:0:
220,144,25227,1,0,0:0:0:0:
220,144,26194,1,0,0:0:0:0:
220,144,26436,1,0,0:0:0:0:
220,144,26557,1,8,0:0:0:0:
220,144,27404,1,8,0:0:0:0:
220,144,27525,1,8,0:0:0:0:
220,144,27767,1,8,0:0:0:0:
220,144,27888,1,8,0:0:0:0:
220,144,28130,1,0,0:0:0:0:
220,144,29097,1,0,0:0:0:0:
220,144,30065,1,0,0:0:0:0:
220,144,30307,1,0,0:0:0:0:
220,144,30428,1,8,0:0:0:0:
220,144,31275,1,8,0:0:0:0:
220,144,31517,1,0,0:0:0:0:
220,144,31759,1,8,0:0:0:0:
220,144,32001,1,0,0:0:0:0:
220,144,32968,1,0,0:0:0:0:
220,144,33210,1,0,0:0:0:0:
220,144,33331,1,8,0:0:0:0:
220,144,33936,1,8,0:0:0:0:
220,144,34904,1,0,0:0:0:0:
220,144,35146,1,8,0:0:0:0:
220,144,35267,1,8,0:0:0:0:
220,144,35509,1,8,0:0:0:0:
220,144,35630,1,8,0:0:0:0:
220,144,35872,1,0,0:0:0:0:
220,144,36839,1,8,0:0:0:0:
220,144,37565,1,8,0:0:0:0:
220,144,37928,1,0,0:0:0:0:
220,144,38049,1,0,0:0:0:0:
220,144,38291,1,8,0:0:0:0:
220,144,38775,1,0,0:0:0:0:
220,144,39017,1,0,0:0:0:0:
220,144,39138,1,0,0:0:0:0:
220,144,39259,1,0,0:0:0:0:
220,144,39501,1,8,0:0:0:0:
220,144,39743,1,4,0:0:0:0:
220,144,40227,1,8,0:0:0:0:
220,144,40468,1,0,0:0:0:0:
220,144,40710,1,8,0:0:0:0:
220,144,40952,1,0,0:0:0:0:
220,144,41194,1,8,0:0:0:0:
220,144,41436,1,0,0:0:0:0:
220,144,41678,1,0,0:0:0:0:
220,144,42162,1,0,0:0:0:0:
220,144,42646,1,0,0:0:0:0:
220,144,42888,1,8,0:0:0:0:
220,144,43130,1,8,0:0:0:0:
220,144,43372,1,0,0:0:0:0:
220,144,43614,1,8,0:0:0:0:
220,144,44097,1,0,0:0:0:0:
220,144,44339,1,8,0:0:0:0:
220,144,44581,1,0,0:0:0:0:
220,144,44823,1,0,0:0:0:0:
220,144,45065,1,8,0:0:0:0:
220,144,45186,1,8,0:0:0:0:
220,144,45307,1,8,0:0:0:0:
220,144,45791,1,0,0:0:0:0:
220,144,46033,1,0,0:0:0:0:
220,144,46275,1,12,0:0:0:0:
220,144,46759,1,12,0:0:0:0:
220,144,47001,1,0,0:0:0:0:
220,144,47122,1,0,0:0:0:0:
220,144,47243,1,0,0:0:0:0:
220,144,47485,1,12,0:0:0:0:
220,144,47847,1,0,0:0:0:0:
220,144,48210,1,8,0:0:0:0:
220,144,48452,1,0,0:0:0:0:
220,144,48815,1,8,0:0:0:0:
220,144,49178,1,8,0:0:0:0:
220,144,49420,1,12,0:0:0:0:
220,144,49783,1,0,0:0:0:0:
220,144,50146,1,0,0:0:0:0:
220,144,50388,1,8,0:0:0:0:
220,144,50872,1,0,0:0:0:0:
256,192,51114,12,0,52807,0:0:0:0:
220,144,53291,5,8,0:0:0:0:
220,144,54017,1,8,0:0:0:0:
220,144,54259,1,0,0:0:0:0:
220,144,54501,1,0,0:0:0:0:
220,144,54743,1,8,0:0:0:0:
220,144,55227,1,12,0:0:0:0:
220,144,55710,1,0,0:0:0:0:
220,144,55952,1,0,0:0:0:0:
220,144,56073,1,0,0:0:0:0:
220,144,56194,1,0,0:0:0:0:
220,144,56436,1,8,0:0:0:0:
208,72,56678,1,0,0:0:0:0:
208,72,56920,1,8,0:0:0:0:
208,72,57162,1,0,0:0:0:0:
208,72,57404,1,8,0:0:0:0:
208,72,57646,1,8,0:0:0:0:
208,72,58130,1,8,0:0:0:0:
208,72,58372,1,0,0:0:0:0:
208,72,58614,1,8,0:0:0:0:
208,72,58856,1,8,0:0:0:0:
208,72,59097,1,8,0:0:0:0:
208,72,59581,1,0,0:0:0:0:
208,72,59823,1,8,0:0:0:0:
208,72,59944,1,8,0:0:0:0:
208,72,60065,1,8,0:0:0:0:
208,72,60307,1,0,0:0:0:0:
100,104,60791,1,4,0:0:0:0:
196,160,61275,1,8,0:0:0:0:
252,160,61517,1,0,0:0:0:0:
304,136,61759,1,12,0:0:0:0:
220,60,62243,1,0,0:0:0:0:
272,40,62485,1,0,0:0:0:0:
332,52,62727,1,8,0:0:0:0:
332,52,62847,1,8,0:0:0:0:
332,52,62968,1,8,0:0:0:0:
224,84,63452,1,0,0:0:0:0:
180,120,63694,1,0,0:0:0:0:
200,156,63936,1,8,0:0:0:0:
268,192,64178,1,0,0:0:0:0:
268,192,64420,1,8,0:0:0:0:
356,124,64662,1,8,0:0:0:0:
252,88,65146,1,8,0:0:0:0:
300,88,65388,1,0,0:0:0:0:
352,44,65630,1,8,0:0:0:0:
240,60,65872,1,0,0:0:0:0:
244,32,66114,1,8,0:0:0:0:
244,32,66597,1,0,0:0:0:0:
152,92,66839,1,12,0:0:0:0:
168,204,67323,1,0,0:0:0:0:
216,176,67565,1,12,0:0:0:0:
120,120,68049,1,0,0:0:0:0:
232,100,68533,1,12,0:0:0:0:
320,172,69017,1,8,0:0:0:0:
292,220,69259,1,0,0:0:0:0:
292,220,69380,1,0,0:0:0:0:
208,224,69622,1,0,0:0:0:0:
208,224,69743,1,0,0:0:0:0:
168,152,69985,1,0,0:0:0:0:
288,144,70227,1,8,0:0:0:0:
244,112,70468,1,0,0:0:0:0:
280,68,70710,1,12,0:0:0:0:
288,144,71194,1,0,0:0:0:0:
236,160,71436,1,8,0:0:0:0:
208,168,71557,1,8,0:0:0:0:
208,168,71678,1,8,0:0:0:0:
156,144,71920,1,0,0:0:0:0:
280,88,72162,1,0,0:0:0:0:
212,48,72404,1,8,0:0:0:0:
256,100,72646,1,0,0:0:0:0:
300,116,72888,1,8,0:0:0:0:
336,72,73130,1,0,0:0:0:0:
244,80,73614,1,0,0:0:0:0:
288,32,73856,1,8,0:0:0:0:
344,28,74097,1,8,0:0:0:0:
288,32,74339,1,0,0:0:0:0:
344,28,74581,1,8,0:0:0:0:
236,60,75065,1,0,0:0:0:0:
240,116,75307,1,8,0:0:0:0:
240,116,75428,1,8,0:0:0:0:
240,116,75549,1,8,0:0:0:0:
140,164,76033,1,8,0:0:0:0:
184,200,76275,1,4,0:0:0:0:
244,172,76759,1,8,0:0:0:0:
240,116,77243,1,4,0:0:0:0:
352,108,77727,1,8,0:0:0:0:
328,56,77968,1,8,0:0:0:0:
272,44,78210,1,0,0:0:0:0:
216,48,78452,1,12,0:0:0:0:
272,144,78936,1,0,0:0:0:0:
328,136,79178,1,0,0:0:0:0:
360,88,79420,1,8,0:0:0:0:
272,44,79904,1,0,0:0:0:0:
220,60,80146,1,8,0:0:0:0:
188,104,80388,1,0,0:0:0:0:
324,192,80872,1,8,0:0:0:0:
368,160,81114,1,8,0:0:0:0:
312,156,81356,1,0,0:0:0:0:
224,244,81839,1,8,0:0:0:0:
168,240,82081,1,8,0:0:0:0:
188,128,82565,1,0,0:0:0:0:
260,100,82807,1,0,0:0:0:0:
168,148,83049,1,0,0:0:0:0:
148,116,83291,1,8,0:0:0:0:
208,172,83533,1,0,0:0:0:0:
232,188,83775,1,0,0:0:0:0:
288,184,84017,1,12,0:0:0:0:
372,112,84501,5,8,0:0:0:0:
352,132,84622,1,8,0:0:0:0:
352,132,84743,1,8,0:0:0:0:
244,96,85227,1,8,0:0:0:0:
352,68,85710,1,0,0:0:0:0:
352,68,85831,1,0,0:0:0:0:
352,68,85952,1,0,0:0:0:0:
256,192,86194,12,0,89097,0:0:0:0:
