osu file format v9

[General]
AudioFilename: Ray - Sign.mp3
AudioLeadIn: 2000
PreviewTime: 54501
Countdown: 0
SampleSet: Soft
StackLeniency: 0.4
Mode: 0
LetterboxInBreaks: 0

[Editor]
Bookmarks: 44219
DistanceSpacing: 1
BeatDivisor: 4
GridSize: 4

[Metadata]
Title:sign (TV Size)
Artist:Ray
Creator:phonic
Version:Insane
Source:Ano Natsu de Matteru
Tags:Opening KOTOKO Summer Natsumachi Sorda S_o_r_d_a KanaRin JoJo

[Difficulty]
HPDrainRate:7
CircleSize:4
OverallDifficulty:7
ApproachRate:8
SliderMultiplier:2
SliderTickRate:1

[Events]
//Background and Video events
Video,0,"Ray - Sign.avi"
0,0,"BG.jpg"
//Break Periods
//Storyboard Layer 0 (Background)
//Storyboard Layer 1 (Fail)
//Storyboard Layer 2 (Pass)
//Storyboard Layer 3 (Foreground)
//Storyboard Sound Samples
//Background Colour Transformations
3,100,255,255,255

[TimingPoints]
1034,483.870967741935,4,2,1,60,1,0
6840,-100,4,2,1,55,0,0
7324,-100,4,2,1,35,0,0
7808,-100,4,2,1,15,0,0
8292,-100,4,2,1,5,0,0
8775,-100,4,2,1,60,0,0
12646,-100,4,2,2,50,0,0
12888,-100,4,2,1,60,0,0
18453,-100,4,2,2,50,0,0
18816,-100,4,2,1,60,0,0
20267,-100,4,2,2,50,0,0
20388,-100,4,2,1,60,0,0
21356,-100,4,2,2,50,0,0
21840,-100,4,2,1,60,0,0
23292,-100,4,2,1,70,0,0
24259,-100,4,2,1,60,0,0
28130,-100,4,2,2,50,0,0
28372,-100,4,2,1,60,0,0
30066,-100,4,2,2,50,0,0
30308,-100,4,2,1,60,0,0
31759,-100,4,2,2,50,0,0
32001,-100,4,2,1,60,0,0
33937,-100,4,2,2,50,0,0
34058,-100,4,2,1,60,0,0
35872,-100,4,2,2,50,0,0
36356,-100,4,2,1,60,0,0
38533,-100,4,1,1,60,0,0
39743,-100,4,2,1,60,0,0
40227,-100,4,2,1,70,0,0
45308,-100,4,2,1,60,0,0
45550,-100,4,2,1,70,0,0
46275,-100,4,2,1,60,0,0
46396,-100,4,2,1,70,0,0
51114,-100,4,2,1,90,0,0
53292,-133.333333333333,4,2,1,70,0,0
53775,-100,4,2,1,5,0,0
54017,-100,4,2,1,90,0,0
54743,-100,4,2,1,70,0,0
55227,-100,4,2,1,90,0,1
60792,-100,4,2,1,70,0,1
61033,-100,4,2,1,90,0,1
61759,-100,4,2,1,70,0,1
62001,-100,4,2,1,90,0,1
67566,-100,4,2,1,70,0,1
67808,-100,4,2,1,90,0,1
68050,-100,4,2,1,70,0,1
68292,-100,4,2,1,90,0,1
68533,-100,4,2,1,70,0,1
68775,-100,4,2,1,90,0,1
70227,-100,4,1,1,70,0,0
70711,-100,4,2,1,90,0,1
76275,-100,4,2,1,70,0,1
76638,-100,4,2,1,90,0,1
77001,-100,4,2,1,70,0,1
77606,-100,4,2,1,90,0,1
80146,-100,4,2,1,70,0,1
80267,-100,4,2,1,90,0,1
82082,-100,4,2,1,70,0,1
82203,-100,4,2,1,90,0,1
83775,-100,4,2,1,70,0,1
84017,-100,4,2,1,90,0,1
85711,-100,4,1,1,70,0,1
86195,-100,4,2,1,90,0,0
86679,-100,4,2,1,65,0,0
87163,-100,4,2,1,50,0,0
87646,-100,4,2,1,35,0,0
88130,-100,4,2,1,20,0,0
88614,-100,4,2,1,10,0,0
89098,-100,4,2,1,5,0,0

[Colours]
Combo1 : 255,200,100
Combo2 : 255,100,100
Combo3 : 100,150,255
Combo4 : 255,150,100
Combo5 : 255,150,200
Combo6 : 100,255,150

[HitObjects]
256,64,66,1,2
256,88,187,1,0
256,112,308,1,0
256,136,429,1,0
256,160,550,2,0,B|301:176,2,50
256,160,1034,6,0,B|213:140|145:162|125:227|142:273,1,200,4|2
241,258,1759,1,0
328,304,2001,2,0,B|388:304|408:256,1,100
420,236,2364,1,0
432,212,2485,2,0,B|451:163|409:121,1,100,2|0
256,40,2969,5,4
196,120,3211,2,0,B|164:164|112:164,1,100,0|2
84,164,3574,1,0
60,164,3695,2,0,B|60:216|104:248,1,100,0|0
196,292,4179,1,0
220,292,4300,1,0
244,292,4421,2,0,B|348:292,1,100,2|0
448,372,4904,6,0,B|491:355|523:292|491:231|447:211,1,200,4|0
356,164,5630,1,0
332,164,5751,1,0
308,164,5872,2,0,B|208:164,1,100,2|0
156,76,6356,2,0,B|256:76,1,100,2|0
256,192,6719,12,0,8533
312,274,8775,5,4
312,274,8896,2,0,B|272:232|219:247,1,100,0|0
200,264,9258,2,0,B|146:271|109:235,1,100,2|0
88,216,9622,1,0
76,192,9743,1,0
120,96,9985,2,0,B|164:60|216:80,1,100,0|2
342,188,10469,5,0
428,116,10711,2,0,B|471:133|503:196|471:257|427:277,1,200,0|2
342,332,11437,1,0
256,260,11679,1,0
342,188,11921,5,0
360,172,12042,1,0
264,192,12283,1,0
246,208,12404,1,0
144,304,12646,5,2
48,248,12888,1,0
48,136,13130,1,2
144,80,13372,1,0
236,112,13614,2,0,B|279:129|311:192|279:253|235:273,1,200,0|2
152,193,14340,1,0
152,192,14461,1,0
152,193,14582,5,0
236,112,14824,2,0,B|288:128|332:104,1,100,0|2
356,92,15187,1,0
376,76,15308,2,0,B|376:176,1,100
376,276,15792,2,0,B|328:304|280:284,1,100,0|2
212,232,16275,1,0
76,296,16517,5,0
100,288,16638,1,0
192,248,16880,1,0
212,232,17001,2,0,B|253:192|238:139,1,100,2|0
224,120,17364,1,0
208,104,17485,1,0
84,72,17727,1,0
84,72,17848,2,0,B|84:124,1,50,0|2
88,244,18211,5,0
104,226,18332,1,0
120,206,18453,2,0,B|149:174|189:177|232:189|246:228,1,150,2|0
260,250,18937,1,2
168,294,19179,1,0
120,206,19421,1,0
212,156,19663,5,0
232,144,19783,1,0
302,224,20025,1,0
324,240,20146,1,0
414,268,20388,6,0,B|457:251|489:188|457:127|413:107,1,200,0|2
302,224,21114,1,0
282,84,21356,2,0,B|245:108|241:147|245:192|281:212,1,150,2|2
302,224,21840,2,0,B|146:224,1,150,2|0
126,224,22324,6,0,B|83:207|51:144|83:83|127:63,1,200,0|2
148,52,22929,1,0
172,44,23050,1,0
196,36,23171,1,0
220,28,23292,6,0,B|272:28|304:72,1,100,2|0
400,48,23775,2,0,B|400:100|356:132,1,100,2|0
256,192,24259,5,4
204,108,24501,1,0
188,88,24622,1,0
168,72,24743,2,0,B|76:72|48:148,1,150,2|0
44,168,25227,2,0,B|50:221|102:240,1,100,0|0
128,252,25590,1,0
152,256,25711,2,0,B|256:256,1,100,2|2
424,252,26195,5,0
424,228,26316,1,0
424,204,26437,1,0
424,180,26558,1,0
424,156,26679,2,0,B|388:100|308:100|308:100|272:156,1,200,2|0
216,240,27404,5,0
196,224,27525,1,0
152,132,27767,1,0
132,116,27888,1,0
60,48,28130,1,2
36,196,28372,5,0
36,196,28493,2,0,B|75:229,1,50,0|2
151,292,28856,1,0
224,360,29098,2,0,B|266:365|294:337|320:300|305:262,1,150
296,240,29582,2,0,B|396:240,1,100,2|0
496,236,30066,5,2
448,148,30308,1,0
431,128,30429,1,0
414,109,30550,2,0,B|375:83|305:93|273:154|282:202,1,200,2|0
308,296,31275,2,0,B|208:296,2,100,2|2|2
256,88,32001,5,0
240,108,32122,1,0
146,120,32364,1,0
130,140,32485,1,2
84,228,32727,5,0
88,60,32969,1,0
256,88,33211,1,0
256,88,33332,2,0,B|256:143,1,50,0|2
256,239,33695,1,0
380,272,33937,5,2
404,260,34058,1,0
428,248,34179,1,0
452,236,34300,1,0
476,224,34421,2,0,B|510:193|519:123|468:76|419:73,1,200,2|0
320,60,35146,5,0
292,72,35267,1,0
248,164,35509,1,0
220,176,35630,1,0
120,172,35872,6,0,B|74:169|18:213|21:282|53:319,1,200,2|2
68,340,36477,1,0
84,360,36598,2,0,B|140:360|172:312,1,100
428,360,37082,2,0,B|372:360|340:312,1,100,0|2
256,228,37566,1,0
256,228,37687,1,0
256,228,37808,6,0,B|256:180,2,50
256,88,38292,2,0,B|208:124|152:104,1,100,0|0
140,96,38654,2,0,B|96:124,3,50
80,140,39138,1,0
80,164,39259,1,0
80,188,39380,1,0
80,212,39501,1,0
80,236,39622,1,0
80,260,39743,6,0,B|112:332|200:332,1,150,4|0
200,332,40227,1,8
255,155,40469,1,0
312,331,40711,1,0
165,223,40953,1,0
345,223,41195,1,8
255,255,41437,1,0
255,255,41558,1,0
255,255,41679,6,0,B|255:155,1,100
344,36,42163,2,0,B|344:136,1,100,8|0
345,223,42646,1,0
412,300,42888,2,0,B|452:340,2,50,0|0|8
345,223,43372,1,0
160,192,43614,5,0
136,192,43735,1,0
112,192,43856,1,0
88,192,43977,1,0
64,192,44098,1,8
256,192,44340,6,0,B|256:248,2,50
256,92,44824,2,0,B|305:79|353:110,1,100,0|8
372,124,45187,1,0
388,144,45308,2,0,B|388:248,1,100,4|0
256,292,45792,5,0
256,192,46033,1,8
172,140,46275,1,4
148,140,46396,1,0
124,140,46517,2,0,B|68:140|40:192,1,100,0|2
12,284,47001,2,0,B|68:284|96:232,1,100,8|2
172,56,47485,6,0,B|328:56,1,150,4|8
348,56,47969,1,2
448,56,48211,1,0
396,144,48453,2,0,B|379:173|386:218|417:257|451:263,1,150,8|8
476,268,48937,2,0,B|444:320|392:320,1,100,2|8
256,320,49421,5,4
328,252,49663,2,0,B|296:208|244:208,1,100,0|8
152,252,50146,2,0,B|152:304|108:336,2,100,0|8|8
124,156,50872,5,8
388,156,51114,1,4
256,192,51235,12,8,52808
256,280,53050,5,8
320,224,53292,2,0,B|304:192|256:176|208:192|192:228,1,149.999995529652,2|0
140,336,54017,5,2
256,280,54259,1,2
372,336,54501,1,2
320,224,54743,5,0
192,224,54985,1,0
296,144,55227,6,0,B|296:99|247:46|179:55|145:90,1,200,4|8
69,156,55953,2,0,B|21:177|11:232,1,100
16,256,56316,1,0
24,280,56437,2,0,B|76:288|100:337,2,100,0|8|0
108,224,57163,6,0,B|216:188,1,100
236,96,57646,2,0,B|281:96|334:145|325:213|290:247,1,200,8|0
108,224,58372,1,0
236,96,58614,1,8
172,160,58856,1,0
296,28,59098,6,0,B|396:28,1,100,2|0
452,100,59582,2,0,B|352:100,1,100,8|0
328,100,59945,1,0
304,100,60066,2,0,B|256:121|246:176,1,100
308,328,60550,2,0,B|260:306|250:251,1,100,8|4
160,112,61033,6,0,B|108:96|64:120,1,100
40,132,61396,1,0
20,148,61517,2,0,B|20:48,2,100,8|4|0
20,248,62243,2,0,B|20:300,2,50,0|0|8
20,148,62727,1,0
172,92,62969,6,0,B|228:92|256:136,1,100,4|0
304,224,63453,1,8
384,100,63695,2,0,B|401:129|394:174|363:213|329:219,1,150
304,224,64179,2,0,B|336:276|388:276,1,100,0|8
408,280,64542,1,0
432,284,64663,2,0,B|404:338|352:343,1,100
256,356,65146,5,0
160,340,65388,1,8
107,251,65630,1,0
143,161,65872,2,0,B|171:126|243:117|289:168|293:216,1,200,0|8
196,240,66598,1,0
256,320,66840,6,0,B|348:320|348:320|400:296|412:232,1,200,4|8
428,140,67566,2,0,B|392:100|392:100|348:84,1,100,4|0
84,140,68050,2,0,B|120:100|120:100|164:84,1,100,4|0
256,32,68533,2,0,B|256:236,1,200,4|0
256,332,69259,5,2
169,245,69501,1,2
342,245,69743,1,2
256,159,69985,1,2
256,333,70227,2,0,B|256:284,3,50
256,256,70711,6,0,B|256:192|256:192|228:116|228:116|228:60,1,200,4|8
128,80,71437,2,0,B|72:80|44:128,1,100
36,152,71800,1,0
28,176,71921,2,0,B|76:204|76:260,1,100,0|8
48,356,72404,6,0,B|112:356|112:356|188:328|188:328|244:328,1,200
344,324,73130,2,0,B|387:313|426:251|399:188|357:164,1,200,8|0
256,100,73856,1,0
155,164,74098,1,8
256,232,74340,1,0
256,256,74461,1,0
256,280,74582,6,0,B|176:336|108:304,1,150,2|0
92,292,75066,2,0,B|148:276|160:224,2,100,8|0|0
156,140,75792,1,0
92,292,76033,1,8
256,280,76275,6,0,B|344:238|350:163,1,150,4|0
356,148,76759,2,0,B|332:97|276:92,1,100,0|8
172,72,77243,2,0,B|172:224,1,150,4|0
172,248,77727,1,0
340,248,77969,1,8
256,348,78211,1,0
256,148,78453,5,4
172,92,78695,1,0
156,192,78937,2,0,B|107:220|107:275,1,100,8|0
208,260,79421,2,0,B|308:260,1,100
424,260,79904,1,8
360,184,80146,5,4
344,164,80267,1,0
328,144,80388,1,0
312,124,80509,1,0
296,104,80630,1,0
232,28,80872,2,0,B|176:96|96:76,1,150,8|0
99,77,81356,2,0,B|115:163|48:212,1,150
51,210,81840,2,0,B|93:241|149:232,1,100,8|4
172,228,82203,1,0
196,220,82324,5,0
316,220,82566,1,0
136,300,82808,1,2
376,300,83050,1,0
256,304,83292,5,0
256,80,83533,1,0
256,192,83775,1,2
255,304,84017,6,0,B|343:262|349:187,1,150,8|0
348,164,84501,2,0,B|384:204|441:188,2,100,0|2|0
331,149,85106,1,0
315,129,85227,1,4
303,109,85348,1,0
299,85,85469,1,0
295,61,85590,1,0
295,37,85711,2,0,B|247:37,2,50
256,192,86195,12,0,89098
