osu file format v9

[General]
AudioFilename: Ray - Sign.mp3
AudioLeadIn: 2000
PreviewTime: 54501
Countdown: 0
SampleSet: Soft
StackLeniency: 0.4
Mode: 0
LetterboxInBreaks: 0

[Editor]
Bookmarks: 41800,74098
DistanceSpacing: 1
BeatDivisor: 4
GridSize: 4

[Metadata]
Title:sign (TV Size)
Artist:Ray
Creator:phonic
Version:Easy
Source:Ano Natsu de Matteru
Tags:Opening KOTOKO Summer Natsumachi Sorda S_o_r_d_a KanaRin JoJo

[Difficulty]
HPDrainRate:1
CircleSize:3
OverallDifficulty:2
ApproachRate:2
SliderMultiplier:1
SliderTickRate:1

[Events]
//Background and Video events
Video,0,"Ray - Sign.avi"
0,0,"BG.jpg"
//Break Periods
//Storyboard Layer 0 (Background)
//Storyboard Layer 1 (Fail)
//Storyboard Layer 2 (Pass)
//Storyboard Layer 3 (Foreground)
//Storyboard Sound Samples
//Background Colour Transformations
3,100,255,255,255

[TimingPoints]
1034,483.870967741935,4,2,1,60,1,0
6840,-100,4,2,1,55,0,0
7324,-100,4,2,1,45,0,0
7808,-100,4,2,1,35,0,0
8292,-100,4,2,1,25,0,0
8775,-100,4,2,1,35,0,0
9743,-100,4,2,1,50,0,0
18453,-100,4,2,2,50,0,0
18937,-100,4,2,1,50,0,0
23775,-100,4,2,1,55,0,0
24259,-100,4,2,1,60,0,0
28130,-100,4,2,2,60,0,0
28614,-100,4,2,1,60,0,0
32001,-100,4,2,2,60,0,0
32485,-100,4,2,1,60,0,0
35872,-100,4,2,2,60,0,0
36356,-100,4,2,1,60,0,0
39743,-100,4,2,1,70,0,0
55227,-100,4,2,1,80,0,1
67566,-100,4,2,1,60,0,1
68050,-100,4,2,1,80,0,1
68533,-100,4,2,1,60,0,1
69017,-100,4,2,1,80,0,1
70227,-100,4,2,1,60,0,0
70711,-100,4,2,1,80,0,1
76275,-100,4,2,1,70,0,1
76759,-100,4,2,1,80,0,1
77243,-100,4,2,1,70,0,1
77969,-100,4,2,1,80,0,1
83533,-100,4,2,2,60,0,1
86195,-100,4,2,1,20,0,0

[Colours]
Combo1 : 255,200,100
Combo2 : 255,100,100
Combo3 : 100,150,255
Combo4 : 255,150,100
Combo5 : 255,150,200
Combo6 : 100,255,150

[HitObjects]
112,316,1034,2,0,B|168:316|196:272,1,100,4|2
256,192,2001,2,0,B|312:192|340:236,1,100,2|2
424,292,2969,5,4
424,192,3453,2,0,B|424:92,2,100,2|0|2
324,192,4904,6,0,B|220:192,1,100,4|2
124,192,5872,1,0
24,192,6356,1,2
256,192,6840,12,4,8775
156,276,9743,6,0,B|207:291|248:251,1,100,0|2
328,192,10711,1,0
380,108,11195,2,0,B|484:108,2,100,2|0|2
280,108,12646,6,0,B|216:108|180:144,1,100,0|2
104,192,13614,2,0,B|104:296,2,100,0|2|0
104,92,15066,2,0,B|-4:92,2,100,2|0|2
204,92,16517,5,0
256,180,17001,1,2
308,92,17485,2,0,B|360:92|400:128,1,100,0|2
476,192,18453,1,4
388,236,18937,2,0,B|348:272|296:272,2,100,2|0|2
476,192,20388,5,0
412,112,20872,2,0,B|384:68|328:68,1,100,2|0
256,140,21840,1,2
184,68,22324,2,0,B|128:68|100:112,2,100,0|2|0
256,140,23775,1,2
256,240,24259,6,0,B|360:240,2,100,4|2|0
156,240,25711,1,2
156,140,26195,2,0,B|52:140,2,100,0|2|0
256,140,27646,1,2
256,240,28130,5,4
256,340,28614,2,0,B|316:340|336:288,1,100,2|0
364,192,29582,2,0,B|424:192|444:244,2,100,2|0|2
264,192,31033,2,0,B|156:192,1,100,0|2
64,192,32001,6,0,B|64:88,2,100,4|2|0
72,292,33453,2,0,B|108:328|108:328|156:340,1,100,2|0
256,352,34421,1,2
356,340,34904,2,0,B|404:328|404:328|440:292,1,100,0|2
488,204,35872,5,4
424,128,36356,1,2
364,208,36840,1,0
308,124,37324,2,0,B|256:124|224:168,1,100,2|0
156,244,38292,2,0,B|104:244|72:200,2,100,2|8|2
256,256,39743,5,4
256,156,40227,1,8
312,72,40711,2,0,B|372:80|392:128,2,100,0|8|0
256,156,42163,1,8
200,72,42646,2,0,B|140:80|120:128,1,100,0|8
92,220,43614,6,0,B|192:220,1,100,2|8
292,220,44582,2,0,B|376:220|420:148,1,150,0|4
460,60,45792,1,0
360,60,46275,2,0,B|208:60,1,150,4|8
108,60,47485,5,4
160,144,47969,1,8
108,232,48453,2,0,B|208:232,1,100,2|8
308,232,49421,6,0,B|318:293|275:328,2,100,4|8|0
256,148,50872,1,8
256,192,51114,12,4,53292
256,336,54259,6,0,B|256:232,1,100,2|2
256,136,55227,2,0,B|256:36,2,100,4|8|0
256,236,56679,1,8
256,336,57163,2,0,B|200:336|172:284,1,100,0|8
176,188,58130,2,0,B|176:132|124:104,1,100,0|8
40,56,59098,6,0,B|40:160,1,100,2|8
44,256,60066,2,0,B|108:308|184:292,1,150,0|4
256,220,61276,1,0
188,148,61759,2,0,B|36:148,1,150,4|8
36,56,62969,5,4
136,56,63453,1,8
236,56,63937,2,0,B|340:56,2,100,0|8|0
236,156,65388,2,0,B|236:260,2,100,8|0|8
172,76,66840,6,0,B|188:44|236:32|284:44|300:76,1,150,0|4
356,160,68050,2,0,B|356:260,1,100,0|4
264,300,69017,6,0,B|264:252,1,50,0|8
264,148,69743,2,0,B|156:148,1,100,0|8
64,152,70711,6,0,B|64:204|116:236,1,100,4|8
204,276,71679,2,0,B|204:376,2,100,0|8|0
204,176,73130,2,0,B|304:176,1,100,8|0
404,176,74098,1,8
432,272,74582,6,0,B|448:320|500:344,2,100,0|8|0
404,176,76033,2,0,B|348:176,1,50,8|4
252,176,76759,1,0
172,116,77243,2,0,B|140:132|128:180|140:228|172:244,1,150,4|8
252,304,78453,6,0,B|298:336|351:314,2,100,4|8|0
308,220,79904,2,0,B|261:187|208:209,2,100,8|0|8
392,276,81356,1,0
396,176,81840,5,8
364,136,82082,2,0,B|312:65|220:56|154:122|161:209,1,300,4|2
256,192,84017,12,0,86195
