osu file format v14

[General]
AudioFilename: sign.mp3
AudioLeadIn: 0
PreviewTime: 54742
Countdown: 0
SampleSet: Soft
StackLeniency: 0.7
Mode: 3
LetterboxInBreaks: 0
SpecialStyle: 0
WidescreenStoryboard: 0

[Editor]
DistanceSpacing: 0.8
BeatDivisor: 4
GridSize: 4
TimelineZoom: 1.2

[Metadata]
Title:sign
TitleUnicode:sign
Artist:Ray
ArtistUnicode:レイ
Creator:ShikiNoHollow
Version:NM
Source:あの夏で待ってる
Tags:anime Ano Natsu de Matteru opening waiting in the summer KOTOKO
BeatmapID:513343
BeatmapSetID:219104

[Difficulty]
HPDrainRate:8
CircleSize:4
OverallDifficulty:7.5
ApproachRate:5
SliderMultiplier:1.4
SliderTickRate:1

[Events]
//Background and Video events
0,0,"bg.png",0,0
//Break Periods
//Storyboard Layer 0 (Background)
//Storyboard Layer 1 (Fail)
//Storyboard Layer 2 (Pass)
//Storyboard Layer 3 (Foreground)
//Storyboard Sound Samples

[TimingPoints]
1033,483.870967741935,4,2,1,60,1,0
55226,-100,4,2,1,60,0,1
68532,-100,4,2,1,60,0,0
70710,-100,4,2,1,60,0,1
86194,-100,4,2,1,60,0,0

[HitObjects]
64,192,65,5,4,0:0:0:0:
448,192,65,128,4,1033:1:0:0:0:
192,192,549,1,8,1:0:0:0:
320,192,1033,1,4,0:0:0:0:
64,192,1033,1,2,0:0:0:0:
192,192,1395,1,2,0:0:0:0:
448,192,1758,1,2,0:0:0:0:
192,192,2000,1,0,0:0:0:0:
320,192,2363,1,2,0:0:0:0:
192,192,2726,1,2,0:0:0:0:
448,192,2968,1,4,0:0:0:0:
64,192,2968,1,2,0:0:0:0:
320,192,3331,1,2,0:0:0:0:
64,192,3694,1,2,0:0:0:0:
320,192,3936,1,0,0:0:0:0:
448,192,4299,1,2,0:0:0:0:
320,192,4662,1,2,0:0:0:0:
448,192,4903,1,4,0:0:0:0:
64,192,4903,128,0,5629:0:0:0:0:
192,192,5629,1,0,0:0:0:0:
448,192,5871,128,0,6597:0:0:0:0:
320,192,6597,1,0,0:0:0:0:
64,192,6839,128,0,8774:0:0:0:0:
448,192,8774,1,4,0:0:0:0:
320,192,8774,1,0,0:0:0:0:
192,192,9016,1,2,0:0:0:0:
320,192,9258,1,2,0:0:0:0:
64,192,9500,1,2,0:0:0:0:
448,192,9984,1,2,0:0:0:0:
320,192,10226,1,2,0:0:0:0:
192,192,10468,1,2,0:0:0:0:
64,192,10710,1,0,0:0:0:0:
192,192,10952,1,2,0:0:0:0:
448,192,11194,1,2,0:0:0:0:
192,192,11436,1,2,0:0:0:0:
320,192,11920,1,2,0:0:0:0:
448,192,12162,1,2,0:0:0:0:
64,192,12403,1,2,0:0:0:0:
192,192,12887,1,2,0:0:0:0:
448,192,13129,1,2,0:0:0:0:
320,192,13371,1,2,0:0:0:0:
448,192,13855,1,2,0:0:0:0:
320,192,14097,1,2,0:0:0:0:
192,192,14339,1,2,0:0:0:0:
448,192,14581,1,0,0:0:0:0:
64,192,14823,1,2,0:0:0:0:
192,192,15065,1,2,0:0:0:0:
320,192,15307,1,2,0:0:0:0:
448,192,15791,1,2,0:0:0:0:
64,192,16032,1,2,0:0:0:0:
320,192,16274,1,0,0:0:0:0:
320,192,16758,1,2,0:0:0:0:
192,192,17000,1,2,0:0:0:0:
448,192,17242,1,2,0:0:0:0:
64,192,17484,1,0,0:0:0:0:
320,192,17726,1,2,0:0:0:0:
448,192,17968,1,0,0:0:0:0:
64,192,18210,1,2,0:0:0:0:
320,192,18452,1,8,0:0:0:0:
192,192,18694,1,2,0:0:0:0:
448,192,18936,1,2,0:0:0:0:
320,192,19178,1,0,0:0:0:0:
448,192,19420,1,2,0:0:0:0:
192,192,19662,1,2,0:0:0:0:
320,192,19903,1,2,0:0:0:0:
64,192,20145,1,2,0:0:0:0:
448,192,20387,1,0,0:0:0:0:
64,192,20629,1,2,0:0:0:0:
192,192,20871,1,2,0:0:0:0:
320,192,21113,1,0,0:0:0:0:
448,192,21355,1,2,0:0:0:0:
192,192,21597,1,2,0:0:0:0:
320,192,21839,1,2,0:0:0:0:
64,192,22081,1,2,0:0:0:0:
320,192,22323,1,0,0:0:0:0:
192,192,22565,1,2,0:0:0:0:
448,192,22807,1,2,0:0:0:0:
64,192,23049,1,2,0:0:0:0:
320,192,23291,1,2,0:0:0:0:
64,192,23532,1,0,0:0:0:0:
448,192,23774,1,0,0:0:0:0:
192,192,24016,1,2,0:0:0:0:
320,192,24258,128,0,26194:0:0:0:0:
448,192,26194,128,0,28129:0:0:0:0:
64,192,27645,1,8,0:0:0:0:
64,192,28129,1,8,0:0:0:0:
192,192,28371,1,2,0:0:0:0:
320,192,28613,1,0,0:0:0:0:
192,192,28855,1,2,0:0:0:0:
448,192,29339,1,2,0:0:0:0:
192,192,29581,1,0,0:0:0:0:
320,192,29823,1,2,0:0:0:0:
64,192,30307,1,2,0:0:0:0:
192,192,30549,1,0,0:0:0:0:
448,192,30791,1,2,0:0:0:0:
192,192,31274,1,2,0:0:0:0:
320,192,31516,1,0,0:0:0:0:
64,192,31758,1,2,0:0:0:0:
192,192,32242,1,2,0:0:0:0:
64,192,32484,1,2,0:0:0:0:
320,192,32726,1,2,0:0:0:0:
448,192,32968,1,0,0:0:0:0:
192,192,33210,1,2,0:0:0:0:
320,192,33452,1,0,0:0:0:0:
448,192,33694,1,2,0:0:0:0:
64,192,33936,1,8,0:0:0:0:
192,192,34178,1,2,0:0:0:0:
320,192,34420,1,2,0:0:0:0:
192,192,34662,1,0,0:0:0:0:
448,192,34903,1,2,0:0:0:0:
320,192,35145,1,2,0:0:0:0:
192,192,35387,1,2,0:0:0:0:
64,192,35629,1,2,0:0:0:0:
320,192,35871,1,0,0:0:0:0:
192,192,36113,1,2,0:0:0:0:
448,192,36355,1,2,0:0:0:0:
64,192,36597,1,0,0:0:0:0:
320,192,36839,1,2,0:0:0:0:
192,192,37081,1,2,0:0:0:0:
448,192,37323,1,0,0:0:0:0:
320,192,37565,1,8,0:0:0:0:
320,192,37928,1,0,3:0:0:0:
64,192,38049,1,0,3:0:0:0:
320,192,38291,1,8,0:0:0:0:
448,192,38532,1,0,3:0:0:0:
320,192,38653,1,0,3:0:0:0:
192,192,38774,1,8,0:0:0:0:
64,192,39016,1,8,1:0:0:0:
448,192,39258,1,8,0:0:0:0:
192,192,39500,1,8,0:0:0:0:
64,192,39742,1,8,0:0:0:0:
448,192,39742,1,4,0:0:0:0:
320,192,39984,1,0,0:0:0:0:
448,192,40226,1,8,0:0:0:0:
64,192,40468,1,0,0:0:0:0:
320,192,40710,1,8,0:0:0:0:
192,192,40952,1,0,0:0:0:0:
64,192,41194,1,8,1:0:0:0:
448,192,41436,1,0,0:0:0:0:
192,192,41678,1,8,0:0:0:0:
448,192,41920,1,0,0:0:0:0:
320,192,42162,1,8,0:0:0:0:
192,192,42403,1,0,0:0:0:0:
64,192,42645,1,8,0:0:0:0:
320,192,42887,1,0,0:0:0:0:
448,192,43129,1,8,1:0:0:0:
192,192,43371,1,0,0:0:0:0:
320,192,43613,1,8,0:0:0:0:
64,192,43855,1,0,0:0:0:0:
448,192,44097,1,8,0:0:0:0:
192,192,44339,1,0,0:0:0:0:
320,192,44581,1,8,0:0:0:0:
448,192,44823,1,8,1:0:0:0:
64,192,44823,1,8,0:0:0:0:
192,192,45065,1,8,0:0:0:0:
64,192,45307,1,4,0:0:0:0:
320,192,45307,1,8,0:0:0:0:
320,192,45791,1,8,0:0:0:0:
192,192,46274,1,4,0:0:0:0:
448,192,46274,1,8,0:0:0:0:
192,192,46758,1,8,0:0:0:0:
64,192,47000,1,8,1:0:0:0:
320,192,47000,1,0,0:0:0:0:
448,192,47242,1,8,0:0:0:0:
320,192,47363,1,8,0:0:0:0:
192,192,47484,1,8,0:0:0:0:
64,192,47484,1,4,0:0:0:0:
64,192,47847,1,8,0:0:0:0:
320,192,47968,1,4,1:0:0:0:
64,192,48452,1,8,0:0:0:0:
192,192,48815,1,8,0:0:0:0:
448,192,48936,1,4,1:0:0:0:
64,192,49178,1,8,0:0:0:0:
64,192,49420,1,8,0:0:0:0:
448,192,49420,1,4,0:0:0:0:
448,192,49903,1,8,0:0:0:0:
192,192,49903,1,4,1:0:0:0:
192,192,50387,1,8,0:0:0:0:
320,192,50629,1,8,0:0:0:0:
448,192,50871,1,8,0:0:0:0:
448,192,51113,1,8,0:0:0:0:
64,192,51113,128,4,52323:0:0:0:0:
320,192,52565,1,0,0:0:0:0:
448,192,52807,1,8,0:0:0:0:
192,192,52807,1,0,0:0:0:0:
448,192,53049,1,8,0:0:0:0:
64,192,53049,1,0,0:0:0:0:
320,192,53291,128,4,53774:2:0:0:0:
192,192,54016,1,0,0:0:0:0:
64,192,54258,1,0,0:0:0:0:
192,192,54500,1,0,0:0:0:0:
320,192,54621,1,0,0:0:0:0:
64,192,54742,1,4,1:0:0:0:
64,192,55226,1,8,0:0:0:0:
448,192,55226,1,4,0:0:0:0:
64,192,55710,1,8,1:0:0:0:
320,192,55710,1,0,0:0:0:0:
448,192,55952,1,0,0:0:0:0:
192,192,56194,1,0,0:0:0:0:
64,192,56194,1,8,0:0:0:0:
448,192,56678,1,0,0:0:0:0:
64,192,56678,1,8,1:0:0:0:
320,192,56920,1,0,0:0:0:0:
192,192,57162,1,0,0:0:0:0:
448,192,57162,1,8,0:0:0:0:
448,192,57645,1,0,0:0:0:0:
64,192,57645,1,8,1:0:0:0:
320,192,57887,1,0,0:0:0:0:
448,192,58129,1,8,0:0:0:0:
192,192,58129,1,0,0:0:0:0:
320,192,58492,1,0,0:0:0:0:
448,192,58613,1,0,0:0:0:0:
64,192,58613,1,8,1:0:0:0:
320,192,58855,1,0,0:0:0:0:
192,192,59097,1,0,0:0:0:0:
64,192,59097,1,8,0:0:0:0:
64,192,59581,1,8,1:0:0:0:
320,192,59581,1,0,0:0:0:0:
448,192,59823,1,0,0:0:0:0:
192,192,60065,1,0,0:0:0:0:
64,192,60065,1,8,0:0:0:0:
320,192,60307,1,0,0:0:0:0:
448,192,60549,1,0,0:0:0:0:
64,192,60549,1,8,0:0:0:0:
320,192,60791,1,8,0:0:0:0:
192,192,60791,1,4,0:0:0:0:
64,192,61274,1,8,0:0:0:0:
448,192,61274,1,0,0:0:0:0:
320,192,61516,1,8,1:0:0:0:
192,192,61758,1,4,0:0:0:0:
448,192,61758,128,8,62484:0:0:0:0:
64,192,62242,1,8,0:0:0:0:
64,192,62484,1,8,0:0:0:0:
320,192,62726,1,8,0:0:0:0:
192,192,62968,1,8,0:0:0:0:
448,192,62968,1,4,0:0:0:0:
64,192,63452,1,0,0:0:0:0:
448,192,63452,1,8,1:0:0:0:
192,192,63694,1,0,0:0:0:0:
320,192,63936,1,0,0:0:0:0:
448,192,63936,1,8,0:0:0:0:
192,192,64299,1,0,0:0:0:0:
64,192,64420,1,0,0:0:0:0:
448,192,64420,1,8,1:0:0:0:
192,192,64662,1,0,0:0:0:0:
320,192,64903,1,0,0:0:0:0:
448,192,64903,1,8,0:0:0:0:
448,192,65387,1,8,1:0:0:0:
64,192,65387,1,0,0:0:0:0:
320,192,65629,1,0,0:0:0:0:
192,192,65871,1,0,0:0:0:0:
448,192,65871,1,8,0:0:0:0:
320,192,66234,1,0,0:0:0:0:
64,192,66355,1,0,0:0:0:0:
448,192,66355,1,8,1:0:0:0:
192,192,66597,1,8,0:0:0:0:
320,192,66839,1,8,0:0:0:0:
448,192,66839,1,4,0:0:0:0:
320,192,67323,1,4,1:0:0:0:
192,192,67323,1,0,0:0:0:0:
64,192,67565,1,4,0:0:0:0:
448,192,67565,1,8,0:0:0:0:
192,192,68049,1,8,0:0:0:0:
64,192,68049,1,0,0:0:0:0:
320,192,68532,1,8,0:0:0:0:
448,192,68532,128,4,69621:0:0:0:0:
192,192,69016,1,0,0:0:0:0:
192,192,69379,1,0,0:0:0:0:
64,192,69621,1,8,0:0:0:0:
320,192,69742,1,8,0:0:0:0:
64,192,69984,1,0,0:0:0:0:
192,192,70226,1,8,1:0:0:0:
320,192,70347,1,8,1:0:0:0:
192,192,70468,1,0,3:0:0:0:
64,192,70710,1,4,0:0:0:0:
448,192,70710,1,8,0:0:0:0:
192,192,71194,1,8,1:0:0:0:
448,192,71194,1,0,0:0:0:0:
320,192,71436,1,0,0:0:0:0:
64,192,71678,1,0,0:0:0:0:
448,192,71678,1,8,0:0:0:0:
192,192,71799,1,0,0:0:0:0:
320,192,72041,1,0,0:0:0:0:
448,192,72162,1,0,0:0:0:0:
64,192,72162,1,8,1:0:0:0:
192,192,72403,1,0,0:0:0:0:
320,192,72645,1,0,0:0:0:0:
64,192,72645,1,8,0:0:0:0:
64,192,73129,1,0,0:0:0:0:
448,192,73129,1,8,1:0:0:0:
192,192,73371,1,0,0:0:0:0:
320,192,73613,1,0,0:0:0:0:
64,192,73613,1,8,0:0:0:0:
192,192,73976,1,0,0:0:0:0:
448,192,74097,1,0,0:0:0:0:
64,192,74097,1,8,1:0:0:0:
192,192,74339,1,0,0:0:0:0:
320,192,74581,1,0,0:0:0:0:
448,192,74581,1,8,0:0:0:0:
64,192,75065,1,8,1:0:0:0:
448,192,75065,1,0,0:0:0:0:
192,192,75307,1,0,0:0:0:0:
320,192,75549,1,0,0:0:0:0:
448,192,75549,1,8,0:0:0:0:
192,192,75791,1,0,0:0:0:0:
448,192,76032,1,0,0:0:0:0:
64,192,76032,1,8,0:0:0:0:
448,192,76274,1,4,0:0:0:0:
192,192,76274,1,8,0:0:0:0:
320,192,76758,1,8,0:0:0:0:
64,192,76758,1,0,0:0:0:0:
192,192,77242,1,4,0:0:0:0:
448,192,77242,128,8,77968:0:0:0:0:
320,192,77726,1,8,0:0:0:0:
192,192,77968,1,8,0:0:0:0:
320,192,78210,1,8,0:0:0:0:
192,192,78452,1,8,0:0:0:0:
64,192,78452,1,4,0:0:0:0:
320,192,78694,1,0,0:0:0:0:
64,192,78936,1,0,0:0:0:0:
448,192,78936,1,8,1:0:0:0:
320,192,79178,1,0,0:0:0:0:
192,192,79420,1,0,0:0:0:0:
64,192,79420,1,8,0:0:0:0:
320,192,79782,1,0,0:0:0:0:
64,192,79903,1,0,0:0:0:0:
448,192,79903,1,8,1:0:0:0:
192,192,80145,1,4,0:0:0:0:
320,192,80387,1,0,0:0:0:0:
64,192,80387,1,8,0:0:0:0:
192,192,80629,1,0,0:0:0:0:
448,192,80871,1,8,1:0:0:0:
64,192,80871,1,0,0:0:0:0:
320,192,81113,1,0,0:0:0:0:
64,192,81355,1,0,0:0:0:0:
448,192,81355,1,8,0:0:0:0:
192,192,81476,1,0,0:0:0:0:
320,192,81718,1,0,0:0:0:0:
64,192,81839,1,0,0:0:0:0:
448,192,81839,1,8,1:0:0:0:
320,192,82081,1,8,0:0:0:0:
192,192,82081,1,4,0:0:0:0:
448,192,82081,128,0,84016:0:0:0:0:
64,192,82807,1,8,0:0:0:0:
320,192,83532,1,8,0:0:0:0:
64,192,84016,1,8,0:0:0:0:
192,192,84016,128,0,89460:0:0:0:0:
320,192,86194,128,0,89460:0:0:0:0:
