osu file format v14

[General]
AudioFilename: Ray - secret arms.mp3
AudioLeadIn: 0
PreviewTime: 50251
Countdown: 0
SampleSet: Soft
StackLeniency: 0.7
Mode: 3
LetterboxInBreaks: 0
SpecialStyle: 0
WidescreenStoryboard: 0

[Editor]
DistanceSpacing: 1.2
BeatDivisor: 4
GridSize: 4
TimelineZoom: 1

[Metadata]
Title:secret arms
TitleUnicode:secret arms
Artist:Ray
ArtistUnicode:Ray
Creator:-[ AmiShici ]-
Version:Normal
Source:To LOVEる-とらぶる-ダークネス 2nd
Tags:Opening OP trouble ru darkness TV Size summer season s2 Konjiki no Yami Momo Belia
BeatmapID:778876
BeatmapSetID:353526

[Difficulty]
HPDrainRate:7
CircleSize:4
OverallDifficulty:7
ApproachRate:8
SliderMultiplier:1.8
SliderTickRate:1

[Events]
//Background and Video events
0,0,"BG.jpg",0,0
Video,0,"To love-ru -trouble- Darkness 2nd OP.avi"
//Break Periods
//Storyboard Layer 0 (Background)
//Storyboard Layer 1 (Fail)
//Storyboard Layer 2 (Pass)
//Storyboard Layer 3 (Foreground)
//Storyboard Sound Samples
Sample,19595,0,"BassS.wav",30
Sample,20471,0,"BassS.wav",30
Sample,22113,0,"BassS.wav",30
Sample,23208,0,"BassS.wav",30
Sample,25069,0,"BassS.wav",30
Sample,25617,0,"BassS.wav",30
Sample,26492,0,"BassS.wav",30
Sample,26711,0,"BassS.wav",30
Sample,28463,0,"BassS.wav",30
Sample,28573,0,"BassS.wav",30
Sample,28682,0,"BassS.wav",30
Sample,34868,0,"BassS.wav",30
Sample,36894,0,"BassS.wav",30
Sample,40398,0,"BassS.wav",30
Sample,47843,0,"BassS.wav",30
Sample,47898,0,"BassS.wav",30
Sample,47952,0,"BassS.wav",30
Sample,48007,0,"BassS.wav",30
Sample,49047,0,"BassS.wav",30
Sample,49266,0,"BassS.wav",30
Sample,49485,0,"BassS.wav",30
Sample,49704,0,"BassS.wav",30
Sample,62295,0,"BassS.wav",30
Sample,62952,0,"BassS.wav",30
Sample,63500,0,"BassS.wav",30
Sample,63609,0,"BassS.wav",30
Sample,63719,0,"BassS.wav",30
Sample,64047,0,"BassS.wav",30
Sample,64704,0,"BassS.wav",30
Sample,65252,0,"BassS.wav",30
Sample,65361,0,"BassS.wav",30
Sample,65471,0,"BassS.wav",30
Sample,72259,0,"BassS.wav",30
Sample,72478,0,"BassS.wav",30
Sample,78390,0,"BassS.wav",30
Sample,78992,0,"BassS.wav",30
Sample,79047,0,"BassS.wav",30
Sample,79102,0,"BassS.wav",30

[TimingPoints]
763,437.956204379562,4,2,2,30,1,0
51565,-100,4,2,2,30,0,1
58573,-100,4,2,2,30,0,0
65580,-100,4,2,2,30,0,1
72587,-100,4,2,2,30,0,0

[HitObjects]
64,192,763,5,0,0:0:0:0:
448,192,763,1,0,0:0:0:0:
192,192,981,1,0,0:0:0:0:
320,192,1200,1,0,0:0:0:0:
64,192,1638,1,0,0:0:0:0:
448,192,1857,1,0,0:0:0:0:
192,192,2295,1,0,0:0:0:0:
64,192,2514,1,0,0:0:0:0:
448,192,2514,1,0,0:0:0:0:
192,192,2952,1,0,0:0:0:0:
448,192,3171,1,0,0:0:0:0:
64,192,3609,1,0,0:0:0:0:
320,192,3828,1,0,0:0:0:0:
64,192,4266,1,0,0:0:0:0:
448,192,4266,1,0,0:0:0:0:
192,192,4485,1,0,0:0:0:0:
320,192,4704,1,0,0:0:0:0:
64,192,5142,1,0,0:0:0:0:
320,192,5361,1,0,0:0:0:0:
448,192,5799,128,0,6894:0:0:0:0:
64,192,5799,1,0,0:0:0:0:
192,192,6894,1,0,0:0:0:30:BassS.wav
320,192,6894,1,0,0:0:0:0:
64,192,7332,1,0,0:0:0:30:soft-hitclap1.wav
448,192,7332,1,0,0:0:0:0:
192,192,7770,1,4,0:0:0:0:
448,192,7770,1,0,0:0:0:0:
192,192,8208,1,0,0:0:0:30:BassS.wav
64,192,8208,1,0,0:0:0:0:
320,192,8646,1,0,0:0:0:0:
192,192,8865,1,0,0:0:0:0:
64,192,9084,1,0,0:0:0:30:BassS.wav
448,192,9084,1,0,0:0:0:0:
192,192,9522,1,0,0:0:0:0:
320,192,9522,1,0,0:0:0:0:
64,192,9960,1,0,0:0:0:30:BassS.wav
448,192,9960,1,0,0:0:0:0:
192,192,10398,1,0,0:0:0:0:
320,192,10617,1,0,0:0:0:0:
64,192,10835,1,0,0:0:0:30:BassS.wav
448,192,10835,1,0,0:0:0:0:
192,192,11273,1,0,0:0:0:0:
448,192,11273,1,0,0:0:0:0:
320,192,11711,1,0,0:0:0:30:BassS.wav
64,192,11711,1,0,0:0:0:0:
448,192,12149,1,0,0:0:0:0:
192,192,12368,1,0,0:0:0:0:
64,192,12587,1,0,0:0:0:30:BassS.wav
320,192,12587,1,0,0:0:0:0:
320,192,13025,1,0,0:0:0:0:
448,192,13025,1,0,0:0:0:0:
192,192,13463,1,0,0:0:0:30:BassS.wav
64,192,13463,1,0,0:0:0:0:
320,192,13901,1,0,0:0:0:0:
192,192,14120,1,0,0:0:0:0:
64,192,14339,1,0,0:0:0:0:
320,192,14339,1,0,0:0:0:30:BassS.wav
448,192,14777,1,4,0:0:0:0:
192,192,14777,1,0,0:0:0:0:
320,192,15215,1,0,0:0:0:30:BassS.wav
64,192,15434,1,4,0:0:0:0:
448,192,15434,1,0,0:0:0:0:
192,192,15872,1,0,0:0:0:30:BassS.wav
320,192,16091,1,0,0:0:0:30:BassS.wav
64,192,16310,1,4,0:0:0:0:
448,192,16310,1,0,0:0:0:0:
320,192,16748,1,0,0:0:0:30:BassS.wav
192,192,16857,1,0,0:0:0:30:BassS.wav
320,192,16967,1,0,0:0:0:30:LR_Clap Reverb.wav
64,192,17186,1,4,0:0:0:0:
448,192,17186,1,0,0:0:0:0:
192,192,17624,1,0,0:0:0:0:
320,192,17843,1,0,0:0:0:30:BassS.wav
448,192,17843,1,0,0:0:0:0:
64,192,18062,1,0,0:0:0:0:
192,192,18281,1,4,0:0:0:0:
448,192,18281,1,0,0:0:0:0:
64,192,18719,1,0,0:0:0:0:
320,192,18719,1,0,0:0:0:30:BassS.wav
192,192,19157,128,0,19485:0:0:0:0:
448,192,19485,128,0,19814:0:0:0:0:
320,192,19814,128,0,20033:0:0:0:0:
192,192,20033,128,4,20908:0:0:0:0:
64,192,20033,1,0,0:0:0:0:
320,192,20908,1,0,0:0:0:0:
448,192,20908,1,0,0:0:0:0:
64,192,21127,1,0,0:0:0:0:
192,192,21346,1,0,0:0:0:0:
448,192,21346,1,0,0:0:0:0:
320,192,21565,1,0,0:0:0:0:
64,192,21784,1,4,0:0:0:0:
448,192,21784,1,0,0:0:0:0:
192,192,22222,1,0,0:0:0:30:BassS.wav
448,192,22222,1,0,0:0:0:0:
64,192,22441,1,0,0:0:0:30:BassS.wav
64,192,22879,1,0,0:0:0:30:BassS.wav
192,192,23098,1,0,0:0:0:30:BassS.wav
320,192,23098,1,0,0:0:0:0:
448,192,23317,1,0,0:0:0:30:BassS.wav
448,192,23755,1,0,0:0:0:30:BassS.wav
320,192,23974,1,0,0:0:0:30:BassS.wav
192,192,23974,1,0,0:0:0:0:
64,192,24193,1,0,0:0:0:30:BassS.wav
64,192,24631,1,0,0:0:0:30:BassS.wav
192,192,24850,1,0,0:0:0:30:BassS.wav
448,192,24850,1,0,0:0:0:0:
448,192,25288,1,0,0:0:0:0:
320,192,25288,1,0,0:0:0:0:
64,192,25726,1,0,0:0:0:30:BassS.wav
320,192,25726,1,0,0:0:0:0:
192,192,25945,1,0,0:0:0:30:BassS.wav
320,192,26383,1,0,0:0:0:30:BassS.wav
192,192,26602,1,0,0:0:0:30:BassS.wav
448,192,26602,1,0,0:0:0:0:
64,192,26821,1,0,0:0:0:30:BassS.wav
64,192,27259,1,0,0:0:0:30:BassS.wav
192,192,27478,1,0,0:0:0:30:BassS.wav
320,192,27478,1,0,0:0:0:0:
448,192,27697,1,0,0:0:0:30:BassS.wav
64,192,28135,1,0,0:0:0:30:BassS.wav
192,192,28354,1,0,0:0:0:30:BassS.wav
448,192,28354,128,0,28792:0:0:0:0:
64,192,28792,1,0,0:0:0:30:BassS.wav
320,192,28792,1,4,0:0:0:0:
192,192,29011,1,0,0:0:0:0:
64,192,29230,1,0,0:0:0:0:
448,192,29230,1,0,0:0:0:0:
320,192,29449,1,0,0:0:0:0:
64,192,29668,1,0,0:0:0:0:
192,192,29668,1,0,0:0:0:30:BassS.wav
320,192,30106,1,0,0:0:0:0:
448,192,30106,1,0,0:0:0:0:
192,192,30325,1,0,0:0:0:0:
64,192,30544,1,0,0:0:0:0:
448,192,30544,1,0,0:0:0:30:BassS.wav
192,192,30762,1,0,0:0:0:0:
320,192,30981,1,0,0:0:0:0:
64,192,30981,1,0,0:0:0:0:
448,192,31419,1,0,0:0:0:0:
192,192,31419,1,0,0:0:0:30:BassS.wav
320,192,31638,1,0,0:0:0:0:
448,192,31857,1,0,0:0:0:0:
64,192,31857,1,0,0:0:0:0:
192,192,32076,1,0,0:0:0:0:
448,192,32295,1,4,0:0:0:0:
320,192,32295,1,0,0:0:0:0:
64,192,32514,128,0,32733:0:0:0:0:
320,192,32733,128,0,32952:0:0:0:0:
192,192,32952,128,0,33171:0:0:0:0:
448,192,33171,128,0,33390:0:0:0:0:
64,192,33390,1,0,0:0:0:30:BassS.wav
192,192,33609,1,0,0:0:0:30:BassS.wav
320,192,33609,1,0,0:0:0:0:
64,192,33828,1,4,0:0:0:0:
448,192,33828,1,0,0:0:0:30:BassS.wav
192,192,34266,1,4,0:0:0:0:
320,192,34266,1,0,0:0:0:0:
64,192,34485,1,4,0:0:0:0:
448,192,34485,1,0,0:0:0:30:BassS.wav
192,192,34704,1,0,0:0:0:0:
320,192,34814,1,0,0:0:0:30:BassS.wav
448,192,34923,1,0,0:0:0:30:BassS.wav
320,192,35142,1,0,0:0:0:0:
192,192,35361,1,0,0:0:0:0:
448,192,35361,1,0,0:0:0:0:
64,192,35580,1,0,0:0:0:30:BassS.wav
192,192,35799,1,4,0:0:0:0:
448,192,35799,128,0,36237:0:0:0:0:
320,192,35799,1,0,0:0:0:0:
320,192,36237,128,0,36675:0:0:0:0:
64,192,36237,1,0,0:0:0:0:
192,192,36675,128,0,37113:0:0:0:0:
448,192,36675,1,0,0:0:0:0:
64,192,37113,128,0,37551:0:0:0:0:
320,192,37113,1,0,0:0:0:0:
448,192,37551,1,0,0:0:0:30:BassS.wav
192,192,37551,1,0,0:0:0:0:
320,192,37879,1,0,0:0:0:30:BassS.wav
64,192,37879,1,0,0:0:0:0:
192,192,38208,1,0,0:0:0:0:
448,192,38208,1,0,0:0:0:30:BassS.wav
320,192,38646,1,0,0:0:0:30:BassS.wav
192,192,38646,1,0,0:0:0:0:
64,192,38865,1,0,0:0:0:0:
64,192,39303,128,0,39741:0:0:0:0:
448,192,39303,1,4,0:0:0:0:
320,192,39303,1,0,0:0:0:0:
320,192,39741,128,0,40179:0:0:0:0:
192,192,39741,1,0,0:0:0:0:
192,192,40179,128,0,40617:0:0:0:0:
448,192,40179,1,0,0:0:0:0:
448,192,40617,128,0,41054:0:0:0:0:
64,192,40617,1,0,0:0:0:0:
320,192,41054,1,0,0:0:0:30:BassS.wav
192,192,41054,1,0,0:0:0:0:
64,192,41273,1,2,0:0:0:0:
192,192,41492,1,2,0:0:0:0:
320,192,41711,1,2,0:0:0:0:
448,192,41930,1,2,0:0:0:0:
320,192,42149,1,2,0:0:0:0:
192,192,42368,1,2,0:0:0:0:
64,192,42587,1,2,0:0:0:0:
448,192,42806,128,0,43244:0:0:0:0:
192,192,42806,1,4,0:0:0:0:
320,192,42806,1,0,0:0:0:0:
192,192,43244,128,0,43682:0:0:0:0:
320,192,43244,1,0,0:0:0:0:
320,192,43682,128,0,44120:0:0:0:0:
64,192,43682,1,0,0:0:0:0:
64,192,44120,128,0,44558:0:0:0:0:
448,192,44120,1,0,0:0:0:0:
320,192,44558,1,0,0:0:0:30:BassS.wav
192,192,44558,1,0,0:0:0:0:
192,192,44887,1,0,0:0:0:0:
448,192,44887,1,0,0:0:0:30:BassS.wav
320,192,45215,1,0,0:0:0:30:BassS.wav
64,192,45215,1,0,0:0:0:0:
192,192,45653,1,0,0:0:0:0:
448,192,45653,1,0,0:0:0:30:BassS.wav
320,192,45872,1,0,0:0:0:0:
64,192,46310,1,4,0:0:0:0:
448,192,46310,1,0,0:0:0:0:
64,192,46638,1,4,0:0:0:0:
448,192,46638,1,0,0:0:0:0:
320,192,47186,1,4,0:0:0:0:
192,192,47186,1,0,0:0:0:0:
192,192,47514,1,4,0:0:0:0:
320,192,47514,1,0,0:0:0:0:
64,192,48062,1,4,0:0:0:0:
448,192,48062,1,0,0:0:0:30:BassS.wav
320,192,48281,1,0,0:0:0:30:BassS.wav
64,192,48500,1,4,0:0:0:0:
448,192,48500,1,0,0:0:0:30:BassS.wav
192,192,48719,1,0,0:0:0:30:BassS.wav
64,192,48938,1,4,0:0:0:0:
448,192,48938,1,0,0:0:0:30:BassS.wav
320,192,49157,1,0,0:0:0:30:BassS.wav
448,192,49376,1,0,0:0:0:30:BassS.wav
64,192,49376,1,4,0:0:0:0:
192,192,49595,1,0,0:0:0:30:BassS.wav
64,192,49814,1,0,0:0:0:30:BassS.wav
448,192,49814,1,4,0:0:0:0:
320,192,50252,1,0,0:0:0:0:
192,192,50690,1,0,0:0:0:30:BassS.wav
448,192,50690,1,0,0:0:0:0:
320,192,50908,1,0,0:0:0:30:BassS.wav
64,192,51127,1,0,0:0:0:30:soft-hitclap1.wav
448,192,51127,1,0,0:0:0:0:
192,192,51565,1,4,0:0:0:0:
320,192,51565,1,0,0:0:0:0:
448,192,51565,128,0,53317:0:0:0:0:
64,192,52003,1,0,0:0:0:30:BassS.wav
192,192,52441,1,0,0:0:0:0:
320,192,52441,1,0,0:0:0:0:
64,192,52879,1,0,0:0:0:30:BassS.wav
320,192,53317,1,0,0:0:0:30:BassS.wav
192,192,53317,128,0,55069:0:0:0:0:
64,192,53755,1,0,0:0:0:30:BassS.wav
448,192,53755,1,0,0:0:0:0:
320,192,54193,1,0,0:0:0:0:
64,192,54631,1,0,0:0:0:30:BassS.wav
448,192,54631,1,0,0:0:0:0:
320,192,54850,1,0,0:0:0:30:BassS.wav
64,192,55069,1,0,0:0:0:30:BassS.wav
448,192,55069,128,0,56821:0:0:0:0:
64,192,55507,1,0,0:0:0:30:BassS.wav
192,192,55507,1,0,0:0:0:0:
320,192,55945,1,0,0:0:0:0:
64,192,56383,1,0,0:0:0:30:BassS.wav
192,192,56383,1,0,0:0:0:0:
320,192,56821,1,0,0:0:0:30:BassS.wav
64,192,56821,128,0,57259:0:0:0:0:
192,192,57259,1,0,0:0:0:30:BassS.wav
320,192,57259,128,0,57697:0:0:0:0:
64,192,57697,1,0,0:0:0:30:BassS.wav
448,192,57697,128,0,58135:0:0:0:0:
64,192,58135,1,0,0:0:0:30:BassS.wav
192,192,58135,128,0,58573:0:0:0:0:
448,192,58354,1,0,0:0:0:30:BassS.wav
320,192,58573,1,0,0:0:0:30:BassS.wav
64,192,58573,128,4,60325:0:0:0:0:
448,192,59011,1,0,0:0:0:30:BassS.wav
192,192,59011,1,0,0:0:0:0:
320,192,59449,1,0,0:0:0:0:
192,192,59887,1,0,0:0:0:30:BassS.wav
448,192,59887,1,0,0:0:0:0:
320,192,60325,1,0,0:0:0:30:BassS.wav
448,192,60325,128,0,61200:0:0:0:0:
192,192,60762,1,0,0:0:0:30:BassS.wav
64,192,60762,1,0,0:0:0:0:
64,192,61200,128,0,61419:0:0:0:0:
320,192,61419,128,0,61638:0:0:0:0:
192,192,61638,128,0,61857:0:0:0:30:BassS.wav
448,192,61857,128,0,62076:0:0:0:0:
320,192,62076,1,0,0:0:0:30:BassS.wav
64,192,62076,1,4,0:0:0:0:
192,192,62405,1,4,0:0:0:0:
448,192,62405,1,0,0:0:0:0:
64,192,62733,1,4,0:0:0:0:
320,192,62733,1,0,0:0:0:0:
192,192,63062,1,4,0:0:0:0:
448,192,63062,1,0,0:0:0:0:
192,192,63390,1,0,0:0:0:30:BassS.wav
320,192,63390,128,0,63828:0:0:0:0:
64,192,63828,1,4,0:0:0:0:
448,192,63828,1,0,0:0:0:30:BassS.wav
192,192,64157,1,4,0:0:0:0:
448,192,64157,1,0,0:0:0:0:
64,192,64485,1,4,0:0:0:0:
320,192,64485,1,0,0:0:0:0:
192,192,64814,1,4,0:0:0:0:
448,192,64814,1,0,0:0:0:0:
320,192,65142,1,0,0:0:0:30:soft-hitclap1.wav
448,192,65142,1,0,0:0:0:30:BassS.wav
64,192,65142,128,0,65580:0:0:0:0:
192,192,65580,1,0,0:0:0:30:BassS.wav
448,192,65580,128,0,67332:0:0:0:0:
64,192,66018,1,0,0:0:0:30:BassS.wav
320,192,66018,1,0,0:0:0:0:
192,192,66456,1,0,0:0:0:0:
320,192,66894,1,0,0:0:0:30:BassS.wav
64,192,66894,1,0,0:0:0:0:
64,192,67332,128,0,69084:0:0:0:0:
192,192,67332,1,0,0:0:0:30:BassS.wav
320,192,67770,1,0,0:0:0:30:BassS.wav
448,192,67770,1,0,0:0:0:0:
320,192,68208,1,0,0:0:0:0:
192,192,68646,1,0,0:0:0:30:BassS.wav
448,192,68646,1,0,0:0:0:0:
320,192,68865,1,0,0:0:0:30:BassS.wav
448,192,69084,1,0,0:0:0:30:BassS.wav
192,192,69084,128,0,70835:0:0:0:0:
448,192,69522,1,0,0:0:0:30:BassS.wav
64,192,69522,1,0,0:0:0:0:
320,192,69960,1,0,0:0:0:0:
448,192,70398,1,0,0:0:0:30:BassS.wav
64,192,70398,1,0,0:0:0:0:
320,192,70835,1,0,0:0:0:30:BassS.wav
64,192,70835,128,0,71273:0:0:0:0:
448,192,71273,1,0,0:0:0:30:BassS.wav
192,192,71273,128,0,71711:0:0:0:0:
64,192,71711,1,0,0:0:0:30:BassS.wav
448,192,71711,128,0,72149:0:0:0:0:
320,192,72149,1,0,0:0:0:30:BassS.wav
192,192,72149,128,0,72587:0:0:0:0:
64,192,72368,1,0,0:0:0:30:BassS.wav
448,192,72587,128,0,74339:0:0:0:30:BassS.wav
320,192,72587,1,4,0:0:0:0:
320,192,73025,1,0,0:0:0:30:BassS.wav
64,192,73025,1,0,0:0:0:0:
192,192,73463,1,0,0:0:0:0:
320,192,73901,1,0,0:0:0:30:BassS.wav
64,192,73901,1,0,0:0:0:0:
192,192,74339,1,0,0:0:0:30:BassS.wav
64,192,74339,128,0,76091:0:0:0:0:
448,192,74777,1,0,0:0:0:30:BassS.wav
192,192,74777,1,0,0:0:0:0:
320,192,75215,1,0,0:0:0:0:
192,192,75653,1,0,0:0:0:30:BassS.wav
448,192,75653,1,0,0:0:0:0:
320,192,75872,1,0,0:0:0:0:
448,192,76091,1,0,0:0:0:30:BassS.wav
192,192,76091,128,0,77843:0:0:0:0:
64,192,76529,1,0,0:0:0:30:BassS.wav
448,192,76529,1,0,0:0:0:0:
320,192,76967,1,0,0:0:0:0:
64,192,77405,1,0,0:0:0:30:BassS.wav
320,192,77405,1,0,0:0:0:0:
448,192,77843,1,4,0:0:0:0:
64,192,77843,1,0,0:0:0:30:BassS.wav
320,192,78281,1,0,0:0:0:30:BassS.wav
192,192,78281,1,0,0:0:0:0:
64,192,78500,1,0,0:0:0:30:BassS.wav
448,192,78500,1,4,0:0:0:0:
320,192,78938,1,0,0:0:0:30:BassS.wav
192,192,78938,128,0,79595:0:0:0:0:
448,192,79157,1,0,0:0:0:30:BassS.wav
64,192,79157,1,0,0:0:0:0:
320,192,79376,1,0,0:0:0:30:BassS.wav
64,192,79595,1,4,0:0:0:0:
448,192,79595,128,0,80471:0:0:0:30:BassS.wav
320,192,79923,1,0,0:0:0:30:BassS.wav
64,192,80252,1,0,0:0:0:30:BassS.wav
192,192,80471,1,4,0:0:0:0:
320,192,80471,128,0,81127:0:0:0:0:
448,192,81127,1,4,0:0:0:0:
64,192,81127,128,0,81784:0:0:0:0:
320,192,81565,1,4,0:0:0:0:
448,192,81784,1,4,0:0:0:0:
192,192,81784,1,0,0:0:0:0:
64,192,82660,1,0,0:0:0:30:soft-hitclap1.wav
448,192,82660,1,0,0:0:0:0:
320,192,82879,1,0,0:0:0:0:
448,192,83098,1,4,0:0:0:0:
192,192,83098,128,0,83536:0:0:0:0:
64,192,83536,1,0,0:0:0:0:
320,192,83755,128,0,84193:0:0:0:0:
448,192,83755,1,0,0:0:0:0:
64,192,84193,1,0,0:0:0:0:
448,192,84412,128,0,86164:0:0:0:0:
192,192,84412,1,0,0:0:0:0:
320,192,84850,1,0,0:0:0:0:
64,192,85288,1,0,0:0:0:0:
320,192,85726,1,0,0:0:0:0:
64,192,86164,128,0,86383:0:0:0:0:
320,192,86383,128,0,86602:0:0:0:0:
