osu file format v14

[General]
AudioFilename: Ray - secret arms.mp3
AudioLeadIn: 0
PreviewTime: 50251
Countdown: 0
SampleSet: Soft
StackLeniency: 0.7
Mode: 3
LetterboxInBreaks: 0
SpecialStyle: 0
WidescreenStoryboard: 0

[Editor]
DistanceSpacing: 1.2
BeatDivisor: 4
GridSize: 4
TimelineZoom: 1

[Metadata]
Title:secret arms
TitleUnicode:secret arms
Artist:Ray
ArtistUnicode:Ray
Creator:-[ AmiShici ]-
Version:Hard
Source:To LOVEる-とらぶる-ダークネス 2nd
Tags:Opening OP trouble ru darkness TV Size summer season s2 Konjiki no Yami Momo Belia
BeatmapID:778875
BeatmapSetID:353526

[Difficulty]
HPDrainRate:7
CircleSize:4
OverallDifficulty:8
ApproachRate:8
SliderMultiplier:1.8
SliderTickRate:1

[Events]
//Background and Video events
0,0,"BG.jpg",0,0
Video,0,"To love-ru -trouble- Darkness 2nd OP.avi"
//Break Periods
//Storyboard Layer 0 (Background)
//Storyboard Layer 1 (Fail)
//Storyboard Layer 2 (Pass)
//Storyboard Layer 3 (Foreground)
//Storyboard Sound Samples

[TimingPoints]
763,437.956204379562,4,2,2,30,1,0
51565,-100,4,2,2,30,0,1
58573,-100,4,2,2,30,0,0
65580,-100,4,2,2,30,0,1
72587,-100,4,2,2,30,0,0

[HitObjects]
448,192,544,5,0,0:0:0:0:
320,192,617,1,0,0:0:0:0:
192,192,690,1,0,0:0:0:0:
64,192,763,1,0,0:0:0:0:
448,192,763,128,0,2514:0:0:0:0:
192,192,981,1,0,0:0:0:0:
320,192,1200,1,0,0:0:0:0:
64,192,1638,1,0,0:0:0:0:
320,192,1857,1,0,0:0:0:0:
192,192,2295,1,0,0:0:0:0:
320,192,2514,1,0,0:0:0:0:
64,192,2514,128,0,4266:0:0:0:0:
192,192,2952,1,0,0:0:0:0:
448,192,3171,1,0,0:0:0:0:
192,192,3609,1,0,0:0:0:0:
320,192,3828,1,0,0:0:0:0:
192,192,4266,1,0,0:0:0:0:
448,192,4266,128,0,5799:0:0:0:0:
320,192,4485,1,0,0:0:0:0:
64,192,4704,1,0,0:0:0:0:
320,192,5142,1,0,0:0:0:0:
192,192,5361,1,0,0:0:0:0:
320,192,5799,1,0,0:0:0:0:
64,192,5799,128,0,6894:0:0:0:0:
448,192,6894,1,0,0:0:0:30:BassS.wav
192,192,6894,1,0,0:0:0:0:
320,192,7003,1,0,0:0:0:0:
192,192,7113,1,0,0:0:0:0:
320,192,7222,1,0,0:0:0:0:
64,192,7332,1,0,0:0:0:0:
192,192,7332,1,0,0:0:0:30:soft-hitclap1.wav
448,192,7332,1,0,0:0:0:0:
320,192,7441,1,0,0:0:0:0:
192,192,7551,1,0,0:0:0:0:
64,192,7660,1,0,0:0:0:0:
192,192,7770,1,4,0:0:0:0:
448,192,7770,128,0,9522:0:0:0:0:
320,192,7770,1,0,0:0:0:0:
64,192,7989,1,0,0:0:0:0:
192,192,8098,1,0,0:0:0:0:
64,192,8208,1,0,0:0:0:0:
320,192,8208,1,0,0:0:0:30:BassS.wav
192,192,8427,1,0,0:0:0:0:
320,192,8646,1,0,0:0:0:0:
64,192,8646,1,0,0:0:0:0:
192,192,8865,1,0,0:0:0:0:
320,192,8974,1,0,0:0:0:0:
192,192,9084,1,0,0:0:0:30:BassS.wav
64,192,9084,1,0,0:0:0:0:
320,192,9303,1,0,0:0:0:0:
64,192,9522,128,0,11054:0:0:0:0:
192,192,9522,1,0,0:0:0:0:
320,192,9741,1,0,0:0:0:0:
448,192,9850,1,0,0:0:0:0:
192,192,9960,1,0,0:0:0:30:BassS.wav
320,192,9960,1,0,0:0:0:0:
448,192,10179,1,0,0:0:0:0:
320,192,10398,1,0,0:0:0:0:
192,192,10398,1,0,0:0:0:0:
448,192,10617,1,0,0:0:0:0:
192,192,10726,1,0,0:0:0:0:
320,192,10835,1,0,0:0:0:30:BassS.wav
448,192,10835,1,0,0:0:0:0:
192,192,11054,1,0,0:0:0:0:
320,192,11164,1,0,0:0:0:0:
448,192,11273,128,0,13025:0:0:0:0:
64,192,11273,1,0,0:0:0:0:
192,192,11492,1,0,0:0:0:0:
64,192,11602,1,0,0:0:0:0:
320,192,11711,1,0,0:0:0:30:BassS.wav
192,192,11711,1,0,0:0:0:0:
64,192,11930,1,0,0:0:0:0:
192,192,12149,1,0,0:0:0:0:
320,192,12149,1,0,0:0:0:0:
64,192,12368,1,0,0:0:0:0:
320,192,12478,1,0,0:0:0:0:
64,192,12587,1,0,0:0:0:0:
192,192,12587,1,0,0:0:0:30:BassS.wav
320,192,12806,1,0,0:0:0:0:
64,192,13025,1,0,0:0:0:0:
192,192,13025,1,0,0:0:0:0:
448,192,13244,1,0,0:0:0:0:
320,192,13354,1,0,0:0:0:0:
192,192,13463,1,0,0:0:0:0:
448,192,13463,1,0,0:0:0:30:BassS.wav
64,192,13573,1,0,0:0:0:0:
192,192,13682,1,0,0:0:0:0:
448,192,13901,1,0,0:0:0:0:
64,192,13901,1,0,0:0:0:0:
320,192,14011,1,0,0:0:0:0:
192,192,14120,1,0,0:0:0:0:
64,192,14230,1,0,0:0:0:0:
192,192,14339,1,0,0:0:0:0:
448,192,14339,1,0,0:0:0:30:BassS.wav
320,192,14558,1,0,0:0:0:0:
64,192,14777,128,0,15215:0:0:0:0:
448,192,14777,1,4,0:0:0:0:
192,192,14777,1,0,0:0:0:0:
320,192,14996,1,0,0:0:0:0:
448,192,15215,1,0,0:0:0:30:BassS.wav
192,192,15434,128,0,16091:0:0:0:0:
320,192,15434,1,4,0:0:0:0:
64,192,15434,1,0,0:0:0:0:
320,192,15872,1,0,0:0:0:30:BassS.wav
64,192,16091,1,0,0:0:0:30:BassS.wav
320,192,16310,128,0,16967:0:0:0:0:
192,192,16310,1,4,0:0:0:0:
448,192,16310,1,0,0:0:0:0:
64,192,16748,1,0,0:0:0:30:BassS.wav
448,192,16857,1,0,0:0:0:30:BassS.wav
192,192,16967,1,0,0:0:0:30:LR_Clap Reverb.wav
448,192,17186,128,0,18281:0:0:0:0:
64,192,17186,1,0,0:0:0:0:
320,192,17186,1,4,0:0:0:0:
192,192,17624,1,0,0:0:0:0:
64,192,17843,1,0,0:0:0:0:
320,192,17843,1,0,0:0:0:30:BassS.wav
192,192,18062,1,0,0:0:0:0:
320,192,18281,1,4,0:0:0:0:
192,192,18281,1,0,0:0:0:0:
64,192,18281,128,0,20033:0:0:0:0:
448,192,18500,1,0,0:0:0:0:
320,192,18609,1,0,0:0:0:0:
192,192,18719,1,0,0:0:0:0:
448,192,18719,1,0,0:0:0:30:BassS.wav
320,192,18938,1,0,0:0:0:0:
448,192,19157,1,0,0:0:0:0:
192,192,19376,1,0,0:0:0:0:
320,192,19485,1,0,0:0:0:0:
192,192,19595,1,0,0:0:0:30:BassS.wav
448,192,19595,1,0,0:0:0:0:
320,192,19814,1,0,0:0:0:0:
192,192,20033,1,4,0:0:0:0:
320,192,20033,1,0,0:0:0:0:
448,192,20033,128,0,20908:0:0:0:0:
64,192,20252,1,0,0:0:0:0:
192,192,20361,1,0,0:0:0:0:
64,192,20471,1,0,0:0:0:30:BassS.wav
320,192,20471,1,0,0:0:0:0:
192,192,20690,1,0,0:0:0:0:
320,192,20908,1,0,0:0:0:0:
64,192,20908,1,0,0:0:0:0:
192,192,21018,1,0,0:0:0:0:
64,192,21127,1,0,0:0:0:0:
320,192,21237,1,0,0:0:0:0:
448,192,21346,1,0,0:0:0:30:BassS.wav
192,192,21346,1,0,0:0:0:0:
63,192,21565,128,0,21784:0:0:0:0:
192,192,21784,1,0,0:0:0:0:
320,192,21784,1,4,0:0:0:0:
448,192,21784,1,0,0:0:0:0:
192,192,22003,1,0,0:0:0:0:
320,192,22113,1,0,0:0:0:30:BassS.wav
448,192,22222,1,0,0:0:0:30:BassS.wav
64,192,22222,1,0,0:0:0:0:
192,192,22441,1,0,0:0:0:30:BassS.wav
448,192,22660,1,0,0:0:0:0:
192,192,22879,1,0,0:0:0:30:BassS.wav
64,192,23098,1,0,0:0:0:0:
448,192,23098,1,0,0:0:0:30:BassS.wav
320,192,23208,1,0,0:0:0:30:BassS.wav
192,192,23317,1,0,0:0:0:30:BassS.wav
448,192,23646,1,0,0:0:0:0:
192,192,23755,1,0,0:0:0:30:BassS.wav
320,192,23974,1,0,0:0:0:30:BassS.wav
64,192,23974,1,0,0:0:0:0:
192,192,24193,1,0,0:0:0:30:BassS.wav
448,192,24412,1,0,0:0:0:0:
448,192,24522,1,0,0:0:0:0:
320,192,24631,1,0,0:0:0:30:BassS.wav
192,192,24631,128,0,24850:0:0:0:0:
448,192,24850,1,0,0:0:0:30:BassS.wav
64,192,24850,1,0,0:0:0:0:
448,192,24960,1,0,0:0:0:0:
192,192,25069,1,0,0:0:0:30:BassS.wav
64,192,25069,128,0,25288:0:0:0:0:
320,192,25288,1,0,0:0:0:0:
448,192,25288,1,0,0:0:0:0:
192,192,25507,1,0,0:0:0:0:
320,192,25617,1,0,0:0:0:30:BassS.wav
64,192,25726,1,0,0:0:0:0:
448,192,25726,1,0,0:0:0:30:BassS.wav
64,192,25835,1,0,0:0:0:0:
320,192,25945,1,0,0:0:0:30:BassS.wav
192,192,26054,1,0,0:0:0:0:
64,192,26164,1,0,0:0:0:0:
448,192,26273,1,0,0:0:0:0:
320,192,26383,1,0,0:0:0:30:BassS.wav
192,192,26492,1,0,0:0:0:30:BassS.wav
320,192,26602,1,0,0:0:0:30:BassS.wav
448,192,26602,1,0,0:0:0:0:
64,192,26711,1,0,0:0:0:30:BassS.wav
192,192,26821,1,0,0:0:0:30:BassS.wav
320,192,27040,1,0,0:0:0:0:
320,192,27149,1,0,0:0:0:0:
448,192,27259,1,0,0:0:0:30:BassS.wav
64,192,27259,128,0,27478:0:0:0:0:
192,192,27478,1,0,0:0:0:30:BassS.wav
320,192,27478,1,0,0:0:0:0:
64,192,27697,1,0,0:0:0:30:BassS.wav
448,192,27806,1,0,0:0:0:0:
192,192,27916,1,0,0:0:0:0:
192,192,28025,1,0,0:0:0:0:
320,192,28135,128,0,28354:0:0:0:0:
64,192,28135,1,0,0:0:0:30:BassS.wav
448,192,28354,1,0,0:0:0:30:BassS.wav
192,192,28354,1,0,0:0:0:0:
64,192,28463,1,0,0:0:0:30:BassS.wav
320,192,28463,1,0,0:0:0:0:
448,192,28573,1,0,0:0:0:30:BassS.wav
192,192,28573,1,0,0:0:0:0:
64,192,28682,1,0,0:0:0:30:BassS.wav
320,192,28682,1,0,0:0:0:0:
320,192,28792,1,4,0:0:0:0:
448,192,28792,1,0,0:0:0:30:BassS.wav
192,192,28792,1,0,0:0:0:0:
64,192,29011,1,0,0:0:0:0:
192,192,29230,1,0,0:0:0:0:
64,192,29230,1,0,0:0:0:0:
448,192,29449,1,0,0:0:0:0:
448,192,29668,128,0,29887:0:0:0:0:
320,192,29668,1,0,0:0:0:30:BassS.wav
192,192,29668,1,0,0:0:0:0:
64,192,29887,1,0,0:0:0:0:
192,192,30106,1,0,0:0:0:0:
448,192,30106,1,0,0:0:0:0:
192,192,30325,128,0,30544:0:0:0:0:
320,192,30325,1,0,0:0:0:0:
448,192,30544,1,0,0:0:0:30:BassS.wav
64,192,30544,1,0,0:0:0:0:
320,192,30762,1,0,0:0:0:0:
320,192,30981,128,0,31200:0:0:0:0:
192,192,30981,1,0,0:0:0:0:
448,192,30981,1,0,0:0:0:0:
64,192,31200,1,0,0:0:0:0:
192,192,31419,1,0,0:0:0:0:
448,192,31419,1,0,0:0:0:30:BassS.wav
64,192,31638,128,0,32076:0:0:0:0:
320,192,31638,1,0,0:0:0:0:
192,192,31857,1,0,0:0:0:0:
448,192,31857,1,0,0:0:0:0:
320,192,32076,128,0,32295:0:0:0:0:
192,192,32295,1,4,0:0:0:0:
64,192,32295,1,0,0:0:0:0:
448,192,32295,1,0,0:0:0:0:
64,192,32514,128,0,32733:0:0:0:0:
448,192,32514,1,0,0:0:0:0:
320,192,32733,128,0,32952:0:0:0:0:
192,192,32733,1,0,0:0:0:0:
448,192,32733,1,0,0:0:0:0:
192,192,32952,128,0,33171:0:0:0:0:
64,192,32952,1,0,0:0:0:0:
448,192,33171,128,0,33390:0:0:0:0:
64,192,33171,1,0,0:0:0:0:
320,192,33171,1,0,0:0:0:0:
192,192,33390,1,0,0:0:0:0:
320,192,33390,1,0,0:0:0:30:BassS.wav
64,192,33609,1,0,0:0:0:0:
448,192,33609,1,0,0:0:0:30:BassS.wav
64,192,33828,1,0,0:0:0:0:
192,192,33828,1,4,0:0:0:0:
320,192,33828,1,0,0:0:0:30:BassS.wav
448,192,34047,1,0,0:0:0:0:
320,192,34266,1,4,0:0:0:0:
192,192,34266,1,0,0:0:0:0:
320,192,34485,1,4,0:0:0:0:
448,192,34485,1,0,0:0:0:30:BassS.wav
64,192,34485,128,0,34704:0:0:0:0:
192,192,34704,1,0,0:0:0:0:
448,192,34814,1,0,0:0:0:30:BassS.wav
320,192,34868,1,0,0:0:0:30:BassS.wav
64,192,34923,1,0,0:0:0:30:BassS.wav
64,192,35033,1,0,0:0:0:0:
320,192,35142,1,0,0:0:0:0:
192,192,35142,128,0,35361:0:0:0:0:
64,192,35361,1,0,0:0:0:0:
448,192,35361,1,0,0:0:0:0:
448,192,35471,1,0,0:0:0:0:
192,192,35580,1,0,0:0:0:30:BassS.wav
320,192,35580,128,0,35799:0:0:0:0:
192,192,35799,1,4,0:0:0:0:
64,192,35799,128,0,36237:0:0:0:0:
448,192,35799,1,0,0:0:0:0:
320,192,36018,1,0,0:0:0:0:
448,192,36237,128,0,36675:0:0:0:0:
192,192,36237,1,0,0:0:0:0:
64,192,36456,1,0,0:0:0:0:
320,192,36675,128,0,37113:0:0:0:0:
192,192,36675,1,0,0:0:0:0:
64,192,36894,1,0,0:0:0:30:BassS.wav
448,192,36894,1,0,0:0:0:0:
192,192,37113,128,0,37551:0:0:0:0:
448,192,37113,1,0,0:0:0:0:
320,192,37332,1,0,0:0:0:0:
64,192,37551,1,0,0:0:0:30:BassS.wav
448,192,37551,1,0,0:0:0:0:
320,192,37770,1,0,0:0:0:0:
64,192,37879,1,0,0:0:0:0:
192,192,37879,1,0,0:0:0:30:BassS.wav
448,192,37989,1,0,0:0:0:0:
192,192,38208,1,0,0:0:0:0:
320,192,38208,1,0,0:0:0:30:BassS.wav
64,192,38427,1,0,0:0:0:0:
192,192,38646,1,0,0:0:0:0:
320,192,38646,1,0,0:0:0:30:BassS.wav
448,192,38865,1,0,0:0:0:0:
320,192,39084,1,0,0:0:0:0:
192,192,39303,1,0,0:0:0:0:
64,192,39303,128,0,39741:0:0:0:0:
448,192,39303,1,4,0:0:0:0:
320,192,39522,1,0,0:0:0:0:
320,192,39741,128,0,40179:0:0:0:0:
192,192,39741,1,0,0:0:0:0:
64,192,39960,1,0,0:0:0:0:
192,192,40179,128,0,40617:0:0:0:0:
448,192,40179,1,0,0:0:0:0:
320,192,40398,1,0,0:0:0:0:
64,192,40398,1,0,0:0:0:30:BassS.wav
448,192,40617,128,0,41054:0:0:0:0:
320,192,40617,1,0,0:0:0:0:
64,192,40835,1,0,0:0:0:0:
192,192,41054,1,0,0:0:0:0:
320,192,41054,1,0,0:0:0:30:BassS.wav
64,192,41273,1,2,0:0:0:0:
192,192,41492,1,2,0:0:0:0:
320,192,41711,1,2,0:0:0:0:
448,192,41930,1,2,0:0:0:0:
320,192,42149,1,2,0:0:0:0:
192,192,42368,1,2,0:0:0:0:
64,192,42587,1,2,0:0:0:0:
192,192,42806,128,0,43244:0:0:0:0:
320,192,42806,1,4,0:0:0:0:
448,192,42806,1,0,0:0:0:0:
64,192,43025,1,0,0:0:0:0:
448,192,43244,128,0,43682:0:0:0:0:
320,192,43244,1,0,0:0:0:0:
192,192,43463,1,0,0:0:0:0:
64,192,43682,128,0,44120:0:0:0:0:
320,192,43682,1,0,0:0:0:0:
192,192,43901,1,0,0:0:0:0:
448,192,43901,1,0,0:0:0:30:BassS.wav
320,192,44120,128,0,44558:0:0:0:0:
448,192,44120,1,0,0:0:0:0:
192,192,44339,1,0,0:0:0:0:
64,192,44558,1,0,0:0:0:0:
448,192,44558,1,0,0:0:0:30:BassS.wav
192,192,44777,1,0,0:0:0:0:
448,192,44887,1,0,0:0:0:30:BassS.wav
320,192,44887,1,0,0:0:0:0:
64,192,44996,1,0,0:0:0:0:
192,192,45215,1,0,0:0:0:0:
448,192,45215,1,0,0:0:0:30:BassS.wav
64,192,45434,1,0,0:0:0:0:
192,192,45653,1,0,0:0:0:0:
320,192,45653,1,0,0:0:0:30:BassS.wav
448,192,45872,1,0,0:0:0:0:
320,192,46091,1,0,0:0:0:0:
64,192,46310,1,0,0:0:0:0:
192,192,46310,1,4,0:0:0:0:
448,192,46310,1,0,0:0:0:0:
64,192,46638,1,0,0:0:0:0:
192,192,46638,1,4,0:0:0:0:
448,192,46638,1,0,0:0:0:0:
320,192,46967,1,0,0:0:0:0:
192,192,47076,1,0,0:0:0:0:
64,192,47186,1,0,0:0:0:0:
320,192,47186,1,4,0:0:0:0:
448,192,47186,1,0,0:0:0:0:
64,192,47514,1,0,0:0:0:0:
320,192,47514,1,4,0:0:0:0:
448,192,47514,1,0,0:0:0:0:
448,192,47843,1,0,0:0:0:30:BassS.wav
320,192,47898,1,0,0:0:0:30:BassS.wav
192,192,47952,1,0,0:0:0:30:BassS.wav
64,192,48007,1,0,0:0:0:30:BassS.wav
448,192,48062,1,0,0:0:0:0:
320,192,48062,1,4,0:0:0:0:
192,192,48062,1,0,0:0:0:30:BassS.wav
448,192,48281,1,0,0:0:0:30:BassS.wav
64,192,48500,1,4,0:0:0:0:
320,192,48500,1,0,0:0:0:30:BassS.wav
192,192,48500,1,0,0:0:0:0:
192,192,48719,1,0,0:0:0:30:BassS.wav
448,192,48938,1,4,0:0:0:0:
320,192,48938,1,0,0:0:0:0:
64,192,48938,1,0,0:0:0:30:BassS.wav
192,192,49047,1,0,0:0:0:30:BassS.wav
320,192,49157,1,0,0:0:0:30:BassS.wav
448,192,49266,1,0,0:0:0:30:BassS.wav
192,192,49376,1,0,0:0:0:0:
320,192,49376,1,0,0:0:0:30:BassS.wav
64,192,49376,1,4,0:0:0:0:
448,192,49485,1,0,0:0:0:30:BassS.wav
320,192,49595,1,0,0:0:0:30:BassS.wav
192,192,49704,1,0,0:0:0:30:BassS.wav
64,192,49814,1,0,0:0:0:30:BassS.wav
320,192,49814,1,0,0:0:0:0:
448,192,49814,1,4,0:0:0:0:
192,192,50033,1,0,0:0:0:0:
320,192,50252,1,0,0:0:0:0:
64,192,50252,1,0,0:0:0:0:
192,192,50361,1,0,0:0:0:0:
320,192,50471,1,0,0:0:0:0:
448,192,50580,1,0,0:0:0:0:
192,192,50690,1,0,0:0:0:0:
320,192,50690,1,0,0:0:0:30:BassS.wav
64,192,50799,1,0,0:0:0:0:
192,192,50908,1,0,0:0:0:0:
448,192,50908,1,0,0:0:0:30:BassS.wav
320,192,51018,1,0,0:0:0:0:
448,192,51127,1,0,0:0:0:0:
64,192,51127,1,0,0:0:0:0:
192,192,51127,1,0,0:0:0:30:soft-hitclap1.wav
192,192,51565,1,0,0:0:0:0:
320,192,51565,1,4,0:0:0:0:
448,192,51565,128,0,53317:0:0:0:0:
64,192,51784,1,0,0:0:0:0:
192,192,51894,1,0,0:0:0:0:
64,192,52003,1,0,0:0:0:0:
320,192,52003,1,0,0:0:0:30:BassS.wav
192,192,52222,1,0,0:0:0:0:
64,192,52441,1,0,0:0:0:0:
320,192,52441,1,0,0:0:0:0:
192,192,52660,1,0,0:0:0:0:
320,192,52770,1,0,0:0:0:0:
64,192,52879,1,0,0:0:0:0:
192,192,52879,1,0,0:0:0:30:BassS.wav
320,192,53098,1,0,0:0:0:0:
192,192,53317,1,0,0:0:0:30:BassS.wav
320,192,53317,1,0,0:0:0:0:
64,192,53317,128,0,55069:0:0:0:0:
448,192,53536,1,0,0:0:0:0:
192,192,53646,1,0,0:0:0:0:
320,192,53755,1,0,0:0:0:30:BassS.wav
448,192,53755,1,0,0:0:0:0:
192,192,53974,1,0,0:0:0:0:
320,192,54193,1,0,0:0:0:0:
448,192,54193,1,0,0:0:0:0:
192,192,54412,1,0,0:0:0:0:
320,192,54522,1,0,0:0:0:0:
192,192,54631,1,0,0:0:0:30:BassS.wav
448,192,54631,1,0,0:0:0:0:
448,192,54850,1,0,0:0:0:0:
320,192,54850,1,0,0:0:0:30:BassS.wav
320,192,55069,1,0,0:0:0:0:
448,192,55069,1,0,0:0:0:30:BassS.wav
192,192,55069,128,0,56821:0:0:0:0:
64,192,55288,1,0,0:0:0:0:
320,192,55398,1,0,0:0:0:0:
64,192,55507,1,0,0:0:0:30:BassS.wav
448,192,55507,1,0,0:0:0:0:
320,192,55726,1,0,0:0:0:0:
448,192,55945,1,0,0:0:0:0:
64,192,55945,1,0,0:0:0:0:
320,192,56164,1,0,0:0:0:0:
64,192,56273,1,0,0:0:0:0:
320,192,56383,1,0,0:0:0:30:BassS.wav
448,192,56383,1,0,0:0:0:0:
64,192,56602,1,0,0:0:0:0:
64,192,56821,1,0,0:0:0:0:
320,192,56821,1,0,0:0:0:30:BassS.wav
448,192,56821,128,0,57259:0:0:0:0:
192,192,57040,1,0,0:0:0:0:
64,192,57149,1,0,0:0:0:0:
192,192,57259,1,0,0:0:0:30:BassS.wav
320,192,57259,128,0,57697:0:0:0:0:
448,192,57478,1,0,0:0:0:0:
64,192,57697,1,0,0:0:0:30:BassS.wav
192,192,57697,128,0,58135:0:0:0:0:
448,192,57916,1,0,0:0:0:0:
320,192,58025,1,0,0:0:0:0:
448,192,58135,1,0,0:0:0:30:BassS.wav
64,192,58135,128,0,58573:0:0:0:0:
192,192,58354,1,0,0:0:0:0:
320,192,58354,1,0,0:0:0:30:BassS.wav
192,192,58573,1,0,0:0:0:30:BassS.wav
320,192,58573,1,4,0:0:0:0:
448,192,58573,128,0,59887:0:0:0:0:
64,192,58792,1,0,0:0:0:0:
192,192,58901,1,0,0:0:0:0:
64,192,59011,1,0,0:0:0:0:
320,192,59011,1,0,0:0:0:30:BassS.wav
192,192,59230,1,0,0:0:0:0:
64,192,59449,1,0,0:0:0:0:
320,192,59449,1,0,0:0:0:0:
192,192,59668,1,0,0:0:0:0:
320,192,59777,1,0,0:0:0:0:
192,192,59887,1,0,0:0:0:30:BassS.wav
64,192,59887,128,0,60106:0:0:0:0:
320,192,60106,1,0,0:0:0:0:
448,192,60325,1,0,0:0:0:30:BassS.wav
320,192,60325,1,0,0:0:0:0:
192,192,60325,128,0,62076:0:0:0:0:
64,192,60544,1,0,0:0:0:0:
448,192,60653,1,0,0:0:0:0:
320,192,60762,1,0,0:0:0:30:BassS.wav
64,192,60762,1,0,0:0:0:0:
448,192,60981,1,0,0:0:0:0:
320,192,61200,1,0,0:0:0:0:
64,192,61200,1,0,0:0:0:0:
448,192,61419,1,0,0:0:0:0:
320,192,61529,1,0,0:0:0:0:
64,192,61638,1,0,0:0:0:30:BassS.wav
448,192,61638,1,0,0:0:0:0:
64,192,61857,1,0,0:0:0:0:
320,192,61857,1,0,0:0:0:0:
64,192,62076,1,0,0:0:0:0:
320,192,62076,1,4,0:0:0:0:
448,192,62076,1,0,0:0:0:30:BassS.wav
320,192,62295,1,0,0:0:0:30:BassS.wav
64,192,62405,1,0,0:0:0:0:
192,192,62405,1,4,0:0:0:0:
448,192,62405,1,0,0:0:0:0:
64,192,62733,1,0,0:0:0:0:
320,192,62733,1,4,0:0:0:0:
448,192,62733,1,0,0:0:0:0:
320,192,62952,1,0,0:0:0:30:BassS.wav
64,192,63062,1,0,0:0:0:0:
192,192,63062,1,4,0:0:0:0:
448,192,63062,1,0,0:0:0:0:
448,192,63390,1,0,0:0:0:30:BassS.wav
64,192,63390,1,0,0:0:0:0:
320,192,63500,1,0,0:0:0:30:BassS.wav
192,192,63609,1,0,0:0:0:30:BassS.wav
64,192,63719,1,0,0:0:0:30:BassS.wav
448,192,63828,1,0,0:0:0:0:
320,192,63828,1,4,0:0:0:0:
192,192,63828,1,0,0:0:0:30:BassS.wav
448,192,64047,1,0,0:0:0:30:BassS.wav
320,192,64157,1,0,0:0:0:0:
192,192,64157,1,4,0:0:0:0:
64,192,64157,1,0,0:0:0:0:
192,192,64485,1,0,0:0:0:0:
320,192,64485,1,4,0:0:0:0:
448,192,64485,1,0,0:0:0:0:
448,192,64704,1,0,0:0:0:30:BassS.wav
320,192,64814,1,0,0:0:0:0:
192,192,64814,1,4,0:0:0:0:
64,192,64814,1,0,0:0:0:0:
64,192,65142,1,0,0:0:0:0:
192,192,65142,1,0,0:0:0:30:soft-hitclap1.wav
448,192,65142,1,0,0:0:0:30:BassS.wav
320,192,65252,1,0,0:0:0:30:BassS.wav
192,192,65361,1,0,0:0:0:30:BassS.wav
64,192,65471,1,0,0:0:0:30:BassS.wav
320,192,65580,1,4,0:0:0:0:
448,192,65580,128,0,67332:0:0:0:0:
192,192,65580,1,0,0:0:0:30:BassS.wav
64,192,65799,1,0,0:0:0:0:
320,192,65908,1,0,0:0:0:0:
64,192,66018,1,0,0:0:0:0:
192,192,66018,1,0,0:0:0:30:BassS.wav
320,192,66237,1,0,0:0:0:0:
64,192,66456,1,0,0:0:0:0:
192,192,66456,1,0,0:0:0:0:
320,192,66675,1,0,0:0:0:0:
192,192,66784,1,0,0:0:0:0:
64,192,66894,1,0,0:0:0:0:
320,192,66894,1,0,0:0:0:30:BassS.wav
192,192,67113,1,0,0:0:0:0:
320,192,67332,1,0,0:0:0:30:BassS.wav
192,192,67332,1,0,0:0:0:0:
64,192,67332,128,0,69084:0:0:0:0:
448,192,67551,1,0,0:0:0:0:
320,192,67660,1,0,0:0:0:0:
448,192,67770,1,0,0:0:0:30:BassS.wav
192,192,67770,1,0,0:0:0:0:
320,192,67989,1,0,0:0:0:0:
448,192,68208,1,0,0:0:0:0:
192,192,68208,1,0,0:0:0:0:
320,192,68427,1,0,0:0:0:0:
448,192,68536,1,0,0:0:0:0:
320,192,68646,1,0,0:0:0:30:BassS.wav
192,192,68646,1,0,0:0:0:0:
448,192,68865,1,0,0:0:0:30:BassS.wav
192,192,68865,1,0,0:0:0:0:
192,192,69084,1,0,0:0:0:0:
448,192,69084,1,0,0:0:0:30:BassS.wav
320,192,69084,128,0,70835:0:0:0:0:
64,192,69303,1,0,0:0:0:0:
192,192,69412,1,0,0:0:0:0:
64,192,69522,1,0,0:0:0:30:BassS.wav
448,192,69522,1,0,0:0:0:0:
192,192,69741,1,0,0:0:0:0:
448,192,69960,1,0,0:0:0:0:
64,192,69960,1,0,0:0:0:0:
192,192,70179,1,0,0:0:0:0:
448,192,70288,1,0,0:0:0:0:
192,192,70398,1,0,0:0:0:30:BassS.wav
64,192,70398,1,0,0:0:0:0:
448,192,70617,1,0,0:0:0:0:
192,192,70835,1,0,0:0:0:0:
448,192,70835,1,0,0:0:0:30:BassS.wav
64,192,70835,128,0,71273:0:0:0:0:
320,192,71054,1,0,0:0:0:0:
448,192,71164,1,0,0:0:0:0:
320,192,71273,1,0,0:0:0:30:BassS.wav
192,192,71273,128,0,71711:0:0:0:0:
448,192,71492,1,0,0:0:0:0:
64,192,71711,1,0,0:0:0:30:BassS.wav
448,192,71711,128,0,72149:0:0:0:0:
320,192,71930,1,0,0:0:0:0:
192,192,72040,1,0,0:0:0:0:
320,192,72149,1,0,0:0:0:0:
64,192,72149,1,0,0:0:0:30:BassS.wav
192,192,72259,1,0,0:0:0:30:BassS.wav
448,192,72368,1,0,0:0:0:0:
320,192,72368,1,0,0:0:0:30:BassS.wav
64,192,72478,1,0,0:0:0:30:BassS.wav
192,192,72587,1,0,0:0:0:30:BassS.wav
320,192,72587,1,4,0:0:0:0:
448,192,72587,128,0,74339:0:0:0:0:
64,192,72806,1,0,0:0:0:0:
320,192,72916,1,0,0:0:0:0:
192,192,73025,1,0,0:0:0:0:
64,192,73025,1,0,0:0:0:30:BassS.wav
64,192,73244,1,0,0:0:0:0:
192,192,73463,1,0,0:0:0:0:
320,192,73463,1,0,0:0:0:0:
64,192,73682,1,0,0:0:0:0:
320,192,73792,1,0,0:0:0:0:
192,192,73901,1,0,0:0:0:30:BassS.wav
64,192,73901,1,0,0:0:0:0:
320,192,74120,1,0,0:0:0:0:
64,192,74339,1,0,0:0:0:0:
192,192,74339,1,0,0:0:0:30:BassS.wav
320,192,74339,128,0,75215:0:0:0:0:
192,192,74558,1,0,0:0:0:0:
64,192,74668,1,0,0:0:0:0:
192,192,74777,1,0,0:0:0:0:
448,192,74777,1,0,0:0:0:30:BassS.wav
64,192,74996,1,0,0:0:0:0:
192,192,75215,1,0,0:0:0:0:
448,192,75215,1,0,0:0:0:0:
64,192,75215,128,0,75653:0:0:0:0:
448,192,75434,1,0,0:0:0:0:
192,192,75544,1,0,0:0:0:0:
448,192,75653,1,0,0:0:0:30:BassS.wav
320,192,75653,128,0,75872:0:0:0:0:
192,192,75872,1,0,0:0:0:0:
64,192,75872,1,0,0:0:0:0:
64,192,76091,1,0,0:0:0:0:
320,192,76091,1,0,0:0:0:30:BassS.wav
448,192,76091,128,0,77843:0:0:0:0:
192,192,76310,1,0,0:0:0:0:
320,192,76419,1,0,0:0:0:0:
192,192,76529,1,0,0:0:0:30:BassS.wav
64,192,76529,1,0,0:0:0:0:
320,192,76748,1,0,0:0:0:0:
64,192,76967,1,0,0:0:0:0:
192,192,76967,1,0,0:0:0:0:
320,192,77186,1,0,0:0:0:0:
64,192,77295,1,0,0:0:0:0:
320,192,77405,1,0,0:0:0:30:BassS.wav
192,192,77405,1,0,0:0:0:0:
64,192,77624,1,0,0:0:0:0:
320,192,77843,1,4,0:0:0:0:
192,192,77843,1,0,0:0:0:30:BassS.wav
64,192,77843,1,0,0:0:0:0:
192,192,78062,1,0,0:0:0:0:
320,192,78171,1,0,0:0:0:0:
64,192,78281,1,0,0:0:0:0:
448,192,78281,1,0,0:0:0:30:BassS.wav
192,192,78390,1,0,0:0:0:30:BassS.wav
320,192,78500,1,0,0:0:0:30:BassS.wav
448,192,78500,1,4,0:0:0:0:
64,192,78500,1,0,0:0:0:0:
192,192,78719,1,0,0:0:0:0:
448,192,78938,1,0,0:0:0:30:BassS.wav
64,192,78938,1,0,0:0:0:0:
320,192,78992,1,0,0:0:0:30:BassS.wav
192,192,79047,1,0,0:0:0:30:BassS.wav
64,192,79102,1,0,0:0:0:30:BassS.wav
448,192,79157,1,0,0:0:0:0:
320,192,79157,1,0,0:0:0:30:BassS.wav
320,192,79376,1,0,0:0:0:30:BassS.wav
192,192,79376,1,0,0:0:0:0:
448,192,79595,1,4,0:0:0:0:
192,192,79595,1,0,0:0:0:30:BassS.wav
64,192,79595,128,0,80471:0:0:0:0:
320,192,79814,1,0,0:0:0:0:
192,192,79923,1,0,0:0:0:30:BassS.wav
448,192,79923,1,0,0:0:0:0:
320,192,80252,1,0,0:0:0:30:BassS.wav
192,192,80471,1,0,0:0:0:0:
448,192,80471,128,0,81127:0:0:0:0:
320,192,80471,1,4,0:0:0:0:
64,192,80690,1,0,0:0:0:0:
192,192,80908,1,0,0:0:0:0:
192,192,81127,1,4,0:0:0:0:
320,192,81127,128,0,81565:0:0:0:0:
64,192,81127,1,0,0:0:0:0:
448,192,81565,1,0,0:0:0:0:
64,192,81565,1,4,0:0:0:0:
448,192,81784,1,4,0:0:0:0:
192,192,81784,1,0,0:0:0:0:
64,192,81784,1,0,0:0:0:0:
64,192,82660,1,0,0:0:0:0:
192,192,82660,1,0,0:0:0:30:soft-hitclap1.wav
448,192,82660,1,0,0:0:0:0:
320,192,82879,1,0,0:0:0:0:
192,192,83098,1,4,0:0:0:0:
64,192,83098,1,0,0:0:0:0:
448,192,83098,1,0,0:0:0:0:
320,192,83317,1,0,0:0:0:0:
192,192,83427,1,0,0:0:0:0:
64,192,83536,1,0,0:0:0:0:
448,192,83536,1,0,0:0:0:0:
192,192,83755,1,0,0:0:0:0:
320,192,83755,1,0,0:0:0:0:
64,192,83974,1,0,0:0:0:0:
320,192,84193,1,0,0:0:0:0:
64,192,84412,1,0,0:0:0:0:
448,192,84412,1,0,0:0:0:0:
192,192,84631,1,0,0:0:0:0:
320,192,84850,1,0,0:0:0:0:
448,192,85069,1,0,0:0:0:0:
320,192,85179,1,0,0:0:0:30:BassS.wav
192,192,85179,1,0,0:0:0:0:
64,192,85288,1,0,0:0:0:0:
448,192,85288,1,0,0:0:0:0:
320,192,85507,1,0,0:0:0:30:BassS.wav
192,192,85507,1,0,0:0:0:0:
64,192,85726,1,0,0:0:0:0:
320,192,85945,1,0,0:0:0:30:BassS.wav
192,192,85945,1,0,0:0:0:0:
64,192,86164,128,0,86383:0:0:0:0:
448,192,86383,1,0,0:0:0:0:
320,192,86383,128,0,86602:0:0:0:0:
