osu file format v13

[General]
AudioFilename: Fumi.mp3
AudioLeadIn: 1500
PreviewTime: 59474
Countdown: 0
SampleSet: Normal
StackLeniency: 0.3
Mode: 0
LetterboxInBreaks: 0
WidescreenStoryboard: 0

[Editor]
DistanceSpacing: 1
BeatDivisor: 4
GridSize: 8
TimelineZoom: 1

[Metadata]
Title:lull ~Soshite Bokura wa~ (TV Size)
TitleUnicode:lull〜そして僕らは〜 (TV Size)
Artist:Ray
ArtistUnicode:Ray
Creator:No_Gu
Version:Insane
Source:Nagi no Asukara
Tags:凪のあすから Fumika Netsukawa Momochikun
BeatmapID:316131
BeatmapSetID:123893

[Difficulty]
HPDrainRate:7
CircleSize:4
OverallDifficulty:7
ApproachRate:8
SliderMultiplier:1.6
SliderTickRate:1

[Events]
//Background and Video events
Video,-210,"Fumi.avi"
0,0,"bg.jpg",0,0
//Break Periods
//Storyboard Layer 0 (Background)
//Storyboard Layer 1 (Fail)
//Storyboard Layer 2 (Pass)
//Storyboard Layer 3 (Foreground)
//Storyboard Sound Samples
//Background Colour Transformations
3,100,163,162,255

[TimingPoints]
602,451.127819548872,4,2,1,70,1,0
602,-125,4,1,1,50,0,0
7425,-125,4,2,1,50,0,0
7820,-100,4,1,1,70,0,0
8045,-100,4,2,1,70,0,0
8271,-100,4,1,1,70,0,0
8496,-100,4,2,1,70,0,0
8722,-100,4,1,1,70,0,0
8947,-100,4,2,1,70,0,0
9173,-100,4,1,1,70,0,0
9398,-100,4,2,1,70,0,0
9624,-100,4,1,1,70,0,0
9850,-100,4,2,1,70,0,0
10075,-100,4,1,1,70,0,0
10301,-100,4,2,1,70,0,0
10526,-100,4,1,1,70,0,0
10752,-100,4,2,1,70,0,0
10977,-100,4,1,1,70,0,0
11203,-100,4,2,1,70,0,0
11429,-100,4,1,1,70,0,0
11654,-100,4,2,1,70,0,0
11880,-100,4,1,1,70,0,0
12105,-100,4,2,1,70,0,0
12331,-100,4,1,1,70,0,0
12556,-100,4,2,1,70,0,0
12782,-100,4,1,1,70,0,0
13007,-100,4,2,1,70,0,0
13233,-100,4,1,1,70,0,0
13459,-100,4,2,1,70,0,0
13684,-100,4,1,1,70,0,0
13910,-100,4,2,1,70,0,0
14135,-100,4,1,1,70,0,0
14361,-100,4,2,1,70,0,0
14586,-100,4,1,1,70,0,0
14812,-100,4,2,1,70,0,0
15038,-100,4,1,1,60,0,0
15263,-100,4,2,1,60,0,0
15489,-100,4,1,1,60,0,0
15714,-100,4,2,1,60,0,0
15940,-100,4,1,1,60,0,0
16165,-100,4,2,1,60,0,0
16391,-100,4,1,1,60,0,0
16616,-100,4,2,1,60,0,0
16842,-100,4,1,1,60,0,0
17068,-100,4,2,1,60,0,0
17293,-100,4,1,1,60,0,0
17519,-100,4,2,1,60,0,0
17744,-100,4,1,1,60,0,0
17970,-100,4,2,1,60,0,0
18195,-100,4,1,1,60,0,0
18421,-100,4,2,1,60,0,0
18647,-100,4,1,1,60,0,0
18872,-100,4,2,1,60,0,0
19098,-100,4,1,1,60,0,0
19323,-100,4,2,1,60,0,0
19549,-100,4,1,1,60,0,0
19774,-100,4,2,1,60,0,0
20000,-100,4,1,1,60,0,0
20225,-100,4,2,1,60,0,0
20451,-100,4,1,1,60,0,0
20677,-100,4,2,1,60,0,0
20902,-100,4,1,1,60,0,0
21128,-100,4,2,1,60,0,0
21353,-100,4,1,1,60,0,0
21579,-100,4,2,1,60,0,0
21804,-100,4,1,1,60,0,0
22030,-100,4,2,1,60,0,0
22256,-100,4,1,1,60,0,0
22481,-100,4,2,1,60,0,0
22707,-100,4,1,1,60,0,0
22932,-100,4,2,1,60,0,0
23158,-100,4,1,1,60,0,0
23383,-100,4,2,1,60,0,0
23609,-100,4,1,1,60,0,0
23834,-100,4,2,1,60,0,0
24060,-100,4,1,1,60,0,0
24286,-100,4,2,1,60,0,0
24511,-100,4,1,1,60,0,0
24737,-100,4,2,1,60,0,0
24962,-100,4,1,1,60,0,0
25188,-100,4,2,1,60,0,0
25413,-100,4,1,1,60,0,0
25639,-100,4,2,1,60,0,0
25865,-100,4,1,1,60,0,0
26090,-100,4,2,1,60,0,0
26316,-100,4,1,1,60,0,0
26541,-100,4,2,1,60,0,0
26767,-100,4,1,1,60,0,0
26992,-100,4,2,1,60,0,0
27218,-100,4,1,1,60,0,0
27443,-100,4,2,1,60,0,0
27669,-100,4,1,1,60,0,0
27895,-100,4,2,1,60,0,0
28120,-100,4,1,1,60,0,0
28346,-100,4,2,1,60,0,0
28571,-100,4,1,1,60,0,0
28797,-100,4,2,1,60,0,0
29022,-100,4,1,1,60,0,0
29248,-100,4,2,1,60,0,0
29474,-100,4,1,1,60,0,0
29699,-100,4,2,1,60,0,0
29925,-100,4,1,1,60,0,0
30150,-100,4,2,1,60,0,0
30376,-100,4,1,1,60,0,0
30601,-100,4,2,1,60,0,0
30827,-100,4,1,1,60,0,0
31052,-100,4,2,1,60,0,0
31278,-100,4,1,1,60,0,0
31504,-100,4,2,1,60,0,0
31729,-100,4,1,1,60,0,0
31955,-100,4,2,1,60,0,0
32180,-100,4,1,1,60,0,0
32406,-100,4,2,1,60,0,0
32631,-100,4,1,1,60,0,0
32857,-100,4,2,1,60,0,0
33083,-100,4,1,1,60,0,0
33308,-100,4,2,1,60,0,0
33534,-100,4,1,1,60,0,0
33759,-100,4,2,1,60,0,0
33985,-100,4,1,1,60,0,0
34210,-100,4,2,1,60,0,0
34436,-100,4,1,1,60,0,0
34661,-100,4,2,1,60,0,0
34887,-100,4,1,1,60,0,0
35113,-100,4,2,1,60,0,0
35338,-100,4,1,1,60,0,0
35564,-100,4,2,1,60,0,0
35789,-100,4,1,1,60,0,0
36015,-100,4,2,1,60,0,0
36240,-100,4,1,1,60,0,0
36466,-100,4,2,1,60,0,0
36692,-100,4,1,1,60,0,0
36917,-100,4,2,1,60,0,0
37143,-100,4,1,1,60,0,0
37368,-100,4,2,1,60,0,0
37594,-100,4,1,1,60,0,0
37819,-100,4,2,1,60,0,0
38045,-100,4,1,1,60,0,0
38270,-100,4,2,1,60,0,0
38496,-100,4,1,1,60,0,0
38722,-100,4,2,1,60,0,0
38947,-100,4,1,1,60,0,0
39173,-100,4,2,1,60,0,0
39398,-100,4,1,1,60,0,0
39624,-100,4,2,1,60,0,0
39849,-100,4,1,1,60,0,0
40075,-100,4,2,1,60,0,0
40301,-100,4,2,2,60,0,0
41203,-100,4,1,1,60,0,0
41428,-100,4,2,2,60,0,0
41654,-100,4,1,1,60,0,0
42105,-100,4,2,2,60,0,0
42331,-100,4,2,1,60,0,0
42556,-100,4,1,1,60,0,0
42782,-100,4,2,2,60,0,0
43007,-100,4,1,1,60,0,0
43233,-100,4,2,2,60,0,0
43910,-125,4,2,1,60,0,0
51128,-100,4,1,1,60,0,0
51353,-100,4,2,1,60,0,0
51579,-100,4,1,1,60,0,0
51804,-100,4,2,1,60,0,0
52030,-100,4,1,1,60,0,0
52255,-100,4,2,1,60,0,0
52481,-100,4,1,1,60,0,0
52706,-100,4,2,1,60,0,0
52932,-100,4,1,1,60,0,0
53158,-100,4,2,1,60,0,0
53383,-100,4,1,1,60,0,0
53609,-100,4,2,1,60,0,0
53834,-100,4,1,1,60,0,0
54060,-100,4,2,1,60,0,0
54285,-100,4,1,1,60,0,0
54511,-100,4,2,1,60,0,0
54737,-100,4,1,1,60,0,0
54962,-100,4,2,1,60,0,0
55188,-100,4,1,1,60,0,0
55414,-100,4,2,1,60,0,0
55639,-100,4,2,2,60,0,0
56992,-100,4,1,1,30,0,0
57218,-100,4,2,1,60,0,0
57443,-100,4,1,1,60,0,0
57669,-100,4,2,1,60,0,0
57894,-100,4,2,2,60,0,0
58120,-100,4,2,1,60,0,0
58571,-100,4,2,2,60,0,0
59248,-100,4,2,1,60,0,0
60150,-100,4,1,1,70,0,1
60376,-100,4,2,1,70,0,1
60601,-100,4,1,1,70,0,1
60827,-100,4,2,1,70,0,1
61052,-100,4,1,1,70,0,1
61278,-100,4,2,1,70,0,1
61503,-100,4,1,1,70,0,1
61729,-100,4,2,1,70,0,1
61955,-100,4,1,1,70,0,1
62180,-100,4,2,1,70,0,1
62406,-100,4,1,1,70,0,1
62631,-100,4,2,1,70,0,1
62857,-100,4,1,1,70,0,1
63082,-100,4,2,1,70,0,1
63308,-100,4,1,1,70,0,1
63533,-100,4,2,1,70,0,1
63759,-100,4,1,1,70,0,1
63985,-100,4,2,1,70,0,1
64210,-100,4,1,1,70,0,1
64436,-100,4,2,1,70,0,1
64661,-100,4,1,1,70,0,1
64887,-100,4,2,1,70,0,1
65112,-100,4,1,1,70,0,1
65338,-100,4,2,1,70,0,1
65564,-100,4,1,1,70,0,1
65789,-100,4,2,1,70,0,1
66015,-100,4,1,1,70,0,1
66240,-100,4,2,1,70,0,1
66466,-100,4,1,1,70,0,1
66691,-100,4,2,1,70,0,1
66917,-100,4,1,1,70,0,1
67142,-100,4,2,1,70,0,1
67368,-100,4,1,1,70,0,1
67594,-100,4,2,1,70,0,1
67819,-100,4,1,1,70,0,1
68045,-100,4,2,1,70,0,1
68270,-100,4,1,1,70,0,1
68496,-100,4,2,1,70,0,1
68721,-100,4,1,1,70,0,1
68947,-100,4,2,1,70,0,1
69173,-100,4,1,1,70,0,1
69398,-100,4,2,1,70,0,1
69624,-100,4,1,1,70,0,1
69849,-100,4,2,1,70,0,1
70075,-100,4,1,1,70,0,1
70300,-100,4,2,1,70,0,1
70526,-100,4,1,1,70,0,1
70751,-100,4,2,1,70,0,1
70977,-100,4,1,1,70,0,1
71203,-100,4,2,2,70,0,1
71429,-100,4,1,1,70,0,1
71654,-100,4,2,2,70,0,1
71879,-100,4,1,1,70,0,1
72105,-100,4,2,2,70,0,1
72330,-100,4,1,1,70,0,1
72556,-100,4,2,2,70,0,1
72782,-100,4,1,1,70,0,1
73007,-100,4,2,2,70,0,1
73458,-100,4,2,1,35,0,1
73684,-100,4,1,1,70,0,1
73909,-100,4,2,1,70,0,1
74135,-100,4,2,2,70,0,1
74360,-100,4,2,1,70,0,1
74474,-100,4,2,1,70,0,0
74586,-100,4,1,1,70,0,1
74812,-100,4,2,1,70,0,1
75037,-100,4,1,1,70,0,1
75263,-100,4,2,1,70,0,1
75488,-100,4,1,1,70,0,1
75714,-100,4,2,1,70,0,1
75939,-100,4,1,1,70,0,1
76165,-100,4,2,1,70,0,1
76391,-100,4,1,1,70,0,1
76616,-100,4,2,1,70,0,1
76842,-100,4,1,1,70,0,1
77067,-100,4,2,1,70,0,1
77293,-100,4,1,1,70,0,1
77518,-100,4,2,1,70,0,1
77744,-100,4,1,1,70,0,1
77969,-100,4,2,1,70,0,1
78195,-100,4,1,1,70,0,1
78421,-100,4,2,1,70,0,1
78646,-100,4,1,1,70,0,1
78872,-100,4,2,1,70,0,1
79097,-100,4,1,1,70,0,1
79323,-100,4,2,1,70,0,1
79548,-100,4,1,1,70,0,1
79774,-100,4,2,1,70,0,1
80000,-100,4,1,1,70,0,1
80225,-100,4,2,1,70,0,1
80451,-100,4,1,1,70,0,1
80676,-100,4,2,1,70,0,1
80902,-100,4,1,1,70,0,1
81127,-100,4,2,1,70,0,1
81353,-100,4,1,1,70,0,1
81578,-100,4,2,1,70,0,1
81804,-100,4,1,1,70,0,1
82030,-100,4,2,1,70,0,1
82255,-100,4,1,1,70,0,1
82481,-100,4,2,1,70,0,1
82706,-100,4,1,1,70,0,1
82932,-100,4,2,1,70,0,1
83157,-100,4,1,1,70,0,1
83383,-100,4,2,1,70,0,1
83609,-100,4,1,1,70,0,1
83834,-100,4,2,1,70,0,1
84060,-100,4,1,1,70,0,1
84285,-100,4,2,1,70,0,1
84511,-100,4,1,1,70,0,1
84736,-100,4,2,1,70,0,1
84962,-100,4,1,1,70,0,1
85187,-100,4,2,1,70,0,1
85413,-100,4,1,1,70,0,1
85639,-100,4,2,1,70,0,1
85864,-100,4,1,1,70,0,1
86090,-100,4,2,1,70,0,1
86315,-100,4,1,1,70,0,1
86541,-100,4,2,1,70,0,1
86766,-100,4,1,1,70,0,1
86992,-100,4,2,1,70,0,1
87218,-100,4,1,1,70,0,0

[Colours]
Combo1 : 128,255,255
Combo2 : 255,255,128
Combo3 : 255,128,128
Combo4 : 128,255,128

[HitObjects]
96,48,602,6,0,B|112:80|112:80|88:184,1,128,4|2,0:2|0:0,0:0:0:0:
144,240,1278,1,2,2:0:0:0:
224,208,1504,2,0,L|296:216,1,64,0|2,0:0|2:0,0:0:0:0:
128,320,1955,2,0,P|96:312|72:280,1,64,0|2,0:0|2:0,0:0:0:0:
320,296,2406,6,0,P|280:336|208:344,1,128
112,264,3083,1,0,2:0:0:0:
184,160,3308,2,0,L|272:152,1,64,2|0,0:0|2:0,0:0:0:0:
144,32,3759,2,0,L|232:40,1,64,2|0,0:0|2:0,0:0:0:0:
288,224,4211,6,0,P|232:256|168:240,1,128,2|2,0:0|0:0,0:0:0:0:
128,168,4887,1,2,2:0:0:0:
344,288,5113,2,0,L|336:376,1,64,0|2,0:0|2:0,0:0:0:0:
424,192,5564,1,0,0:0:0:0:
421,160,5676,1,0,2:0:0:0:
418,128,5789,1,2,2:0:0:0:
296,24,6015,6,0,P|256:16|224:24,1,64,0|2,0:0|2:0,0:0:0:0:
128,136,6466,1,2,0:0:0:0:
280,168,6692,1,2,2:0:0:0:
128,56,6917,2,0,P|80:64|48:112,1,96,2|0,0:0|2:0,0:0:0:0:
56,176,7368,2,0,L|59:201,7,16,2|2|2|2|2|2|2|2,0:0|0:0|0:0|0:0|0:0|0:0|0:0|0:0,0:0:0:0:
88,208,7820,6,0,L|80:288,1,80,4|2,0:0|0:0,0:0:0:0:
144,360,8271,1,8,0:0:0:0:
296,320,8496,1,0,0:0:0:0:
296,320,8609,1,0,0:0:0:0:
296,320,8722,2,0,P|256:304|216:312,1,80
128,240,9173,1,10,0:0:0:0:
192,64,9398,2,0,L|184:152,1,80,2|0,0:0|0:0,0:0:0:0:
264,304,9850,5,0,0:0:0:0:
264,304,9962,1,0,0:0:0:0:
264,304,10075,2,0,P|288:312|352:304,1,80,8|0,0:0|0:0,0:0:0:0:
420,253,10526,1,0,0:0:0:0:
368,97,10752,1,0,0:0:0:0:
212,149,10977,1,10,0:0:0:0:
264,304,11203,1,2,0:0:0:0:
456,184,11429,6,0,P|408:176|360:208,1,80
336,264,11880,1,8,0:0:0:0:
416,88,12105,1,0,0:0:0:0:
416,88,12218,1,0,0:0:0:0:
416,88,12331,2,0,L|408:8,1,80
360,160,12782,1,8,0:0:0:0:
112,128,13008,6,0,B|176:120|176:120|208:136|208:136|272:128,1,160,4|0,1:0|1:0,0:0:0:0:
160,208,13684,2,0,L|64:220,1,80,4|0,0:2|1:0,0:0:0:0:
192,128,14135,1,0,0:0:0:0:
224,48,14361,2,0,L|320:36,1,80,4|8,0:0|0:0,0:0:0:0:
432,248,14812,2,0,L|440:208,1,40,8|8,0:1|0:1,0:0:0:0:
400,264,15038,6,0,P|328:280|272:224,1,160,4|0,0:0|0:0,0:0:0:0:
304,144,15714,1,0,0:0:0:0:
192,256,15940,2,0,P|128:256|104:248,1,80
80,112,16391,2,0,P|144:112|168:120,1,80
272,224,16842,6,0,L|256:344,1,120
264,360,17293,1,2,0:0:0:0:
424,344,17519,2,0,P|392:328|344:328,1,80,0|2,0:0|0:0,0:0:0:0:
176,184,17970,2,0,P|144:200|96:200,1,80
32,144,18421,1,0,0:0:0:0:
88,8,18647,6,0,L|96:96,1,80,2|0,0:0|0:0,0:0:0:0:
176,184,19098,1,0,0:0:0:0:
296,136,19323,2,0,P|320:128|392:144,1,80
336,216,19774,1,0,0:0:0:0:
216,80,20000,2,0,P|136:64|56:88,1,160
61,84,20902,5,2,0:0:0:0:
24,288,21128,2,0,P|40:248|40:208,1,80,2|0,0:0|0:0,0:0:0:0:
152,160,21579,2,0,P|168:200|168:240,1,80
224,312,22030,1,0,0:0:0:0:
312,280,22256,6,0,L|432:296,1,120,2|0,0:0|0:0,0:0:0:0:
480,224,22707,2,0,L|400:213,1,80
312,144,23158,2,0,P|296:88|360:8,1,160
384,96,23835,1,0,0:0:0:0:
256,208,24060,6,0,L|136:200,1,120
72,152,24511,2,0,P|64:104|80:64,1,80
64,232,24962,2,0,P|72:280|56:320,1,80
240,360,25414,2,0,L|232:272,1,80
296,208,25865,5,2,0:0:0:0:
392,224,26090,1,0,0:0:0:0:
448,304,26316,2,0,P|392:360|312:344,1,160
224,200,26992,1,0,0:0:0:0:
224,200,27105,1,0,0:0:0:0:
224,200,27218,2,0,L|232:120,1,80
160,264,27669,6,0,P|112:288|80:288,1,80,0|8,0:0|0:1,0:0:0:0:
24,232,28120,1,8,0:0:0:0:
192,352,28346,1,2,0:0:0:0:
216,344,28459,1,2,0:0:0:0:
240,336,28571,1,8,2:1:0:0:
352,208,28797,1,8,2:1:0:0:
248,72,29023,2,0,L|256:104,7,20,2|2|2|2|2|2|2|2,0:0|2:0|2:0|2:0|1:0|0:0|0:0|0:0,0:0:0:0:
216,56,29474,6,0,B|192:40|192:40|152:64|96:48,1,120,4|0,0:0|0:0,0:0:0:0:
48,112,29925,2,0,P|80:128|128:128,1,80,8|0,0:0|0:0,0:0:0:0:
128,272,30376,2,0,P|157:252|181:210,1,80,0|0,0:0|0:0,0:0:0:0:
304,288,30827,2,0,P|301:252|277:210,1,80,8|0,0:0|0:0,0:0:0:0:
360,352,31278,6,0,L|488:344,1,120
504,328,31729,1,8,0:0:0:0:
352,168,31955,2,0,P|312:168|272:192,1,80
192,280,32406,1,0,0:0:0:0:
152,160,32632,2,0,L|160:80,1,80,8|0,0:0|0:0,0:0:0:0:
72,248,33083,6,0,L|80:328,1,80,2|0,0:0|0:0,0:0:0:0:
176,368,33534,1,8,0:0:0:0:
344,312,33759,2,0,P|288:312|264:328,1,80,0|2,0:0|0:0,0:0:0:0:
328,216,34211,2,0,P|356:167|354:138,1,80,0|8,0:0|0:0,0:0:0:0:
424,248,34662,2,0,P|452:296|477:309,1,80,0|2,0:0|0:0,0:0:0:0:
328,216,35113,5,0,0:0:0:0:
312,200,35226,1,0,0:0:0:0:
288,192,35338,2,0,P|248:192|208:208,1,80,8|0,0:0|0:0,0:0:0:0:
240,352,35789,2,0,P|280:352|320:336,1,80,0|0,0:0|0:0,0:0:0:0:
384,256,36241,1,8,0:0:0:0:
368,152,36466,1,0,0:0:0:0:
272,112,36692,6,0,P|192:128|160:200,1,160,2|8,0:0|0:0,0:0:0:0:
208,272,37368,1,0,0:0:0:0:
336,200,37594,2,0,L|256:192,1,80,2|0,0:0|0:0,0:0:0:0:
400,328,38045,2,0,L|320:336,1,80,8|2,0:0|0:0,0:0:0:0:
432,248,38496,6,0,P|480:288|480:352,1,120,2|2,0:0|0:0,0:0:0:0:
352,256,38947,2,0,P|360:216|392:184,1,80,8|2,0:0|0:0,0:0:0:0:
280,304,39398,2,0,L|192:296,1,80,2|0,0:0|0:0,0:0:0:0:
24,232,39850,2,0,L|112:224,1,80,10|0,0:0|0:0,0:0:0:0:
216,88,40301,5,0,0:0:0:0:
212,62,40414,1,0,0:0:0:0:
209,37,40526,1,0,0:0:0:0:
288,168,40752,2,8,P|304:176|368:176,1,80,0|0,2:1|0:1,0:0:0:0:
336,96,41203,1,0,0:0:0:0:
184,192,41429,2,0,L|176:272,1,80,0|2,0:0|0:0,0:0:0:0:
384,312,41880,6,0,P|328:288|264:296,1,120
216,344,42331,1,0,1:0:0:0:
280,192,42556,2,0,L|264:112,1,80
456,248,43008,2,0,L|472:168,1,80,0|4,0:0|0:0,0:0:0:0:
320,304,43459,1,0,0:0:0:0:
184,264,43684,1,0,0:0:0:0:
184,264,43797,1,0,0:0:0:0:
184,264,43910,6,0,L|112:272,1,64,2|0,1:0|1:0,0:0:0:0:
16,72,44361,1,8,0:0:0:0:
152,184,44586,2,0,P|88:192|40:144,1,128,2|0,1:0|0:0,0:0:0:0:
120,104,45150,2,0,L|112:120,2,16,0|0|8,0:0|0:0|0:0,0:0:0:0:
248,200,45489,1,0,0:0:0:0:
256,192,45601,1,0,0:0:0:0:
264,184,45714,6,0,P|312:184|328:192,1,64,2|0,1:0|1:0,0:0:0:0:
360,272,46165,1,8,0:0:0:0:
456,88,46391,2,0,B|448:136|448:136|424:160|424:160|416:208,1,128,2|0,1:0|0:0,0:0:0:0:
377,92,46955,2,0,L|382:68,2,16,0|0|8,0:0|0:0|0:0,0:0:0:0:
296,200,47293,1,0,0:0:0:0:
168,152,47519,6,0,L|104:152,1,64,4|0,1:2|1:0,0:0:0:0:
40,96,47970,1,8,0:0:0:0:
216,224,48195,2,0,P|248:184|240:112,1,128,2|0,1:0|0:0,0:0:0:0:
330,159,48759,2,0,P|341:162|354:162,2,16,0|0|8,0:0|0:0|0:0,0:0:0:0:
432,296,49098,1,0,0:0:0:0:
432,296,49211,1,0,0:0:0:0:
432,296,49323,6,0,L|444:227,1,64,2|0,1:0|1:0,0:0:0:0:
456,144,49774,1,8,0:0:0:0:
360,344,50000,2,0,P|296:352|240:320,1,128,2|2,1:0|0:0,0:0:0:0:
208,256,50564,1,0,0:0:0:0:
240,192,50677,2,0,L|232:168,7,16,0|0|0|0|0|0|0|0,1:0|0:0|0:0|0:0|1:0|0:0|0:0|0:0,0:0:0:0:
256,136,51128,6,0,P|288:120|336:120,1,80,4|2,0:0|0:0,0:0:0:0:
456,72,51579,2,8,P|485:91|509:133,1,80,8|2,0:0|0:0,0:0:0:0:
464,272,52030,1,0,0:0:0:0:
256,224,52256,2,0,L|336:216,1,80,2|8,0:0|0:0,0:0:0:0:
152,304,52707,2,0,L|72:296,1,80,2|0,0:0|0:0,0:0:0:0:
24,208,53158,5,2,0:0:0:0:
88,128,53383,2,0,P|88:88|64:48,1,80,8|2,0:0|0:0,0:0:0:0:
168,200,53835,1,0,0:0:0:0:
200,192,53947,1,0,2:0:0:0:
232,184,54060,1,2,0:0:0:0:
376,328,54286,2,0,P|336:328|304:304,1,80,8|2,0:0|0:0,0:0:0:0:
312,312,54624,1,0,0:0:0:0:
312,312,54737,6,0,L|327:230,1,80,4|2,0:2|0:0,0:0:0:0:
192,56,55188,2,0,L|207:137,1,80,8|2,0:0|0:0,0:0:0:0:
128,240,55639,1,0,0:0:0:0:
128,240,56090,1,0,0:0:0:0:
64,48,56316,1,0,0:0:0:0:
56,72,56429,1,0,0:0:0:0:
48,96,56541,5,0,0:0:0:0:
272,184,56767,2,0,L|352:176,1,80,0|8,0:0|0:0,0:0:0:0:
224,280,57218,2,0,L|64:296,1,160,0|0,1:0|1:0,0:0:0:0:
0,144,57895,2,0,P|24:128|80:128,1,80,0|0,0:0|1:0,0:0:0:0:
245,288,58346,5,0,0:0:0:0:
222,62,58571,1,0,0:0:0:0:
376,240,58797,1,0,0:0:0:0:
152,184,59023,1,0,0:0:0:0:
358,91,59248,1,2,0:0:0:0:
358,91,59699,2,0,L|350:51,2,26.6666666666667,2|0|2,0:0|0:0|0:0,0:0:0:0:
390,68,59925,2,0,L|403:29,2,26.6666666666667,0|2|0,0:0|0:0|0:0,0:0:0:0:
425,78,60150,6,0,P|465:62|505:70,1,80,4|2,1:0|0:0,0:0:0:0:
473,158,60601,1,8,1:0:0:0:
343,235,60827,1,0,0:0:0:0:
343,235,60940,1,0,0:0:0:0:
343,235,61053,1,0,0:0:0:0:
200,176,61278,2,0,P|192:136|200:88,1,80,2|8,0:0|1:0,0:0:0:0:
160,336,61729,1,2,0:0:0:0:
152,344,61842,1,0,0:0:0:0:
144,352,61955,6,0,P|96:352|64:336,1,80,0|2,1:0|0:0,0:0:0:0:
56,208,62406,1,8,1:0:0:0:
152,104,62632,1,2,0:0:0:0:
312,248,62857,1,0,1:0:0:0:
287,244,62970,1,0,2:0:0:0:
262,239,63083,1,2,2:0:0:0:
237,236,63195,1,0,0:0:0:0:
211,232,63308,1,8,1:0:0:0:
368,312,63534,1,2,0:0:0:0:
432,120,63759,6,0,B|400:96|352:112,1,80,0|2,0:0|0:0,0:0:0:0:
296,176,64211,1,8,0:0:0:0:
376,280,64436,2,0,L|384:200,1,80,2|0,0:0|0:0,0:0:0:0:
304,336,64887,2,0,P|272:352|216:344,1,80,2|8,0:0|0:0,0:0:0:0:
208,208,65338,2,0,P|237:227|258:280,1,80,2|0,0:0|0:0,0:0:0:0:
144,352,65789,6,0,P|146:316|181:271,1,80,2|8,0:0|0:0,0:0:0:0:
312,192,66241,2,0,P|344:175|400:183,1,80,2|0,0:0|0:0,0:0:0:0:
360,256,66692,1,2,0:0:0:0:
264,128,66917,2,0,L|272:48,1,80,8|2,0:0|0:0,0:0:0:0:
256,32,67256,1,0,0:0:0:0:
232,24,67368,6,0,P|200:16|152:24,1,80,4|2,0:2|0:0,0:0:0:0:
88,120,67820,1,8,0:0:0:0:
160,208,68045,2,0,P|199:215|237:207,1,80,2|0,0:2|0:0,0:0:0:0:
400,168,68496,2,0,P|439:160|477:168,1,80,2|8,0:2|0:0,0:0:0:0:
424,328,68947,1,2,0:0:0:0:
424,328,69060,1,0,0:0:0:0:
424,328,69173,6,0,L|440:248,1,80,0|2,0:0|0:0,0:0:0:0:
304,176,69624,2,0,L|320:256,1,80,8|2,0:0|0:0,0:0:0:0:
256,328,70075,1,0,0:0:0:0:
168,288,70301,1,2,0:0:0:0:
176,192,70526,1,8,0:0:0:0:
272,176,70752,2,0,P|312:176|344:200,1,80,2|0,0:0|0:0,0:0:0:0:
376,288,71203,5,0,0:0:0:0:
104,232,71429,1,2,0:3:0:0:
288,24,71654,1,0,0:0:0:0:
296,48,71767,1,0,0:0:0:0:
304,72,71880,1,0,0:0:0:0:
432,216,72105,2,0,P|472:216|512:192,1,80,0|8,0:0|0:0,0:0:0:0:
376,288,72556,2,0,L|296:280,1,80,4|0,0:0|0:0,0:0:0:0:
208,368,73008,6,0,L|174:294,1,80,0|0,0:0|0:3,0:0:0:0:
56,264,73459,1,0,0:1:0:0:
79,231,73571,1,0,0:1:0:0:
102,199,73684,1,0,0:0:0:0:
48,88,73910,2,0,L|127:95,1,80,2|4,0:0|0:0,0:0:0:0:
296,40,74361,1,2,0:0:0:0:
352,208,74586,6,0,P|320:232|272:232,1,80,4|2,0:0|0:0,0:0:0:0:
216,176,75038,1,8,0:0:0:0:
144,312,75263,2,0,L|152:224,1,80,2|0,0:0|0:0,0:0:0:0:
40,96,75714,2,0,L|48:184,1,80,2|8,0:0|0:0,0:0:0:0:
144,312,76165,1,2,0:0:0:0:
168,320,76278,1,0,0:0:0:0:
192,328,76391,6,0,P|248:328|272:312,1,80,0|2,0:0|0:0,0:0:0:0:
248,176,76842,2,0,P|220:224|221:253,1,80,8|2,0:0|0:0,0:0:0:0:
352,296,77293,2,0,P|324:247|298:234,1,80,0|2,0:0|0:0,0:0:0:0:
264,96,77744,2,0,P|208:95|184:112,1,80,8|2,0:0|0:0,0:0:0:0:
56,56,78195,6,0,L|48:144,1,80,0|2,0:0|0:0,0:0:0:0:
96,240,78647,1,8,0:0:0:0:
200,200,78872,2,0,P|248:200|280:216,1,80,2|0,0:0|0:0,0:0:0:0:
256,328,79323,2,0,P|208:328|176:312,1,80,2|8,0:0|0:0,0:0:0:0:
120,128,79774,2,0,L|128:40,1,80,2|0,0:0|0:0,0:0:0:0:
160,208,80226,5,2,0:0:0:0:
248,224,80451,1,8,0:0:0:0:
312,160,80677,2,0,P|368:152|408:168,1,80,2|0,0:0|0:0,0:0:0:0:
360,296,81128,1,2,0:0:0:0:
360,296,81241,1,0,0:0:0:0:
360,296,81353,1,8,0:0:0:0:
224,136,81579,1,2,0:0:0:0:
160,328,81805,6,0,L|80:320,1,80,4|2,0:0|0:0,0:0:0:0:
8,160,82256,2,0,L|88:168,1,80,8|2,0:0|0:0,0:0:0:0:
112,160,82594,1,0,0:0:0:0:
136,152,82707,1,0,0:0:0:0:
240,304,82932,2,0,P|240:360|224:384,1,80,2|8,0:0|0:0,0:0:0:0:
304,232,83383,2,0,L|392:240,1,80,2|0,0:0|0:0,0:0:0:0:
488,96,83835,6,0,L|408:88,1,80,2|8,0:0|0:0,0:0:0:0:
220,232,84286,1,2,0:0:0:0:
216,256,84399,1,0,0:0:0:0:
213,281,84511,1,0,0:0:0:0:
144,96,84737,1,2,0:0:0:0:
140,72,84850,1,0,0:0:0:0:
137,47,84962,1,8,0:0:0:0:
96,224,85188,1,2,0:0:0:0:
256,136,85414,6,0,P|304:128|360:144,1,80,0|4,0:0|0:0,0:0:0:0:
384,208,85865,1,8,0:0:0:0:
448,144,86090,2,0,L|432:64,1,80,2|0,0:0|0:0,0:0:0:0:
408,288,86541,2,0,L|485:314,1,80,2|8,0:0|0:0,0:0:0:0:
296,192,86992,2,0,L|234:245,1,80,2|0,0:0|0:0,3:0:0:0:
