osu file format v13

[General]
AudioFilename: ray.mp3
AudioLeadIn: 1500
PreviewTime: 59058
Countdown: 0
SampleSet: Soft
StackLeniency: 0.7
Mode: 0
LetterboxInBreaks: 0
WidescreenStoryboard: 0

[Editor]
DistanceSpacing: 1.2
BeatDivisor: 4
GridSize: 4
TimelineZoom: 1

[Metadata]
Title:lull ~Soshite Bokura wa~ [TV Size]
TitleUnicode:lull~そして僕らは~ [TV Size]
Artist:Ray
ArtistUnicode:Ray
Creator:AliomLoung
Version:Hard
Source:Nagi no Asukara
Tags:凪のあすから romance drama comedy fantasy sea life world Opening Op ts8zs JUDYDANNY yf_bmp
BeatmapID:371522
BeatmapSetID:150578

[Difficulty]
HPDrainRate:6
CircleSize:4
OverallDifficulty:6
ApproachRate:7
SliderMultiplier:1.5
SliderTickRate:1

[Events]
//Background and Video events
0,0,"iUdHAoC.jpg",0,0
Video,0,"TV video.flv"
//Break Periods
//Storyboard Layer 0 (Background)
//Storyboard Layer 1 (Fail)
//Storyboard Layer 2 (Pass)
//Storyboard Layer 3 (Foreground)
//Storyboard Sound Samples
//Background Colour Transformations
3,100,163,162,255

[TimingPoints]
186,451.127819548872,4,2,1,50,1,0
637,-100,4,2,1,60,0,0
12140,-100,4,2,2,60,0,0
12592,-100,4,2,1,65,0,0
13268,-100,4,2,1,55,0,0
13945,-100,4,2,1,50,0,0
14622,-100,4,2,1,55,0,0
18569,-100,4,2,1,70,0,0
18795,-100,4,2,1,55,0,0
27704,-100,4,2,2,65,0,0
29058,-100,4,2,1,55,0,0
39885,-100,4,2,2,65,0,0
43494,-133.333333333333,4,2,1,55,0,0
47103,-133.333333333333,4,2,1,45,0,0
47216,-133.333333333333,4,2,1,55,0,0
50712,-100,4,2,2,55,0,0
50825,-100,4,2,1,65,0,0
54998,-100,4,2,2,65,0,0
57704,-100,4,2,1,65,0,0
57930,-100,4,2,2,45,0,0
59734,-100,4,2,1,65,0,1
66952,-100,4,2,1,50,0,1
67065,-100,4,2,1,65,0,1
70561,-100,4,2,2,65,0,1
73043,-100,4,2,2,65,0,0
74170,-100,4,2,1,65,0,1
81389,-100,4,2,1,60,0,1
81501,-100,4,2,1,65,0,1
87028,-100,4,2,1,50,0,1
88381,-100,4,2,2,40,0,0

[Colours]
Combo1 : 121,192,251
Combo2 : 73,66,221
Combo3 : 255,255,255

[HitObjects]
80,100,186,6,0,P|144:80|224:104,1,150,4|8,0:0|0:0,0:0:0:0:
284,168,862,1,0,0:0:0:0:
220,232,1088,2,0,P|148:252|78:229,1,150,8|8,0:0|0:0,0:0:0:0:
80,100,1990,1,8,0:0:0:0:
220,232,2441,1,8,0:0:0:0:
220,100,2892,2,0,P|284:80|364:112,1,150,8|8,0:0|0:0,0:0:0:0:
366,281,3795,6,0,P|297:245|297:159,1,150,8|8,0:0|0:0,0:0:0:0:
360,204,4471,2,0,L|315:237|216:312,1,150
296,144,5148,1,8,0:0:0:0:
360,204,5373,1,0,0:0:0:0:
384,117,5599,6,0,L|449:52,1,75,8|0,0:0|0:0,0:0:0:0:
296,144,6050,2,0,L|208:204,1,75,8|0,0:0|0:0,0:0:0:0:
228,276,6501,1,8,0:0:0:0:
228,276,6952,2,0,L|256:300,5,25
188,292,7404,6,0,P|152:300|116:292,1,75,4|0,0:0|0:0,0:0:0:0:
40,244,7855,1,2,0:0:0:0:
40,244,8080,1,0,0:0:0:0:
44,152,8306,2,0,P|56:120|92:88,1,75
196,108,8757,1,2,0:0:0:0:
130,169,8982,1,0,0:0:0:0:
216,196,9208,6,0,P|252:204|288:195,1,75
356,253,9659,1,2,0:0:0:0:
356,253,9885,1,0,0:0:0:0:
288,312,10110,2,0,P|252:302|215:311,1,75
120,255,10561,1,2,0:0:0:0:
204,221,10787,1,0,0:0:0:0:
120,255,11013,6,0,P|79:194|72:120,1,150,0|2,0:0|0:0,0:0:0:0:
138,59,11689,1,0,0:0:0:0:
226,47,11915,1,0,0:0:0:0:
314,59,12140,1,4,0:0:0:0:
314,59,12253,1,0,0:0:0:0:
314,59,12366,1,0,0:0:0:0:
379,121,12592,6,0,P|371:194|330:256,1,150,4|0,0:0|0:0,0:0:0:0:
303,342,13268,2,0,P|262:315|247:290,1,75,4|0,0:0|0:0,0:0:0:0:
204,215,13719,1,8,0:0:0:0:
160,294,13945,2,0,P|137:324|105:342,1,75,4|8,0:0|0:0,0:0:0:0:
78,257,14396,5,0,0:0:0:0:
78,257,14509,1,0,0:0:0:0:
78,257,14622,2,0,P|94:175|169:144,1,150,4|8,0:0|0:0,0:0:0:0:
310,132,15298,1,0,0:0:0:0:
310,132,15524,2,0,P|275:196|205:215,1,150,8|8,0:0|0:0,0:0:0:0:
220,126,16201,1,0,0:0:0:0:
140,164,16426,6,0,P|123:222|179:291,1,150,8|8,0:0|0:0,0:0:0:0:
253,247,17103,1,0,0:0:0:0:
324,336,17328,2,0,L|249:336,1,75,8|0,0:0|0:0,0:0:0:0:
98,288,17779,2,0,L|174:289,1,75,8|0,0:0|0:0,0:0:0:0:
253,247,18231,6,0,B|347:247|347:247|412:215,2,150,8|8|8,0:0|0:0|0:0,0:0:0:0:
165,229,19358,1,0,0:0:0:0:
89,180,19584,2,0,P|81:131|104:93,1,75,8|0,0:0|0:0,0:0:0:0:
165,58,20035,6,0,P|237:38|317:66,1,150,8|8,0:0|0:0,0:0:0:0:
337,144,20712,1,0,0:0:0:0:
307,228,20937,2,0,P|236:249|164:229,1,150,8|8,0:0|0:0,0:0:0:0:
88,280,21614,1,0,0:0:0:0:
80,192,21840,6,0,L|36:122,1,75,8|0,0:0|0:0,0:0:0:0:
84,48,22291,2,0,L|124:112,1,75,8|0,0:0|0:0,0:0:0:0:
192,172,22742,2,0,B|232:172|256:198|256:198|284:172|328:172,1,150,8|8,0:0|0:0,0:0:0:0:
368,252,23419,1,0,0:0:0:0:
388,112,23644,6,0,L|428:48,1,75,8|0,0:0|0:0,0:0:0:0:
471,128,24095,2,0,L|432:192,1,75,8|0,0:0|0:0,0:0:0:0:
368,252,24546,2,0,P|324:316|248:336,1,150,8|8,0:0|0:0,0:0:0:0:
180,288,25223,1,0,0:0:0:0:
105,338,25449,6,0,P|76:314|40:302,1,75,8|0,0:0|0:0,0:0:0:0:
41,212,25900,2,0,P|76:200|105:176,1,75,8|0,0:0|0:0,0:0:0:0:
105,86,26351,1,8,0:0:0:0:
194,86,26576,1,0,0:0:0:0:
199,176,26802,2,0,P|227:199|263:211,1,75,8|0,0:0|0:0,0:0:0:0:
332,152,27253,5,8,0:0:0:0:
328,284,27479,1,0,0:0:0:0:
392,220,27704,1,2,0:0:0:0:
328,284,27930,1,0,0:0:0:0:
328,284,28043,1,0,0:0:0:0:
328,284,28155,1,0,0:0:0:0:
266,217,28381,2,0,P|244:249|247:308,1,75,0|2,0:0|0:0,0:0:0:0:
20,348,29058,6,0,P|95:348|156:340,1,112.5,4|0,0:0|0:0,0:0:0:0:
176,348,29509,1,2,0:0:0:0:
256,318,29734,2,0,L|256:243,1,75,0|0,0:0|0:0,0:0:0:0:
332,192,30185,1,0,0:0:0:0:
256,144,30411,1,2,0:0:0:0:
180,192,30637,1,0,0:0:0:0:
180,280,30862,6,0,P|112:300|56:264,1,112.5
44,256,31313,1,2,0:0:0:0:
48,164,31539,2,0,B|83:150|83:150|107:122,1,75
168,56,31990,1,0,0:0:0:0:
256,32,32216,1,2,0:0:0:0:
344,56,32441,1,0,0:0:0:0:
404,123,32667,6,0,B|428:151|428:151|463:164,1,75
464,256,33118,2,0,B|428:269|428:269|404:297,2,75,2|0|0,0:0|0:0|0:0,0:0:0:0:
340,232,33795,1,0,0:0:0:0:
279,297,34020,1,2,0:0:0:0:
340,232,34246,1,0,0:0:0:0:
252,211,34471,6,0,P|217:199|193:170,1,75,0|0,0:0|0:0,0:0:0:0:
207,81,34922,2,0,P|242:93|265:121,1,75,2|0,0:0|0:0,0:0:0:0:
353,143,35373,1,0,0:0:0:0:
340,232,35599,1,0,0:0:0:0:
427,251,35825,2,0,P|458:270|476:303,1,75,2|0,0:0|0:0,0:0:0:0:
391,333,36276,5,0,0:0:0:0:
307,356,36501,1,0,0:0:0:0:
219,335,36727,2,0,B|143:348|143:348|54:348,1,150,2|0,0:0|0:0,0:0:0:0:
27,268,37404,1,0,0:0:0:0:
57,183,37629,1,2,0:0:0:0:
147,183,37855,1,0,0:0:0:0:
174,268,38080,6,0,P|212:244|236:180,1,112.5,0|0,0:0|0:0,0:0:0:0:
224,139,38531,1,2,0:0:0:0:
147,183,38757,2,0,L|47:215,2,75,0|0|0,0:0|0:0|0:0,0:0:0:0:
20,108,39434,2,0,L|95:108,1,75,2|0,0:0|0:0,0:0:0:0:
147,34,39885,5,2,0:0:0:0:
147,34,39998,1,0,0:0:0:0:
147,34,40110,1,0,0:0:0:0:
204,103,40336,1,2,0:0:0:0:
284,143,40561,1,2,0:0:0:0:
278,52,40787,1,2,0:0:0:0:
358,92,41013,2,0,P|410:88|454:100,2,75,0|8|0,0:0|0:0|0:0,0:0:0:0:
284,143,41689,5,8,0:0:0:0:
360,191,41915,1,0,0:0:0:0:
284,143,42140,2,0,P|257:169|226:190,1,75,8|2,0:0|0:0,0:0:0:0:
167,124,42592,1,0,0:0:0:0:
102,191,42817,2,0,P|71:170|45:143,1,75,2|2,0:0|0:0,0:0:0:0:
99,72,43268,1,2,0:0:0:0:
99,72,43381,1,2,0:0:0:0:
99,72,43494,6,0,P|141:40|211:52,1,112.500004291535,0|0,0:0|0:0,0:0:0:0:
243,108,44170,2,0,P|296:120|345:96,1,112.500004291535,4|0,0:3|0:0,0:0:0:0:
410,50,44847,1,2,0:0:0:0:
474,95,45073,1,0,0:0:0:0:
449,169,45298,2,0,L|512:170,2,56.2500021457673
369,169,45975,2,0,P|302:219|243:279,1,168.750006437302
165,266,46877,1,0,0:0:0:0:
88,280,47103,6,0,L|16:316,2,56.2500021457673,4|0|0,0:0|0:0|0:0,0:0:0:0:
113,205,47779,2,0,P|160:182|229:221,1,112.500004291535,4|0,0:3|0:0,0:0:0:0:
292,200,48456,2,0,L|329:137,1,56.2500021457673,2|0,0:0|0:0,0:0:0:0:
373,210,48907,2,0,L|429:184,2,56.2500021457673
324,272,49584,2,0,P|259:317|174:356,1,168.750006437302,4|2,0:3|0:0,0:0:0:0:
99,347,50486,1,0,0:0:0:0:
65,161,50712,6,0,L|34:192|11:214,1,75,4|0,0:0|0:0,0:0:0:0:
93,256,51163,2,0,L|148:200|148:200,1,75,8|0,0:0|0:0,0:0:0:0:
193,279,51614,2,0,P|269:279|321:226,1,150,8|8,0:0|0:0,0:0:0:0:
233,191,52291,1,0,0:0:0:0:
382,141,52516,6,0,L|307:141,1,75,8|0,0:0|0:0,0:0:0:0:
266,60,52967,2,0,L|319:60|363:60,1,75,8|0,0:0|0:0,0:0:0:0:
430,76,53419,2,0,P|467:143|429:205,1,150,8|8,0:0|0:0,0:0:0:0:
495,266,54095,1,0,0:0:0:0:
433,331,54321,6,0,B|369:307|369:307|309:339|281:323,1,150,8|8,0:0|0:0,0:0:0:0:
289,236,54998,2,0,P|236:255|206:294,1,75,0|2,0:0|0:0,0:0:0:0:
146,314,55449,1,0,0:0:0:0:
71,263,55674,1,2,0:0:0:0:
99,177,55900,1,2,0:0:0:0:
99,177,56013,1,0,0:0:0:0:
99,177,56125,5,2,0:0:0:0:
189,173,56351,1,2,0:0:0:0:
218,257,56576,1,0,0:0:0:0:
197,82,56802,2,0,P|261:118|278:189,1,150,2|2,0:0|0:0,0:0:0:0:
301,275,57479,6,0,P|347:312|382:317,1,75,2|8,0:0|0:0,0:0:0:0:
446,286,57930,1,4,0:0:0:0:
491,208,58155,1,4,0:0:0:0:
471,119,58381,1,4,0:0:0:0:
396,68,58607,1,4,0:0:0:0:
308,87,58832,1,4,0:0:0:0:
197,48,59734,6,0,P|161:80|141:120,1,75,4|0,0:0|0:0,0:0:0:0:
145,132,60073,1,0,0:0:0:0:
149,160,60185,1,2,0:0:0:0:
133,248,60411,1,0,0:0:0:0:
205,300,60637,2,0,P|185:344|137:352,2,75,0|0|2,0:0|0:0|0:0,0:0:0:0:
237,216,61313,1,0,0:0:0:0:
297,284,61539,6,0,P|341:292|385:272,1,75
457,264,61990,2,0,P|421:208|325:208,1,150,2|0,0:0|0:0,0:0:0:0:
273,152,62667,5,0,0:0:0:0:
117,124,62892,2,0,P|109:168|125:208,1,75,2|0,0:0|0:0,0:0:0:0:
186,254,63343,2,0,B|202:197|202:197|188:159|186:120|217:104,1,150,0|2,0:0|0:0,0:0:0:0:
117,124,64020,1,0,0:0:0:0:
37,84,64246,1,0,0:0:0:0:
113,40,64471,1,0,0:0:0:0:
41,168,64697,2,0,P|77:208|121:216,1,75,2|0,0:0|0:0,0:0:0:0:
97,304,65148,6,0,P|59:334|43:359,2,75,0|0|2,0:0|0:0|0:0,0:0:0:0:
181,268,65825,2,0,L|269:268,1,75
251,176,66276,1,0,0:0:0:0:
326,176,66501,2,0,L|251:176,1,75,2|0,0:0|0:0,0:0:0:0:
345,264,66952,6,0,P|405:216|397:124,1,150,4|2,0:1|0:0,0:0:0:0:
333,96,67629,1,0,0:0:0:0:
260,42,67855,1,0,0:0:0:0:
182,87,68080,2,0,B|143:87|143:87|101:67,1,75,0|2,0:0|0:0,0:0:0:0:
20,71,68531,1,0,0:0:0:0:
23,161,68757,5,0,0:0:0:0:
112,159,68982,2,0,L|113:242,1,75,0|2,0:0|0:0,0:0:0:0:
44,292,69434,1,0,0:0:0:0:
44,292,69659,2,0,P|149:314|190:268,1,150,0|2,0:0|0:0,0:0:0:0:
259,327,70336,1,0,0:0:0:0:
415,331,70561,5,2,0:0:0:0:
340,282,70787,2,0,P|388:246|432:246,1,75,0|2,0:0|0:0,0:0:0:0:
464,178,71238,1,2,0:0:0:0:
464,178,71351,1,0,0:0:0:0:
464,178,71464,1,0,0:0:0:0:
396,118,71689,2,0,P|365:96|343:66,1,75,2|0,0:0|0:0,0:0:0:0:
268,114,72140,1,2,0:0:0:0:
203,39,72366,5,8,0:0:0:0:
167,123,72592,1,0,0:0:0:0:
99,63,72817,1,8,0:0:0:0:
167,123,73043,2,0,P|134:146|73:150,1,75,0|8,0:0|0:0,0:0:0:0:
66,236,73494,1,0,0:0:0:0:
146,276,73719,2,0,P|186:248|238:240,1,75,8|0,0:0|0:0,0:0:0:0:
270,308,74170,6,0,P|338:340|406:296,1,150,4|2,0:0|0:0,0:0:0:0:
476,260,74847,1,0,0:0:0:0:
444,176,75073,2,0,L|508:120,1,75
488,36,75524,2,0,L|433:87,1,75,2|0,0:0|0:0,0:0:0:0:
348,120,75975,6,0,P|290:88|204:120,1,150,0|2,0:0|0:0,0:0:0:0:
276,180,76652,1,0,0:0:0:0:
301,266,76877,2,0,P|273:299|267:342,1,75
175,327,77328,2,0,P|165:291|141:264,1,75,2|0,0:0|0:0,0:0:0:0:
77,195,77779,6,0,P|47:268|84:339,1,150,0|2,0:0|0:0,0:0:0:0:
141,264,78456,2,0,L|216:264,1,75
216,264,78907,1,0,0:0:0:0:
214,174,79133,2,0,P|273:193|296:233,1,75,2|0,0:0|0:0,0:0:0:0:
349,256,79584,6,0,P|284:289|216:264,1,150,0|2,0:0|0:0,0:0:0:0:
280,200,80261,1,0,0:0:0:0:
357,154,80486,2,0,P|402:162|448:251,1,150,0|2,0:0|0:0,0:0:0:0:
380,306,81163,1,0,0:0:0:0:
289,310,81389,5,4,0:0:0:0:
147,264,81614,2,0,P|183:274|219:265,1,75,0|2,0:0|0:0,0:0:0:0:
280,200,82065,1,0,0:0:0:0:
365,227,82291,2,0,P|345:137|290:108,1,150,0|2,0:0|0:0,0:0:0:0:
217,79,82967,1,0,0:0:0:0:
145,135,83193,6,0,P|97:111|57:111,1,75
13,175,83644,2,0,P|48:195|109:195,1,75,2|0,0:0|0:0,0:0:0:0:
97,287,84095,2,0,P|149:307|241:287,1,150,0|2,0:0|0:0,0:0:0:0:
329,307,84772,1,0,0:0:0:0:
417,287,84998,6,0,P|421:219|481:143,1,150,0|2,0:0|0:0,0:0:0:0:
421,75,85674,1,0,0:0:0:0:
367,121,85900,2,0,P|400:105|421:75,1,75
229,69,86351,1,2,0:0:0:0:
277,123,86576,2,0,P|245:102|229:69,1,75,0|8,0:0|0:0,0:0:0:0:
129,187,87028,6,0,P|97:259|137:335,1,150,0|0,0:0|0:0,0:0:0:0:
185,257,87704,2,0,P|241:253|273:265,1,75
318,186,88155,2,0,P|339:216|349:253,1,75,0|4,0:0|0:0,0:0:0:0:
