osu file format v13

[General]
AudioFilename: ray.mp3
AudioLeadIn: 1500
PreviewTime: 59058
Countdown: 0
SampleSet: Soft
StackLeniency: 0.7
Mode: 0
LetterboxInBreaks: 0
WidescreenStoryboard: 0

[Editor]
DistanceSpacing: 1.1
BeatDivisor: 4
GridSize: 4
TimelineZoom: 1

[Metadata]
Title:lull ~Soshite Bokura wa~ [TV Size]
TitleUnicode:lull~そして僕らは~ [TV Size]
Artist:Ray
ArtistUnicode:Ray
Creator:AliomLoung
Version:Easy
Source:Nagi no Asukara
Tags:凪のあすから romance drama comedy fantasy sea life world Opening Op ts8zs JUDYDANNY yf_bmp
BeatmapID:371521
BeatmapSetID:150578

[Difficulty]
HPDrainRate:2
CircleSize:3
OverallDifficulty:2
ApproachRate:3
SliderMultiplier:0.9
SliderTickRate:1

[Events]
//Background and Video events
0,0,"iUdHAoC.jpg",0,0
Video,0,"TV video.flv"
//Break Periods
//Storyboard Layer 0 (Background)
//Storyboard Layer 1 (Fail)
//Storyboard Layer 2 (Pass)
//Storyboard Layer 3 (Foreground)
//Storyboard Sound Samples
//Background Colour Transformations
3,100,163,162,255

[TimingPoints]
186,451.127819548872,4,2,1,50,1,0
637,-100,4,2,1,70,0,0
4133,-100,4,2,3,60,0,0
4810,-100,4,2,1,70,0,0
5937,-100,4,2,3,60,0,0
6163,-100,4,2,1,70,0,0
7742,-100,4,2,2,60,0,0
7967,-100,4,2,1,70,0,0
9546,-100,4,2,2,60,0,0
9772,-100,4,2,1,70,0,0
12140,-100,4,2,1,45,0,0
12592,-100,4,2,1,60,0,0
14622,-100,4,2,1,55,0,0
16764,-100,4,2,3,45,0,0
16990,-100,4,2,1,55,0,0
18569,-100,4,2,3,45,0,0
19246,-100,4,2,1,55,0,0
20373,-100,4,2,3,45,0,0
21050,-100,4,2,1,55,0,0
23982,-100,4,2,3,45,0,0
24208,-100,4,2,1,55,0,0
27704,-100,4,2,2,55,0,0
29058,-100,4,2,1,55,0,0
33907,-100,4,2,2,45,0,0
34133,-100,4,2,1,55,0,0
36614,-100,4,2,2,45,0,0
36840,-100,4,2,1,55,0,0
39885,-100,4,2,2,55,0,0
39998,-100,4,2,1,55,0,0
40561,-100,4,2,2,55,0,0
40674,-100,4,2,1,55,0,0
41238,-100,4,2,2,55,0,0
41802,-100,4,2,1,55,0,0
42366,-100,4,2,2,55,0,0
42479,-100,4,2,1,55,0,0
43494,-100,4,2,2,50,0,0
43832,-100,4,2,1,50,0,0
47103,-100,4,2,1,40,0,0
50712,-100,4,2,1,50,0,0
52855,-100,4,2,2,50,0,0
54321,-100,4,2,1,55,0,0
54659,-100,4,2,3,45,0,0
54885,-100,4,2,1,55,0,0
55223,-100,4,2,2,55,0,0
57028,-100,4,2,1,55,0,0
57930,-100,4,2,2,45,0,0
59734,-100,4,2,1,70,0,1
61877,-100,4,2,2,60,0,1
62103,-100,4,2,1,70,0,1
65486,-100,4,2,2,60,0,1
65712,-100,4,2,1,70,0,1
66952,-100,4,2,1,50,0,1
67065,-100,4,2,1,70,0,1
69095,-100,4,2,2,60,0,1
69321,-100,4,2,1,70,0,1
71125,-100,4,2,2,70,0,1
72253,-100,4,2,1,70,0,1
72817,-100,4,2,2,55,0,1
73043,-100,4,2,2,80,0,0
74170,-100,4,2,1,70,0,1
76313,-100,4,2,2,60,0,1
76539,-100,4,2,1,70,0,1
78118,-100,4,2,2,60,0,1
78343,-100,4,2,1,70,0,1
81389,-100,4,2,1,55,0,1
81727,-100,4,2,2,60,0,1
81952,-100,4,2,1,70,0,1
88381,-100,4,2,2,40,0,0

[Colours]
Combo1 : 121,192,251
Combo2 : 73,66,221
Combo3 : 255,255,255

[HitObjects]
392,108,186,6,0,P|344:80|296:76,1,90,4|8,0:0|0:0,0:0:0:0:
236,140,1088,2,0,P|284:168|332:172,1,90,8|8,0:0|0:0,0:0:0:0:
400,228,1990,1,8,0:0:0:0:
360,320,2441,1,8,0:0:0:0:
268,280,2892,2,0,P|230:255|186:247,1,90,8|8,0:0|0:0,0:0:0:0:
136,160,3795,6,0,P|96:200|92:280,2,135,8|0|8,0:0|0:0|0:0,0:0:0:0:
232,132,5599,2,0,P|322:124|415:135,1,180,8|8,0:0|0:0,0:0:0:0:
476,208,6952,1,8,0:0:0:0:
396,268,7404,6,0,P|316:305|240:257,1,180,4|0,0:0|0:0,0:0:0:0:
321,207,8757,1,2,0:0:0:0:
232,164,9208,2,0,P|162:208|154:303,1,180
242,262,10561,1,2,0:0:0:0:
341,264,11013,5,0,0:0:0:0:
411,332,11464,2,0,P|434:287|418:204,1,135,2|4,0:0|0:0,0:0:0:0:
386,169,12366,2,0,L|321:169,1,45,2|4,0:0|0:0,0:0:0:0:
352,72,13043,2,0,B|296:72|264:100|248:136|248:136|192:136|156:104,1,225,0|4,0:0|0:0,0:0:0:0:
92,180,14622,6,0,P|52:224|44:272,2,90,4|8|8,0:0|0:0|0:0,0:0:0:0:
192,184,15975,1,8,0:0:0:0:
252,104,16426,2,0,P|288:176|248:264,1,180,8|8,0:0|0:0,0:0:0:0:
196,344,17779,1,8,0:0:0:0:
124,276,18231,6,0,P|97:157|192:184,1,270,8|8,0:0|0:0,0:0:0:0:
221,89,20035,2,0,P|292:193|206:283,1,270,8|8,0:0|0:0,0:0:0:0:
133,215,21840,6,0,P|75:250|54:284,1,90,8|8,0:0|0:0,0:0:0:0:
134,334,22742,2,0,P|192:299|218:267,1,90,8|8,0:0|0:0,0:0:0:0:
283,220,23644,2,0,B|351:178|351:178|384:222|439:222,1,180,8|8,0:0|0:0,0:0:0:0:
433,122,24998,1,8,0:0:0:0:
364,52,25449,6,0,L|270:107,1,90
204,40,26351,2,0,L|110:96,1,90
104,184,27253,1,0,0:0:0:0:
156,268,27704,2,0,L|120:321,2,45,2|0|0,0:0|0:0|0:0,0:0:0:0:
251,293,28607,1,2,0:0:0:0:
350,276,29058,6,0,L|458:276,1,90,4|2,0:0|0:0,0:0:0:0:
494,192,29960,2,0,L|386:192,1,90,0|2,0:0|0:0,0:0:0:0:
306,192,30862,2,0,P|274:216|254:268,2,90,0|2|0,0:0|0:0|0:0,0:0:0:0:
306,92,32216,1,2,0:0:0:0:
214,128,32667,6,0,P|197:169|162:196,1,90,0|2,0:0|0:0,0:0:0:0:
158,296,33569,2,0,P|276:311|345:291,1,180
422,256,34922,1,2,0:0:0:0:
502,196,35373,2,0,P|462:164|414:156,1,90,0|2,0:0|0:0,0:0:0:0:
338,200,36276,6,0,B|278:180|250:180|250:180|238:156|182:108,1,180
94,88,37629,1,2,0:0:0:0:
110,184,38080,2,0,L|178:260,1,90,0|2,0:0|0:0,0:0:0:0:
262,288,38982,2,0,L|352:288,1,90,0|2,0:0|0:0,0:0:0:0:
425,221,39885,6,0,P|451:290|424:360,2,135,2|2|4,0:0|0:0|0:0,0:0:0:0:
352,288,41689,2,0,P|327:226|345:163,2,135,4|0|0,0:0|0:0|0:0,0:0:0:0:
266,338,43494,6,0,L|122:336,1,135,4|4,0:0|0:3,0:0:0:0:
64,203,44847,1,2,0:0:0:0:
117,119,45298,6,0,P|173:101|255:133,1,135,0|4,0:0|0:3,0:0:0:0:
342,234,46652,1,2,0:0:0:0:
283,313,47103,6,0,P|355:333|410:303,1,135,4|4,0:0|0:3,0:0:0:0:
472,176,48456,1,2,0:0:0:0:
400,108,48907,6,0,P|373:185|399:241,1,135,0|4,0:0|0:3,0:0:0:0:
260,300,50261,1,2,0:0:0:0:
161,306,50712,6,0,P|108:313|53:298,1,90,0|8,0:0|0:0,0:0:0:0:
28,220,51614,2,0,P|72:210|114:221,1,90,8|8,0:0|0:0,0:0:0:0:
212,224,52516,2,0,P|229:176|262:139,1,90,8|8,0:0|0:0,0:0:0:0:
326,78,53419,1,8,0:0:0:0:
379,161,53870,1,8,0:0:0:0:
443,236,54321,6,0,P|404:307|312:316,1,180,8|2,0:0|0:0,0:0:0:0:
224,271,55674,1,2,0:0:0:0:
132,308,56125,2,0,L|84:308,1,45,2|0,0:0|0:0,0:0:0:0:
45,216,56802,2,0,P|31:151|65:93,1,135
137,28,57930,5,4,0:0:0:0:
213,92,58381,1,0,0:0:0:0:
145,164,58832,1,4,0:0:0:0:
285,304,59734,5,4,0:0:0:0:
377,268,60185,2,0,P|420:260|457:228,2,90,2|0|2,0:0|0:0|0:0,0:0:0:0:
308,196,61539,2,0,P|236:156|152:200,1,180
76,260,62892,1,2,0:0:0:0:
156,320,63343,6,0,B|196:340|196:340|260:336,1,90,0|2,0:0|0:0,0:0:0:0:
340,336,64246,1,0,0:0:0:0:
428,292,64697,1,2,0:0:0:0:
452,196,65148,2,0,P|403:121|319:99,1,180
244,32,66501,1,2,0:0:0:0:
160,88,66952,6,0,P|121:107|63:113,1,90,4|2,0:1|0:0,0:0:0:0:
98,210,67855,2,0,P|136:190|194:184,1,90,0|2,0:0|0:0,0:0:0:0:
170,282,68757,2,0,P|241:275|357:290,1,180,0|0,0:1|0:0,0:0:0:0:
410,210,70110,1,2,0:0:0:0:
495,160,70561,6,0,P|430:115|364:122,1,135,0|2,0:0|0:0,0:0:0:0:
295,174,71689,1,2,0:0:0:0:
203,211,72140,2,0,P|276:273|327:268,1,135,4|8,0:0|0:0,0:0:0:0:
398,317,73268,1,8,0:0:0:0:
469,247,73719,1,8,0:0:0:0:
389,187,74170,6,0,P|429:155|477:147,2,90,4|2|0,0:0|0:0|0:0,0:0:0:0:
321,259,75524,1,2,0:0:0:0:
258,335,75975,2,0,P|226:262|270:174,1,180
365,172,77328,1,2,0:0:0:0:
391,76,77779,6,0,P|458:136|460:193,2,135,0|0|2,0:0|0:0|0:0,0:0:0:0:
297,42,79584,2,0,P|256:30|205:43,1,90,0|2,0:0|0:0,0:0:0:0:
143,112,80486,1,0,0:0:0:0:
183,202,80937,1,2,0:0:0:0:
220,293,81389,6,0,B|327:355|402:226|288:160,1,270,4|2,0:1|0:0,0:0:0:0:
246,71,83193,1,0,0:0:0:0:
147,71,83644,1,2,0:0:0:0:
98,157,84095,6,0,P|125:211|156:239,1,90,0|2,0:0|0:0,0:0:0:0:
195,229,84772,2,0,P|245:223|348:232,1,135,0|2,0:0|0:0,0:0:0:0:
424,204,85900,1,0,0:0:0:0:
412,104,86351,1,2,0:0:0:0:
316,124,86802,5,8,0:0:0:0:
256,192,87028,12,4,88381,0:0:0:0:
