osu file format v14

[General]
AudioFilename: Ray - ebb and flow (TV Size).mp3
AudioLeadIn: 1000
PreviewTime: 50103
Countdown: 0
SampleSet: Soft
StackLeniency: 0.7
Mode: 0
LetterboxInBreaks: 0
WidescreenStoryboard: 0

[Editor]
Bookmarks: 7973,21545
DistanceSpacing: 1.2
BeatDivisor: 4
GridSize: 4
TimelineZoom: 1.5

[Metadata]
Title:ebb and flow (TV Size)
TitleUnicode:ebb and flow (TV Size)
Artist:Ray
ArtistUnicode:Ray
Creator:taku
Version:Normal
Source:NAGI NO ASUKARA
Tags:凪のあすから opening Manaka Mukaido Hikari Sakishima Chisaki Hiradaira Kaname Isaki Tsumugu Kihara
BeatmapID:369822
BeatmapSetID:149685

[Difficulty]
HPDrainRate:4
CircleSize:3.5
OverallDifficulty:4
ApproachRate:5
SliderMultiplier:1.3
SliderTickRate:1

[Events]
//Background and Video events
0,0,"BG.png",0,0
Video,-320,"opening.avi"
//Break Periods
//Storyboard Layer 0 (Background)
//Storyboard Layer 1 (Fail)
//Storyboard Layer 2 (Pass)
//Storyboard Layer 3 (Foreground)
//Storyboard Sound Samples

[TimingPoints]
339,565.50424128181,4,2,10,40,1,0
9387,-100,4,2,2,40,0,0
9952,-100,4,2,1,40,0,0
27483,-100,4,2,2,40,0,0
28048,-100,4,2,1,40,0,0
41055,-100,4,2,2,40,0,0
41620,-100,4,2,1,40,0,0
45720,-100,4,2,10,40,0,0
46710,-100,4,2,10,20,0,0
52365,-100,4,2,3,80,0,1
69896,-100,4,2,3,80,0,0
70461,-100,4,2,3,80,0,1
86295,-100,4,2,0,20,0,0

[Colours]
Combo1 : 47,251,118
Combo2 : 68,202,253
Combo3 : 0,128,255
Combo4 : 67,252,215

[HitObjects]
41,288,339,5,0,0:0:0:0:
118,283,621,2,0,P|161:281|184:280,1,65,2|2,0:0|0:0,0:0:0:0:
256,308,1187,1,2,0:0:0:0:
334,309,1470,2,0,P|373:320|408:376,2,97.5,2|2|2,0:0|0:0|0:0,0:0:0:0:
373,158,2883,6,0,P|382:120|393:73,1,65,2|2,0:0|0:0,0:0:0:0:
406,18,3449,1,2,0:0:0:0:
481,37,3732,2,0,P|471:82|457:151,2,97.5,2|2|2,0:0|0:0|0:0,0:0:0:0:
325,31,5145,6,0,P|276:38|250:41,1,65,2|2,0:0|0:0,0:0:0:0:
183,53,5711,1,2,0:0:0:0:
127,108,5994,2,0,P|73:104|6:102,2,97.5,2|2|2,0:0|0:0|0:0,0:0:0:0:
256,194,7407,2,0,B|330:243|460:248|497:145|497:145|427:73|337:102,1,455,2|4,0:0|0:0,0:0:0:0:
192,143,9952,6,0,P|161:150|127:152,1,65
68,202,10518,2,0,P|38:191|8:170,1,65
25,95,11083,1,0,0:0:0:0:
90,52,11366,1,0,0:0:0:0:
167,61,11649,6,0,P|203:69|280:20,1,130,2|0,0:0|0:0,0:0:0:0:
355,31,12497,2,0,P|346:98|342:170,1,130,2|0,0:0|0:0,0:0:0:0:
391,221,13345,2,0,P|388:264|383:295,1,65,4|0,0:0|0:0,0:0:0:0:
321,332,13911,6,0,P|292:343|199:298,1,130,2|0,0:0|0:0,0:0:0:0:
190,231,14759,1,0,0:0:0:0:
165,156,15042,2,0,P|111:151|28:147,1,130,2|0,0:0|0:0,0:0:0:0:
145,37,16173,6,0,L|217:33,1,65,2|0,0:0|0:0,0:0:0:0:
287,28,16738,2,0,P|299:64|288:101,1,65,0|2,0:0|0:0,0:0:0:0:
166,179,17586,2,0,P|154:215|165:252,1,65,0|4,0:0|0:0,0:0:0:0:
205,303,18152,1,0,0:0:0:0:
272,341,18435,6,0,P|312:339|419:339,1,130,2|0,0:0|0:0,0:0:0:0:
465,195,19566,2,0,P|438:170|341:155,1,130
286,200,20414,6,0,P|239:225|131:81,1,260
271,49,22110,1,0,0:0:0:0:
345,26,22393,1,4,0:0:0:0:
329,102,22676,1,0,0:0:0:0:
403,78,22959,6,0,L|474:97,2,65,2|2|2,0:0|0:0|0:0,0:0:0:0:
387,151,23807,2,0,L|340:200,2,65,0|2|2,0:0|0:0|0:0,0:0:0:0:
329,102,24655,2,0,L|308:36,2,65,0|2|2,0:0|0:0|0:0,0:0:0:0:
261,141,25503,6,0,P|234:143|164:74,1,130,2|2,0:0|0:0,0:0:0:0:
44,177,26634,2,0,P|50:213|51:248,2,65,2|4|8,0:0|0:0|0:0,0:0:0:0:
40,98,27483,6,0,P|103:86|162:130,1,130,4|2,3:2|0:0,0:0:0:0:
202,182,28331,2,0,P|264:194|317:159,1,130,0|2,0:0|0:0,0:0:0:0:
341,85,29179,1,2,0:0:0:0:
393,142,29462,1,0,0:0:0:0:
468,160,29745,6,0,P|456:210|438:298,1,130,2|0,0:0|0:0,0:0:0:0:
385,342,30593,2,0,P|336:352|258:294,1,130,2|0,0:0|0:0,0:0:0:0:
239,241,31441,1,4,0:0:0:0:
189,301,31724,1,0,0:0:0:0:
163,227,32007,6,0,P|173:162|182:82,1,130,2|0,0:0|0:0,0:0:0:0:
152,25,32855,1,0,0:0:0:0:
75,42,33138,2,0,P|83:97|86:133,1,65
62,181,33703,1,0,0:0:0:0:
34,254,33986,1,0,0:0:0:0:
52,329,34269,6,0,P|92:356|128:355,1,65,2|2,0:0|0:0,0:0:0:0:
179,328,34834,2,0,P|219:301|255:302,1,65,0|2,0:0|0:0,0:0:0:0:
350,193,35683,1,0,0:0:0:0:
409,143,35965,1,4,0:0:0:0:
423,219,36248,1,8,0:0:0:0:
496,245,36531,6,0,P|466:287|376:280,1,130,2|0,0:0|0:0,0:0:0:0:
319,264,37379,2,0,P|256:262|215:310,1,130,2|0,0:0|0:0,0:0:0:0:
288,337,38227,1,0,0:0:0:0:
365,328,38510,1,0,0:0:0:0:
395,256,38793,6,0,P|390:213|386:189,1,65,2|0,0:0|0:0,0:0:0:0:
321,148,39358,1,4,0:0:0:0:
336,71,39641,1,0,0:0:0:0:
487,31,40207,6,0,L|495:107,1,65,0|8,0:0|0:0,0:0:0:0:
346,44,41055,6,0,P|283:30|226:58,1,130,4|0,0:0|0:0,0:0:0:0:
191,128,41903,2,0,P|149:153|69:141,1,130,0|2,0:0|0:0,0:0:0:0:
20,83,42751,1,2,0:0:0:0:
56,234,43317,6,0,L|86:362,1,130
161,342,44165,2,0,L|129:210,1,130,0|2,0:0|0:0,0:0:0:0:
206,198,45013,1,2,0:0:0:0:
352,252,45579,6,0,P|396:248|448:180,1,130,2|2,0:0|0:0,0:0:0:0:
431,29,46710,2,0,P|359:37|283:41,1,130,2|2,0:0|0:0,0:0:0:0:
256,192,47841,12,0,50103,0:0:0:0:
52,138,52365,6,0,P|80:107|176:109,1,130,6|8,0:0|0:0,0:0:0:0:
196,172,53213,2,0,P|224:203|320:201,1,130,2|0,0:0|0:0,0:0:0:0:
370,161,54061,1,8,0:0:0:0:
446,177,54344,2,0,P|433:250|423:310,1,130,2|0,0:0|0:0,0:0:0:0:
347,290,55192,5,8,0:0:0:0:
269,278,55475,2,0,P|210:281|159:330,1,130,2|0,0:0|0:0,0:0:0:0:
82,320,56323,1,8,0:0:0:0:
30,261,56606,1,0,0:0:0:0:
24,183,56889,6,0,P|56:137|139:131,1,130,2|8,0:0|0:0,0:0:0:0:
188,171,57737,2,0,P|236:177|336:190,1,130,2|0,0:0|0:0,0:0:0:0:
379,140,58585,1,8,0:0:0:0:
456,144,58868,2,0,P|489:173|482:262,1,130,2|0,0:0|0:0,0:0:0:0:
430,306,59716,5,8,0:0:0:0:
355,330,59999,2,0,B|310:342|284:335|254:318|254:318|222:294|198:283|163:288,1,195,2|8,0:0|0:0,0:0:0:0:
96,308,61130,1,2,0:0:0:0:
54,241,61413,6,0,P|41:166|85:118,1,130,4|8,0:0|0:0,0:0:0:0:
139,89,62261,1,2,0:0:0:0:
262,185,62827,2,0,P|265:233|270:270,2,65,0|8|2,0:0|0:0|0:0,0:0:0:0:
354,59,63958,5,0,0:0:0:0:
327,132,64240,1,8,0:0:0:0:
404,123,64523,2,0,P|411:192|419:261,1,130,2|0,0:0|0:0,0:0:0:0:
387,327,65371,1,8,0:0:0:0:
309,315,65654,1,0,0:0:0:0:
246,267,65937,6,0,P|202:257|119:311,1,130,4|8,0:0|0:0,0:0:0:0:
52,283,66785,2,0,P|61:208|70:145,1,130,2|0,0:0|0:0,0:0:0:0:
142,128,67634,2,0,L|150:63,1,65,8|2,0:0|0:0,0:0:0:0:
305,43,68482,6,0,L|296:107,2,65,8|10|8,0:0|0:0|0:0,0:0:0:0:
382,36,69330,2,0,P|428:32|494:98,1,130,8|8,0:0|0:0,0:0:0:0:
377,191,70461,6,0,P|374:230|368:326,1,130,6|8,0:0|0:0,0:0:0:0:
291,335,71309,2,0,P|294:270|299:205,1,130,4|0,0:0|0:0,0:0:0:0:
270,132,72158,1,8,0:0:0:0:
226,196,72440,2,0,P|192:211|89:206,1,130,2|0,0:0|0:0,0:0:0:0:
40,160,73289,5,8,0:0:0:0:
48,82,73571,2,0,L|189:93,1,130,2|0,0:0|0:0,0:0:0:0:
239,140,74420,1,8,0:0:0:0:
311,156,74702,1,0,0:0:0:0:
383,138,74985,6,0,P|413:96|397:15,1,130,2|8,0:0|0:0,0:0:0:0:
330,53,75833,2,0,P|274:57|186:60,1,130,2|0,0:0|0:0,0:0:0:0:
122,65,76682,1,8,0:0:0:0:
60,112,76964,2,0,P|79:145|86:238,1,130,2|0,0:0|0:0,0:0:0:0:
23,281,77813,5,8,0:0:0:0:
93,313,78095,2,0,P|133:327|227:279,1,130,2|0,0:0|0:0,0:0:0:0:
267,243,78944,2,0,P|324:214|386:228,1,130,8|4,0:0|0:0,0:0:0:0:
475,356,80075,5,8,0:0:0:0:
401,350,80357,1,0,0:0:0:0:
283,246,80923,5,0,0:0:0:0:
357,235,81206,1,8,0:0:0:0:
347,157,81488,6,0,P|299:132|223:146,1,130,2|0,0:0|0:0,0:0:0:0:
165,94,82337,1,8,0:0:0:0:
165,94,82619,2,0,P|115:90|47:143,1,130,2|0,0:0|0:0,0:0:0:0:
42,211,83468,1,8,0:0:0:0:
35,288,83750,2,0,P|74:292|124:301,1,65,0|4,0:0|0:0,0:0:0:0:
177,305,84316,5,2,0:0:0:0:
254,315,84599,1,2,0:0:0:0:
326,287,84881,2,0,P|372:255|457:284,1,130,2|2,0:0|0:0,0:0:0:0:
471,340,85730,1,8,0:0:0:0:
393,330,86012,1,6,0:0:0:0:
256,192,86295,12,0,89123,0:0:0:0:
