osu file format v14

[General]
AudioFilename: Ray - ebb and flow (TV Size).mp3
AudioLeadIn: 1000
PreviewTime: 50103
Countdown: 0
SampleSet: Soft
StackLeniency: 0.7
Mode: 0
LetterboxInBreaks: 0
WidescreenStoryboard: 0

[Editor]
Bookmarks: 21545,25503,37379
DistanceSpacing: 0.8
BeatDivisor: 4
GridSize: 4
TimelineZoom: 1.599999

[Metadata]
Title:ebb and flow (TV Size)
TitleUnicode:ebb and flow (TV Size)
Artist:Ray
ArtistUnicode:Ray
Creator:taku
Version:Hard
Source:NAGI NO ASUKARA
Tags:凪のあすから opening Manaka Mukaido Hikari Sakishima Chisaki Hiradaira Kaname Isaki Tsumugu Kihara
BeatmapID:369821
BeatmapSetID:149685

[Difficulty]
HPDrainRate:6
CircleSize:4
OverallDifficulty:6
ApproachRate:7
SliderMultiplier:1.7
SliderTickRate:1

[Events]
//Background and Video events
0,0,"BG.png",0,0
Video,-320,"opening.avi"
//Break Periods
//Storyboard Layer 0 (Background)
//Storyboard Layer 1 (Fail)
//Storyboard Layer 2 (Pass)
//Storyboard Layer 3 (Foreground)
//Storyboard Sound Samples

[TimingPoints]
339,565.50424128181,4,2,10,40,1,0
7973,-100,4,2,10,20,0,0
9387,-100,4,2,2,40,0,0
9952,-100,4,2,1,40,0,0
27483,-100,4,2,2,40,0,0
27765,-100,4,2,1,40,0,0
40207,-200,4,2,1,40,0,0
40489,-100,4,2,1,40,0,0
41055,-100,4,2,2,40,0,0
41196,-100,4,2,1,40,0,0
43317,-125,4,2,1,40,0,0
45720,-125,4,2,10,40,0,0
46710,-125,4,2,10,20,0,0
52365,-90.9090909090909,4,2,3,80,0,1
69896,-125,4,2,3,80,0,0
70461,-125,4,2,3,80,0,1
71027,-90.9090909090909,4,2,3,80,0,1
86295,-90.9090909090909,4,2,0,20,0,0

[Colours]
Combo1 : 47,251,118
Combo2 : 68,202,253
Combo3 : 0,128,255
Combo4 : 67,252,215

[HitObjects]
12,116,339,5,0,0:0:0:0:
110,139,621,2,0,P|158:145|209:149,1,85,2|2,0:0|0:0,0:0:0:0:
286,110,1187,1,2,0:0:0:0:
382,105,1470,6,0,P|425:112|460:149,1,85,2|0,0:0|0:0,0:0:0:0:
483,210,1894,2,0,P|419:219|327:227,1,127.5,2|2,0:0|0:0,0:0:0:0:
280,233,2459,1,2,0:0:0:0:
158,328,2883,5,2,0:0:0:0:
136,219,3166,1,2,0:0:0:0:
77,312,3449,1,2,0:0:0:0:
57,202,3732,6,0,P|68:149|76:99,1,85,2|0,0:0|0:0,0:0:0:0:
89,43,4156,2,0,P|155:58|226:71,1,127.5,2|2,0:0|0:0,0:0:0:0:
288,83,4721,1,2,0:0:0:0:
448,56,5145,5,2,0:0:0:0:
425,149,5428,1,2,0:0:0:0:
450,243,5711,1,2,0:0:0:0:
427,333,5994,6,0,P|386:349|343:346,1,85,2|0,0:0|0:0,0:0:0:0:
315,279,6418,2,0,P|281:248|187:254,1,127.5,2|2,0:0|0:0,0:0:0:0:
141,289,6983,1,2,0:0:0:0:
141,289,7407,5,2,0:0:0:0:
256,192,7973,12,4,9387,3:2:0:0:
402,118,9952,5,0,0:0:0:0:
399,151,10093,1,0,0:0:0:0:
409,183,10235,1,0,0:0:0:0:
407,216,10376,1,0,0:0:0:0:
389,245,10518,2,0,P|376:306|391:342,1,85
501,207,11083,2,0,P|454:165|415:160,1,85
326,187,11649,6,0,P|257:199|151:211,1,170,2|0,0:0|0:0,0:0:0:0:
30,80,12497,2,0,P|99:92|205:104,1,170,2|0,0:0|0:0,0:0:0:0:
331,190,13345,1,4,0:0:0:0:
331,190,13628,1,0,0:0:0:0:
422,238,13911,6,0,P|438:196|435:153,1,85,2|0,0:0|0:0,0:0:0:0:
385,78,14476,1,0,0:0:0:0:
351,76,14617,1,0,0:0:0:0:
318,87,14759,1,0,0:0:0:0:
285,95,14900,1,0,0:0:0:0:
253,99,15042,2,0,P|209:92|162:80,1,85
39,192,15607,2,0,P|83:185|130:173,1,85
208,222,16173,6,0,P|212:268|190:303,2,85,2|0|0,0:0|0:0|0:0,0:0:0:0:
288,291,17021,2,0,P|337:297|468:304,1,170,2|0,0:0|0:0,0:0:0:0:
459,305,17869,1,4,0:0:0:0:
384,201,18152,1,0,0:0:0:0:
258,321,18435,6,0,P|202:326|68:334,1,170,2|0,0:0|0:0,0:0:0:0:
43,247,19283,1,0,0:0:0:0:
42,213,19424,1,0,0:0:0:0:
50,184,19566,1,0,0:0:0:0:
123,120,19848,1,0,0:0:0:0:
243,144,20131,1,0,0:0:0:0:
205,20,20414,1,0,0:0:0:0:
123,120,20697,6,0,B|171:98|266:118|214:166|316:187|366:169,1,255
483,31,22110,1,0,0:0:0:0:
385,66,22393,1,4,0:0:0:0:
463,135,22676,1,0,0:0:0:0:
366,258,22959,6,0,P|361:300|358:342,2,85,2|2|2,0:0|0:0|0:0,0:0:0:0:
365,257,23807,1,0,0:0:0:0:
296,216,24090,2,0,P|250:217|213:250,1,85,2|2,0:0|0:0,0:0:0:0:
148,194,24655,2,0,P|113:170|71:170,1,85,0|2,0:0|0:0,0:0:0:0:
13,231,25221,6,0,P|20:280|24:324,1,85,2|2,0:0|0:0,0:0:0:0:
219,239,26069,1,2,0:0:0:0:
256,58,26634,5,2,0:0:0:0:
336,76,26917,1,4,0:0:0:0:
407,36,27200,1,8,0:0:0:0:
487,55,27483,6,0,P|501:106|480:152,1,85,6|0,3:2|0:0,0:0:0:0:
412,229,28048,1,0,0:0:0:0:
380,224,28190,1,0,0:0:0:0:
349,230,28331,1,0,0:0:0:0:
320,247,28472,1,0,0:0:0:0:
301,276,28614,2,0,P|248:272|192:268,1,85
100,193,29179,2,0,P|153:189|196:184,1,85
256,124,29745,6,0,P|260:75|151:47,1,170,2|0,0:0|0:0,0:0:0:0:
15,171,30593,2,0,P|111:179|184:185,1,170,2|0,0:0|0:0,0:0:0:0:
213,311,31441,2,0,L|309:320,1,85,4|0,0:0|0:0,0:0:0:0:
391,262,32007,6,0,B|463:248|463:248|436:128,1,170,2|0,0:0|0:0,0:0:0:0:
438,126,32714,1,0,0:0:0:0:
432,96,32855,1,0,0:0:0:0:
427,66,32996,1,0,0:0:0:0:
421,35,33138,2,0,P|364:48|319:55,1,85
256,122,33703,2,0,P|210:113|167:105,1,85
58,126,34269,5,2,0:0:0:0:
79,220,34552,1,2,0:0:0:0:
14,288,34834,1,0,0:0:0:0:
104,312,35117,1,2,0:0:0:0:
262,220,35683,1,0,0:0:0:0:
170,246,35965,1,4,0:0:0:0:
194,156,36248,1,8,0:0:0:0:
216,73,36531,6,0,P|266:70|313:65,1,85,2|0,0:0|0:0,0:0:0:0:
416,54,37096,1,0,0:0:0:0:
416,54,37379,2,0,P|447:103|432:144,1,85
418,223,37945,2,0,P|368:218|314:215,1,85
242,246,38510,1,0,0:0:0:0:
242,246,38793,5,2,0:0:0:0:
269,324,39076,1,2,0:0:0:0:
100,341,39358,1,4,0:0:0:0:
111,258,39641,1,2,0:0:0:0:
111,258,40207,6,0,P|116:230|119:208,1,42.5,0|8,0:0|0:0,0:0:0:0:
258,41,41055,6,0,P|351:52|443:56,1,170,4|0,3:2|0:0,0:0:0:0:
494,199,41903,2,0,P|458:156|345:158,1,170,0|2,2:2|0:0,0:0:0:0:
287,233,42751,1,2,0:0:0:0:
287,233,43317,6,0,P|295:284|301:376,1,136
125,307,44165,2,0,P|129:243|139:168,1,136,0|2,0:0|0:0,0:0:0:0:
150,77,45013,1,2,0:0:0:0:
477,48,45579,6,0,L|329:33,1,136,2|2,0:0|0:0,0:0:0:0:
258,165,46710,2,0,P|300:162|410:156,1,136,2|2,0:0|0:0,0:0:0:0:
256,192,47841,12,0,50103,0:0:0:0:
325,226,52365,6,0,B|347:214|377:212|407:230|421:254|421:254|449:246|471:218|468:198,1,187.000005706787,4|10,0:0|0:0,0:0:0:0:
256,192,53213,2,0,P|269:278|355:294,1,187.000005706787,2|0,0:0|0:0,0:0:0:0:
320,146,54061,1,8,0:0:0:0:
223,118,54344,2,0,B|182:133|170:189|170:189|134:149|106:153|86:153,1,187.000005706787,2|0,0:0|0:0,0:0:0:0:
21,220,55192,5,8,0:0:0:0:
45,310,55475,2,0,P|94:300|220:362,1,187.000005706787,2|0,0:0|0:0,0:0:0:0:
283,291,56323,1,8,0:0:0:0:
372,319,56606,1,0,0:0:0:0:
433,248,56889,6,0,B|410:195|410:195|410:118|410:118|383:73,1,187.000005706787,2|8,0:0|0:0,0:0:0:0:
297,39,57737,2,0,B|272:54|267:81|256:120|256:120|244:81|240:53|210:37,1,187.000005706787,2|0,0:0|0:0,0:0:0:0:
127,77,58585,1,8,0:0:0:0:
76,156,58868,2,0,B|95:175|127:176|127:176|120:214|133:260|184:282,1,187.000005706787,2|0,0:0|0:0,0:0:0:0:
256,184,59716,5,8,0:0:0:0:
328,282,59999,2,0,B|379:260|392:214|385:176|385:176|417:175|436:156,1,187.000005706787,2|0,0:0|0:0,0:0:0:0:
452,146,60706,1,0,0:0:0:0:
463,131,60847,1,8,0:0:0:0:
385,78,61130,1,0,0:0:0:0:
198,88,61413,6,0,P|283:84|397:77,1,187.000005706787,4|8,0:0|0:0,0:0:0:0:
489,214,62261,2,0,P|404:210|290:203,1,187.000005706787,2|0,0:0|0:0,0:0:0:0:
297,111,63109,1,8,0:0:0:0:
477,178,63392,2,0,P|482:227|403:339,1,187.000005706787,2|0,0:0|0:0,0:0:0:0:
326,290,64240,5,8,0:0:0:0:
240,270,64523,2,0,B|176:270|156:302|136:334|68:330,1,187.000005706787,2|0,0:0|0:0,0:0:0:0:
84,240,65371,1,8,0:0:0:0:
220,360,65654,1,0,0:0:0:0:
63,331,65937,6,0,P|119:319|175:207,1,187.000005706787,4|8,0:0|0:0,0:0:0:0:
336,211,66785,2,0,P|364:297|449:331,1,187.000005706787,2|0,0:0|0:0,0:0:0:0:
426,237,67634,1,10,0:0:0:0:
295,353,67916,2,0,P|247:345|192:344,1,93.5000028533936,2|0,0:0|0:0,0:0:0:0:
103,222,68482,5,0,3:0:0:0:
51,369,68765,1,0,3:0:0:0:
202,343,69047,1,0,3:0:0:0:
103,222,69330,2,0,L|95:170,1,46.7500014266968,8|0,0:0|0:0,0:0:0:0:
158,80,69613,2,0,L|169:136,1,46.7500014266968
253,153,69896,2,0,P|303:113|380:124,1,136,8|6,0:0|0:0,0:0:0:0:
414,293,71027,5,8,0:0:0:0:
320,286,71309,2,0,B|256:282|256:282|207:305|207:305|117:300,1,187.000005706787,4|0,0:0|0:0,0:0:0:0:
67,239,72158,1,8,0:0:0:0:
49,147,72440,2,0,P|99:70|191:64,1,187.000005706787,2|0,0:0|0:0,0:0:0:0:
257,125,73289,5,8,0:0:0:0:
327,63,73571,2,0,P|377:140|469:146,1,187.000005706787,2|0,0:0|0:0,0:0:0:0:
424,62,74420,1,8,0:0:0:0:
466,147,74702,1,0,0:0:0:0:
424,228,74985,6,0,P|434:273|329:337,1,187.000005706787,2|8,0:0|0:0,0:0:0:0:
263,273,75833,2,0,P|216:262|247:346,1,187.000005706787,2|0,0:0|0:0,0:0:0:0:
233,185,76682,2,0,P|177:195|141:232,1,93.5000028533936,8|2,0:0|0:0,0:0:0:0:
58,54,77530,5,0,0:0:0:0:
43,146,77813,1,8,0:0:0:0:
131,115,78095,2,0,P|166:78|299:82,1,187.000005706787,2|0,0:0|0:0,0:0:0:0:
307,91,78802,1,0,0:0:0:0:
319,103,78944,2,0,P|408:119|481:66,1,187.000005706787,10|4,0:0|0:0,0:0:0:0:
481,64,80075,5,8,0:0:0:0:
388,23,80357,1,2,0:0:0:0:
489,73,80923,5,0,0:0:0:0:
392,30,81206,1,8,0:0:0:0:
399,138,81488,6,0,P|406:196|417:339,1,187.000005706787,2|0,0:0|0:0,0:0:0:0:
327,330,82337,1,8,0:0:0:0:
264,260,82619,2,0,P|197:224|89:240,1,187.000005706787,2|0,0:0|0:0,0:0:0:0:
100,350,83468,2,0,P|148:343|200:340,1,93.5000028533936,8|0,0:0|0:0,0:0:0:0:
264,260,84033,6,0,P|310:263|356:269,1,93.5000028533936,6|2,0:0|0:0,0:0:0:0:
442,280,84599,1,8,0:0:0:0:
456,166,84881,2,0,P|365:172|242:176,1,187.000005706787,2|2,0:0|0:0,0:0:0:0:
135,100,85730,1,8,0:0:0:0:
135,100,86012,1,4,0:0:0:0:
256,192,86295,12,0,89123,0:0:0:0:
