osu file format v13

[General]
AudioFilename: aaaa.mp3
AudioLeadIn: 1500
PreviewTime: 50386
Countdown: 0
SampleSet: Soft
StackLeniency: 0.4
Mode: 0
LetterboxInBreaks: 0
WidescreenStoryboard: 1

[Editor]
Bookmarks: 13062,27483,41055,52365
DistanceSpacing: 1.2
BeatDivisor: 4
GridSize: 4
TimelineZoom: 1

[Metadata]
Title:ebb and flow (TV Size)
TitleUnicode:ebb and flow (TV Size)
Artist:Ray
ArtistUnicode:Ray
Creator:Melophobia
Version:Insane
Source:凪のあすから
Tags:Nagi no Asukara opening KSHR Laurier Irreversible Konei Kawada Mami
BeatmapID:370801
BeatmapSetID:150235

[Difficulty]
HPDrainRate:7
CircleSize:4
OverallDifficulty:8
ApproachRate:8
SliderMultiplier:1.8
SliderTickRate:2

[Events]
//Background and Video events
0,0,"nagi.jpg",0,0
Video,54,"opening.avi"
//Break Periods
//Storyboard Layer 0 (Background)
//Storyboard Layer 1 (Fail)
//Storyboard Layer 2 (Pass)
//Storyboard Layer 3 (Foreground)
//Storyboard Sound Samples
//Background Colour Transformations
3,100,163,162,255

[TimingPoints]
583,565.952309085421,4,2,2,35,1,0
7940,-100,4,2,2,45,0,0
8506,-100,4,2,2,55,0,0
9072,-100,4,2,2,65,0,0
9638,-100,4,2,2,45,0,0
10204,-100,4,2,1,45,0,0
13599,-100,4,2,3,45,0,0
13741,-100,4,2,1,45,0,0
18127,-100,4,2,3,45,0,0
18269,-100,4,2,1,45,0,0
22655,-100,4,2,3,45,0,0
22796,-100,4,2,1,45,0,0
27182,-100,4,2,3,45,0,0
27748,-100,4,2,2,55,0,0
27890,-100,4,2,1,55,0,0
31710,-100,4,2,3,55,0,0
31851,-100,4,2,1,55,0,0
36237,-100,4,2,3,45,0,0
36803,-100,4,2,1,55,0,0
39633,-100,4,2,3,55,0,0
39775,-100,4,2,1,55,0,0
40199,-133.333333333333,4,2,1,45,0,0
40765,-100,4,2,3,55,0,0
41331,-100,4,2,2,45,0,0
41473,-100,4,2,1,45,0,0
45859,-100,4,2,1,35,0,0
46991,-100,4,2,1,55,0,0
50386,-100,4,2,1,5,0,0
52650,-100,4,2,2,70,0,1
52792,-100,4,2,1,70,0,1
61705,-100,4,2,2,70,0,1
61847,-100,4,2,1,70,0,1
66233,-100,4,2,2,60,0,1
66374,-100,4,2,1,70,0,1
70761,-100,4,2,2,70,0,1
70902,-100,4,2,1,70,0,1
71610,-100,4,2,2,60,0,1
71751,-100,4,2,1,70,0,1
75288,-100,4,2,2,60,0,1
75430,-100,4,2,1,70,0,1
79816,-100,4,2,2,70,0,1
79957,-100,4,2,1,70,0,1
84343,-100,4,2,2,70,0,1
84485,-100,4,2,1,70,0,1
86324,-100,4,2,2,50,0,0
86466,-100,4,2,2,45,0,0
87173,-100,4,2,2,35,0,0
87739,-100,4,2,2,25,0,0
88305,-100,4,2,2,15,0,0
88871,-100,4,2,2,5,0,0

[Colours]
Combo1 : 255,128,64
Combo2 : 0,128,255
Combo3 : 255,128,128
Combo4 : 128,128,255

[HitObjects]
440,136,583,6,0,L|452:244,1,90,0|2,0:0|0:0,0:0:0:0:
370,354,1148,2,0,L|360:264,1,90,0|2,0:0|0:0,0:0:0:0:
268,228,1714,2,0,P|208:252|136:240,1,135,2|2,0:0|0:0,0:0:0:0:
116,96,2563,5,0,0:0:0:0:
116,96,2705,2,0,P|176:72|248:84,1,135,2|0,0:0|0:0,0:0:0:0:
336,120,3412,2,0,L|432:100,1,90,2|0,0:0|0:0,0:0:0:0:
472,188,3978,2,0,P|492:252|488:320,2,135,2|2|0,0:0|0:0|0:0,0:0:0:0:
432,156,4969,6,0,P|372:180|296:168,1,135,2|2,0:0|0:0,0:0:0:0:
212,132,5676,1,0,0:0:0:0:
112,148,5959,1,2,0:0:0:0:
48,224,6242,2,0,P|52:268|64:336,1,90,2|0,0:0|0:0,0:0:0:0:
76,344,6666,2,0,P|148:324|244:320,1,135,2|0,0:0|0:0,0:0:0:0:
244,328,7232,1,2,0:0:0:0:
256,192,7657,5,2,0:0:0:0:
256,192,7798,12,4,9638,0:0:0:0:
140,72,10204,6,0,L|132:124,1,45,2|0,0:0|0:0,0:0:0:0:
68,176,10487,2,0,L|80:240,1,45,4|0,0:0|0:0,0:0:0:0:
128,292,10770,2,0,P|176:296|244:276,1,90,2|4,0:0|0:0,0:0:0:0:
384,232,11336,1,6,0:0:0:0:
320,320,11619,1,0,0:0:0:0:
280,220,11902,5,6,0:0:0:0:
428,332,12185,1,0,0:0:0:0:
452,148,12467,1,2,0:0:0:0:
384,232,12750,2,0,P|308:256|216:224,1,180,6|4,0:0|0:0,0:0:0:0:
54,166,13599,2,0,P|99:166|140:148,1,90,2|0,0:0|0:0,0:0:0:0:
260,24,14165,6,0,P|241:64|241:109,1,90,6|0,0:0|0:0,0:0:0:0:
380,236,14731,2,0,L|364:188,1,45,2|0,0:0|0:0,0:0:0:0:
414,85,15014,2,0,L|428:128,1,45,4|0,0:0|0:0,0:0:0:0:
460,208,15297,5,2,0:0:0:0:
296,152,15580,1,4,0:0:0:0:
328,324,15863,1,6,0:0:0:0:
392,132,16146,1,0,0:0:0:0:
256,252,16429,5,6,0:0:0:0:
340,52,16712,1,0,0:0:0:0:
372,232,16995,1,2,0:0:0:0:
192,160,17278,1,6,0:0:0:0:
344,60,17844,5,6,0:0:0:0:
196,172,18127,1,2,0:0:0:0:
236,72,18410,1,6,0:0:0:0:
260,260,18693,6,0,P|184:284|104:224,1,180,6|0,0:0|0:0,0:0:0:0:
296,160,19542,1,6,0:0:0:0:
340,328,19825,2,0,P|384:324|428:296,1,90,0|6,0:0|0:0,0:0:0:0:
379,134,20391,2,0,P|335:138|291:166,1,90,4|2,0:0|0:0,0:0:0:0:
168,216,20957,5,6,0:0:0:0:
252,80,21240,1,0,0:0:0:0:
264,264,21523,1,2,0:0:0:0:
100,184,21806,1,6,0:0:0:0:
104,188,22372,2,0,L|92:84,2,90,6|2|6,0:0|0:0|0:0,0:0:0:0:
264,288,23221,5,4,0:0:0:0:
240,184,23504,1,2,0:0:0:0:
160,260,23787,1,2,0:0:0:0:
279,261,24070,5,4,0:0:0:0:
208,182,24352,1,2,0:0:0:0:
175,287,24635,1,6,0:0:0:0:
312,156,24918,5,0,0:0:0:0:
175,287,25201,1,2,0:0:0:0:
200,118,25484,5,6,0:0:0:0:
276,350,25767,1,2,0:0:0:0:
276,350,26333,1,6,0:0:0:0:
276,350,26899,1,6,0:0:0:0:
336,260,27182,1,2,0:0:0:0:
444,264,27465,1,4,0:0:0:0:
276,350,27748,6,0,P|232:356|180:336,1,90,4|0,0:0|0:0,0:0:0:0:
92,296,28314,2,0,L|65:332,1,45,2|0,0:0|0:0,0:0:0:0:
64,212,28597,2,0,L|20:222,1,45,4|0,0:0|0:0,0:0:0:0:
104,132,28880,2,0,P|64:100|20:96,1,90,2|4,0:0|0:0,0:0:0:0:
64,212,29446,1,2,0:0:0:0:
188,112,29729,1,0,0:0:0:0:
252,172,30012,5,6,0:0:0:0:
124,32,30295,1,0,0:0:0:0:
64,212,30578,1,2,0:0:0:0:
188,112,30861,2,0,P|256:80|356:96,1,180,6|6,0:0|0:0,0:0:0:0:
428,180,31710,1,2,0:0:0:0:
428,180,31851,1,0,0:0:0:0:
428,180,31993,1,2,0:0:0:0:
372,272,32276,6,0,P|316:256|280:224,1,90,6|0,0:0|0:0,0:0:0:0:
188,148,32842,2,0,L|196:208,1,45,2|0,0:0|0:0,0:0:0:0:
108,224,33125,2,0,L|116:284,1,45,4|0,0:0|0:0,0:0:0:0:
44,324,33408,1,2,0:0:0:0:
84,188,33691,1,4,0:0:0:0:
188,288,33974,2,0,P|232:280|268:244,1,90,2|0,0:0|0:0,0:0:0:0:
328,164,34540,5,6,0:0:0:0:
265,250,34823,1,0,0:0:0:0:
221,153,35106,1,2,0:0:0:0:
433,178,35389,1,6,0:0:0:0:
435,173,35955,1,6,0:0:0:0:
391,271,36237,1,2,0:0:0:0:
440,368,36520,1,4,0:0:0:0:
391,271,36803,6,0,P|306:247|221:273,1,180,6|0,0:0|0:0,0:0:0:0:
137,342,37652,1,6,0:0:0:0:
221,273,37935,2,0,P|229:229|221:185,1,90,0|6,0:0|0:0,0:0:0:0:
84,41,38501,2,0,P|75:84|83:128,1,90,0|2,0:0|0:0,0:0:0:0:
151,224,39067,6,0,P|239:232|319:176,1,180,6|2,0:0|0:0,0:0:0:0:
356,84,39916,1,6,0:0:0:0:
420,168,40199,1,2,0:0:0:0:
420,168,40341,1,0,0:0:0:0:
420,168,40482,1,4,0:0:0:0:
248,100,40765,1,4,0:0:0:0:
252,108,41331,6,0,P|160:132|68:80,1,180,4|0,0:0|0:0,0:0:0:0:
156,180,42180,2,0,P|172:272|128:364,1,180,6|6,0:0|0:0,0:0:0:0:
36,372,43029,1,2,0:0:0:0:
68,268,43312,1,2,0:0:0:0:
240,344,43595,6,0,P|328:348|408:300,1,180,6|0,0:0|0:0,0:0:0:0:
368,152,44444,2,0,P|280:148|200:196,1,180,6|6,0:0|0:0,0:0:0:0:
304,248,45293,2,0,L|284:160,1,90,6|2,0:0|0:0,0:0:0:0:
196,40,45859,5,6,0:0:0:0:
104,252,46425,1,2,0:0:0:0:
316,344,46991,1,2,0:0:0:0:
408,132,47557,1,2,0:0:0:0:
256,192,48122,12,0,50386,0:0:0:0:
400,288,52650,6,0,P|316:256|228:272,1,180,4|8,0:0|0:0,0:0:0:0:
128,360,53499,2,0,P|141:272|109:189,1,180,6|6,0:0|0:0,0:0:0:0:
148,60,54348,1,8,0:0:0:0:
256,140,54631,6,0,P|352:148|432:84,1,180,6|6,0:0|0:0,0:0:0:0:
316,16,55480,1,8,0:0:0:0:
256,140,55763,2,0,B|236:236|276:232|256:324,1,180,6|6,0:0|0:0,0:0:0:0:
152,284,56612,1,8,0:0:0:0:
256,140,56895,1,2,0:0:0:0:
352,196,57178,6,0,P|436:204|516:140,1,180,6|8,0:0|0:0,0:0:0:0:
496,44,58027,1,6,0:0:0:0:
388,24,58310,1,0,0:0:0:0:
388,24,58451,1,0,0:0:0:0:
388,24,58593,2,0,L|416:136,1,90,6|8,0:0|0:0,0:0:0:0:
288,332,59159,6,0,L|260:220,1,90,6|0,0:0|0:0,0:0:0:0:
324,160,59725,1,6,0:0:0:0:
288,332,60007,1,8,0:0:0:0:
156,216,60290,2,0,P|112:204|48:212,1,90,6|0,0:0|0:0,0:0:0:0:
100,308,60856,1,6,0:0:0:0:
100,308,60998,1,4,0:0:0:0:
100,308,61139,1,8,0:0:0:0:
208,128,61422,1,0,0:0:0:0:
328,304,61705,6,0,P|416:296|484:236,1,180,4|8,0:0|0:0,0:0:0:0:
428,52,62554,2,0,P|340:60|272:120,1,180,6|6,0:0|0:0,0:0:0:0:
256,224,63403,1,8,0:0:0:0:
424,156,63686,5,6,0:0:0:0:
428,164,64252,1,6,0:0:0:0:
344,252,64535,1,8,0:0:0:0:
232,212,64818,2,0,P|216:120|252:28,1,180,6|6,0:0|0:0,0:0:0:0:
352,24,65667,1,8,0:0:0:0:
312,124,65950,5,2,0:0:0:0:
312,124,66091,1,0,0:0:0:0:
312,124,66233,2,0,P|224:140|136:64,1,180,4|8,0:0|0:0,0:0:0:0:
40,252,67082,2,0,P|128:268|216:192,1,180,6|6,0:0|0:0,0:0:0:0:
228,96,67931,1,8,0:0:0:0:
108,128,68214,2,0,L|20:152,1,90,6|0,0:0|0:0,0:0:0:0:
292,196,68780,5,10,0:0:0:0:
168,48,69063,1,10,0:0:0:0:
196,288,69346,1,4,0:0:0:0:
260,92,69629,2,0,L|272:148,1,45,2|8,0:0|0:0,0:0:0:0:
188,224,69912,2,0,L|172:164,1,45,4|4,0:0|0:0,0:0:0:0:
360,208,70195,2,0,L|336:320,1,90,8|0,0:0|0:0,0:0:0:0:
172,340,70761,6,0,P|84:332|16:272,1,180,4|8,0:0|0:0,0:0:0:0:
72,28,71610,2,0,P|109:108|91:197,1,180,4|6,0:0|0:0,0:0:0:0:
16,276,72458,1,8,0:0:0:0:
192,220,72741,6,0,B|268:188|288:240|384:200,1,180,6|6,0:0|0:0,0:0:0:0:
352,72,73590,1,8,0:0:0:0:
456,292,73873,2,0,P|480:224|456:120,1,180,6|6,0:0|0:0,0:0:0:0:
352,72,74722,1,8,0:0:0:0:
368,188,75005,1,2,0:0:0:0:
296,280,75288,6,0,P|212:304|124:228,1,180,4|8,0:0|0:0,0:0:0:0:
120,152,76137,1,6,0:0:0:0:
204,84,76420,1,0,0:0:0:0:
204,84,76562,1,0,0:0:0:0:
204,84,76703,2,0,P|220:136|216:196,1,90,6|8,0:0|0:0,0:0:0:0:
56,324,77269,6,0,P|40:272|44:212,1,90,6|0,0:0|0:0,0:0:0:0:
120,152,77835,1,6,0:0:0:0:
152,292,78118,1,8,0:0:0:0:
260,196,78401,2,0,P|308:188|360:200,1,90,6|0,0:0|0:0,0:0:0:0:
152,292,78967,1,6,0:0:0:0:
152,292,79108,1,4,0:0:0:0:
152,292,79250,1,8,0:0:0:0:
260,196,79533,1,0,0:0:0:0:
332,324,79816,6,0,P|416:320|484:252,1,180,4|8,0:0|0:0,0:0:0:0:
260,196,80665,2,0,P|176:200|108:268,1,180,6|4,0:0|0:0,0:0:0:0:
220,312,81514,1,8,0:0:0:0:
132,108,81797,5,6,0:0:0:0:
136,112,82363,1,6,0:0:0:0:
172,216,82646,1,8,0:0:0:0:
240,132,82929,2,0,P|324:112|420:148,1,180,6|6,0:0|0:0,0:0:0:0:
440,240,83777,1,8,0:0:0:0:
360,308,84060,1,2,0:0:0:0:
360,308,84202,1,0,0:0:0:0:
360,308,84343,1,4,0:0:0:0:
174,338,84626,5,2,0:0:0:0:
241,162,84909,1,10,0:0:0:0:
360,308,85192,1,6,0:0:0:0:
158,230,85475,1,4,0:0:0:0:
158,230,85617,1,0,0:0:0:0:
158,230,85758,1,6,0:0:0:0:
275,376,86041,1,8,0:0:0:0:
343,202,86324,1,6,0:0:0:0:
256,192,86466,12,0,89437,0:0:0:0:
