osu file format v13

[General]
AudioFilename: aaaa.mp3
AudioLeadIn: 1500
PreviewTime: 50386
Countdown: 0
SampleSet: Soft
StackLeniency: 0.4
Mode: 0
LetterboxInBreaks: 0
WidescreenStoryboard: 1

[Editor]
Bookmarks: 13062,27483,41055,52365
DistanceSpacing: 1.1
BeatDivisor: 4
GridSize: 4
TimelineZoom: 1

[Metadata]
Title:ebb and flow (TV Size)
TitleUnicode:ebb and flow (TV Size)
Artist:Ray
ArtistUnicode:Ray
Creator:Melophobia
Version:Easy
Source:凪のあすから
Tags:Nagi no Asukara opening KSHR Laurier Irreversible Konei Kawada Mami
BeatmapID:370918
BeatmapSetID:150235

[Difficulty]
HPDrainRate:2
CircleSize:3
OverallDifficulty:2
ApproachRate:3
SliderMultiplier:0.999999999999999
SliderTickRate:2

[Events]
//Background and Video events
0,0,"nagi.jpg",0,0
Video,54,"opening.avi"
//Break Periods
//Storyboard Layer 0 (Background)
//Storyboard Layer 1 (Fail)
//Storyboard Layer 2 (Pass)
//Storyboard Layer 3 (Foreground)
//Storyboard Sound Samples
//Background Colour Transformations
3,100,163,162,255

[TimingPoints]
583,565.952309085421,4,2,2,25,1,0
8223,-100,4,2,2,15,0,0
9638,-100,4,2,2,45,0,0
9779,-100,4,2,1,45,0,0
13599,-100,4,2,3,45,0,0
13741,-100,4,2,1,45,0,0
18127,-100,4,2,3,45,0,0
18269,-100,4,2,1,45,0,0
22655,-100,4,2,3,45,0,0
22796,-100,4,2,1,45,0,0
27748,-100,4,2,2,55,0,0
27890,-100,4,2,1,55,0,0
31710,-100,4,2,3,55,0,0
31851,-100,4,2,1,55,0,0
36237,-100,4,2,3,45,0,0
36803,-100,4,2,1,55,0,0
39633,-100,4,2,3,55,0,0
39775,-100,4,2,1,55,0,0
40765,-100,4,2,3,45,0,0
41331,-100,4,2,2,45,0,0
41473,-100,4,2,1,45,0,0
45859,-100,4,2,1,35,0,0
46991,-100,4,2,1,55,0,0
50386,-100,4,2,1,5,0,0
52650,-100,4,2,2,70,0,1
52792,-100,4,2,1,70,0,1
61705,-100,4,2,2,70,0,1
61847,-100,4,2,1,70,0,1
66233,-100,4,2,2,60,0,1
66374,-100,4,2,1,70,0,1
70761,-100,4,2,2,70,0,1
70902,-100,4,2,1,70,0,1
71610,-100,4,2,2,60,0,1
71751,-100,4,2,1,70,0,1
75288,-100,4,2,2,60,0,1
75430,-100,4,2,1,70,0,1
79816,-100,4,2,2,70,0,1
79957,-100,4,2,1,70,0,1
84343,-100,4,2,2,70,0,1
84485,-100,4,2,1,70,0,1
86324,-100,4,2,2,50,0,0
86466,-100,4,2,2,45,0,0
87173,-100,4,2,2,35,0,0
87739,-100,4,2,2,25,0,0
88305,-100,4,2,2,15,0,0
88871,-100,4,2,2,5,0,0

[Colours]
Combo1 : 255,128,64
Combo2 : 0,128,255
Combo3 : 255,128,128
Combo4 : 128,128,255

[HitObjects]
276,36,583,6,0,P|324:116|300:236,1,200,2|2,0:0|0:0,0:0:0:0:
76,264,2846,2,0,P|121:182|237:143,1,200,2|2,0:0|0:0,0:0:0:0:
372,324,5110,2,0,P|278:325|186:244,2,200,2|2|2,0:0|0:0|0:0,0:0:0:0:
408,280,7657,2,0,P|394:234|396:168,1,99.9999999999999,2|2,0:0|0:0,0:0:0:0:
412,160,9638,6,0,P|340:172|268:136,1,150,4|6,0:0|0:0,0:0:0:0:
180,200,11053,2,0,P|180:252|196:308,1,99.9999999999999,6|0,0:0|0:0,0:0:0:0:
180,352,11902,2,0,P|132:368|80:356,1,99.9999999999999,6|2,0:0|0:0,0:0:0:0:
52,316,12750,2,0,P|72:236|56:172,1,150,6|2,0:0|0:0,0:0:0:0:
108,76,14165,6,0,B|176:60|176:60|224:76|224:76|312:56,1,200,6|2,0:0|0:0,0:0:0:0:
404,92,15863,1,4,0:0:0:0:
356,192,16429,2,0,P|352:244|372:308,1,99.9999999999999,6|2,0:0|0:0,0:0:0:0:
396,336,17278,2,0,P|328:368|252:364,1,150,6|2,0:0|0:0,0:0:0:0:
144,344,18693,6,0,P|108:256|128:150,1,200,6|2,0:0|0:0,0:0:0:0:
212,88,20391,1,4,0:0:0:0:
296,160,20957,2,0,P|376:168|440:120,1,150,6|6,0:0|0:0,0:0:0:0:
496,284,22655,1,2,0:0:0:0:
404,344,23221,6,0,P|332:376|252:352,1,150,6|6,0:0|0:0,0:0:0:0:
184,284,24635,2,0,P|165:212|177:138,1,150,6|6,0:0|0:0,0:0:0:0:
204,92,25767,2,0,L|316:92,1,99.9999999999999,2|6,0:0|0:0,0:0:0:0:
388,164,26899,2,0,P|399:238|381:310,1,150,6|4,0:0|0:0,0:0:0:0:
276,340,28314,5,0,0:0:0:0:
180,280,28880,2,0,P|128:272|68:300,1,99.9999999999999,2|4,0:0|0:0,0:0:0:0:
12,204,30012,2,0,L|4:92,1,99.9999999999999,6|2,0:0|0:0,0:0:0:0:
28,56,30861,2,0,P|96:24|184:44,1,150,6|2,0:0|0:0,0:0:0:0:
252,104,32276,5,6,0:0:0:0:
228,212,32842,2,0,P|128:264|32:248,1,200,2|2,0:0|0:0,0:0:0:0:
32,144,34540,2,0,L|24:24,1,99.9999999999999,6|2,0:0|0:0,0:0:0:0:
80,48,35389,2,0,P|156:60|228:24,1,150,6|2,0:0|0:0,0:0:0:0:
332,36,36803,6,0,P|368:112|360:232,1,200,6|2,0:0|0:0,0:0:0:0:
300,316,38501,1,0,0:0:0:0:
208,256,39067,2,0,P|156:252|104:280,1,99.9999999999999,6|2,0:0|0:0,0:0:0:0:
64,248,39916,2,0,B|52:192|52:192|68:156|68:156|54:101,1,150,6|4,0:0|0:0,0:0:0:0:
148,52,41331,6,0,P|224:60|300:20,1,150,4|6,0:0|0:0,0:0:0:0:
400,152,43029,1,6,0:0:0:0:
324,232,43595,2,0,P|248:240|172:200,1,150,6|6,0:0|0:0,0:0:0:0:
60,100,45293,2,0,P|104:80|160:84,1,99.9999999999999,6|6,0:0|0:0,0:0:0:0:
244,144,46425,5,2,0:0:0:0:
344,96,46991,1,2,0:0:0:0:
256,32,47557,1,2,0:0:0:0:
256,192,48122,12,0,50386,0:0:0:0:
240,88,52650,6,0,P|236:136|252:200,1,99.9999999999999,4|2,0:0|0:0,0:0:0:0:
288,224,53499,2,0,P|216:212|136:248,1,150,6|2,0:0|0:0,0:0:0:0:
100,268,54631,2,0,P|53:272|5:248,1,99.9999999999999,6|6,0:0|0:0,0:0:0:0:
8,140,55763,2,0,P|80:128|144:172,1,150,6|2,0:0|0:0,0:0:0:0:
248,196,57178,6,0,P|268:120|248:40,1,150,6|6,0:0|0:0,0:0:0:0:
144,40,58593,2,0,P|96:52|40:40,1,99.9999999999999,6|6,0:0|0:0,0:0:0:0:
20,152,59725,1,6,0:0:0:0:
112,212,60290,2,4,P|124:280|100:376,1,150,6|6,0:0|0:0,0:0:0:0:
208,312,61705,6,0,P|280:298|348:328,1,150,4|6,0:0|0:0,0:0:0:0:
424,248,63120,2,0,L|416:128,1,99.9999999999999,6|6,0:0|0:0,0:0:0:0:
324,84,64252,2,0,P|271:82|215:110,1,99.9999999999999,6|6,0:0|0:0,0:0:0:0:
172,196,65384,2,0,P|96:204|20:160,1,150,6|4,0:0|0:0,0:0:0:0:
164,72,67082,6,0,P|212:40|268:36,1,99.9999999999999,6|6,0:0|0:0,0:0:0:0:
320,124,68214,2,0,P|388:148|476:128,1,150,6|6,0:0|0:0,0:0:0:0:
488,240,69629,1,6,0:0:0:0:
416,324,70195,1,6,0:0:0:0:
316,272,70761,6,0,P|266:270|218:285,1,99.9999999999999,4|2,0:0|0:0,0:0:0:0:
168,308,71610,2,0,P|100:324|24:292,1,150,4|2,0:0|0:0,0:0:0:0:
20,240,72741,2,0,L|16:136,1,99.9999999999999,6|6,0:0|0:0,0:0:0:0:
80,52,73873,2,0,B|140:44|140:44|176:60|176:60|240:52,1,150,6|2,0:0|0:0,0:0:0:0:
332,80,75288,6,0,P|356:148|352:232,1,150,4|6,0:0|0:0,0:0:0:0:
280,308,76703,1,6,0:0:0:0:
388,332,77269,2,0,P|440:336|500:320,1,99.9999999999999,6|6,0:0|0:0,0:0:0:0:
508,216,78401,2,0,L|488:64,1,150,6|6,0:0|0:0,0:0:0:0:
384,32,79816,6,0,P|322:63|246:47,1,150,4|6,0:0|0:0,0:0:0:0:
136,52,81231,2,0,P|92:76|36:80,1,99.9999999999999,6|6,0:0|0:0,0:0:0:0:
16,188,82363,2,0,P|12:240|24:308,1,99.9999999999999,6|6,0:0|0:0,0:0:0:0:
112,344,83495,6,0,P|188:356|268:316,2,150,6|4|6,0:0|0:0|0:0,0:0:0:0:
20,288,85758,1,6,0:0:0:0:
116,236,86324,1,4,0:0:0:0:
256,192,86607,12,0,89437,0:0:0:0:
