osu file format v12

[General]
AudioFilename: Nagi no Asukara - 21.mp3
AudioLeadIn: 0
PreviewTime: 50096
Countdown: 0
SampleSet: Soft
StackLeniency: 0.4
Mode: 0
LetterboxInBreaks: 1
WidescreenStoryboard: 1

[Editor]
DistanceSpacing: 1.1
BeatDivisor: 4
GridSize: 8
TimelineZoom: 1.4

[Metadata]
Title:ebb and flow (TV Size)
TitleUnicode:ebb and flow (TV Size)
Artist:Ray
ArtistUnicode:Ray
Creator:Kodora
Version:Hard
Source:Nagi no Asukara
Tags:Opening 凪のあすから yanlu
BeatmapID:382471
BeatmapSetID:156031

[Difficulty]
HPDrainRate:6
CircleSize:4
OverallDifficulty:7
ApproachRate:7
SliderMultiplier:1.72
SliderTickRate:1

[Events]
//Background and Video events
0,0,"bg_for_kodora.jpg",0,0
Video,100,"[Ohys-Raws] Nagi no Asukara - 21 (ANIMAX 1280x720 x264 AAC).mp4-muxed.flv"
//Break Periods
//Storyboard Layer 0 (Background)
//Storyboard Layer 1 (Fail)
//Storyboard Layer 2 (Pass)
//Storyboard Layer 3 (Foreground)
//Storyboard Sound Samples
//Background Colour Transformations
3,100,0,64,128

[TimingPoints]
583,565.952309085421,4,2,3,80,1,0
1714,-100,4,2,4,80,0,0
1997,-100,4,2,3,80,0,0
2139,-100,4,2,4,80,0,0
3129,-100,4,2,3,80,0,0
3978,-100,4,2,5,80,0,0
4261,-100,4,2,3,80,0,0
4403,-100,4,2,5,80,0,0
5393,-100,4,2,3,80,0,0
6242,-100,4,2,4,80,0,0
6525,-100,4,2,3,80,0,0
6666,-100,4,2,4,80,0,0
7657,-100,4,2,5,80,0,0
9638,-100,4,2,1,80,0,0

[Colours]
Combo1 : 254,129,157
Combo2 : 86,149,254
Combo3 : 167,169,216
Combo4 : 0,85,170

[HitObjects]
180,163,583,5,2,0:0:0:0:
202,71,865,1,2,0:0:0:0:
113,46,1148,1,4,0:0:0:0:
86,136,1431,1,8,0:0:0:0:
86,136,1714,2,0,P|84:180|38:230,1,86,2|8,0:0|0:0,0:0:0:0:
30,248,2139,2,0,L|163:273,1,129,4|8,0:0|0:0,0:0:0:0:
197,290,2705,1,4,0:0:0:0:
442,288,3129,5,2,0:0:0:0:
351,311,3412,1,4,0:0:0:0:
323,221,3695,1,2,0:0:0:0:
412,192,3978,2,0,P|396:151|414:87,1,86,2|2,0:0|0:0,0:0:0:0:
423,70,4403,2,0,P|365:86|276:52,1,129,4|8,0:0|0:0,0:0:0:0:
262,43,4969,1,4,0:0:0:0:
112,116,5393,5,2,0:0:0:0:
47,184,5676,1,4,0:0:0:0:
86,269,5959,1,8,0:0:0:0:
179,255,6242,2,0,P|221:253|276:271,1,86,2|8,0:0|0:0,0:0:0:0:
298,294,6666,2,0,P|357:314|430:297,1,129,4|8,0:0|0:0,0:0:0:0:
454,271,7232,1,4,0:0:0:0:
371,128,7657,5,4,0:0:0:0:
256,192,7940,12,0,9638,0:0:0:0:
93,60,10204,6,0,P|93:106|106:166,1,86
186,192,10770,2,0,P|186:237|175:277,1,86
128,358,11336,1,0,0:0:0:0:
81,275,11619,1,0,0:0:0:0:
186,192,11902,6,0,B|227:178|267:194|267:194|307:210|355:194,1,172
447,102,12750,2,0,P|375:70|281:94,1,172
213,149,13599,1,0,0:0:0:0:
367,258,14165,1,0,0:0:0:0:
121,334,14731,6,0,P|124:291|107:231,1,86
48,181,15297,2,0,P|45:138|63:97,1,86
138,44,15863,1,0,0:0:0:0:
181,128,16146,1,0,0:0:0:0:
321,15,16429,2,0,L|410:31,1,86
477,91,16995,1,0,0:0:0:0:
398,143,17278,1,0,0:0:0:0:
261,278,17844,5,0,0:0:0:0:
273,371,18127,1,0,0:0:0:0:
350,316,18410,1,0,0:0:0:0:
261,278,18693,2,0,P|178:249|72:284,1,172
49,347,19542,1,0,0:0:0:0:
48,347,19825,2,0,P|77:264|36:159,1,172
0,106,20674,1,0,0:0:0:0:
80,56,20957,2,0,L|168:40,1,86
243,93,21523,1,0,0:0:0:0:
201,178,21806,1,0,0:0:0:0:
323,42,22372,5,0,0:0:0:0:
398,98,22655,2,0,P|424:124|443:185,1,86
454,263,23221,5,0,0:0:0:0:
324,307,23504,1,0,0:0:0:0:
358,173,23787,1,0,0:0:0:0:
395,305,24070,5,0,0:0:0:0:
318,235,24352,1,0,0:0:0:0:
417,207,24635,1,0,0:0:0:0:
324,307,24918,5,0,0:0:0:0:
324,307,25201,1,0,0:0:0:0:
233,279,25484,2,0,P|186:280|127:319,1,86
76,354,26050,1,0,0:0:0:0:
40,266,26333,2,0,P|26:232|33:167,1,86
44,81,26899,5,0,0:0:0:0:
121,149,27182,1,0,0:0:0:0:
27,183,27465,1,0,0:0:0:0:
147,49,27748,1,0,0:0:0:0:
315,237,28314,6,0,P|300:196|311:139,1,86
368,309,28880,2,0,P|327:324|270:313,1,86
419,232,29446,2,0,P|467:220|515:232,1,86
469,328,30012,1,0,0:0:0:0:
375,321,30295,1,0,0:0:0:0:
313,248,30578,1,0,0:0:0:0:
244,182,30861,2,0,P|162:152|71:193,1,172
44,265,31710,2,0,P|74:183|33:92,1,172
212,15,32842,6,0,P|197:59|230:121,1,86
115,194,33408,2,0,P|159:200|194:180,1,86
283,150,33974,1,0,0:0:0:0:
348,217,34257,1,0,0:0:0:0:
283,352,34540,5,0,0:0:0:0:
194,317,34823,1,0,0:0:0:0:
271,263,35106,1,0,0:0:0:0:
283,352,35389,1,0,0:0:0:0:
159,208,35955,5,0,0:0:0:0:
97,136,36237,2,0,P|87:97|102:45,1,86
178,3,36803,2,0,P|103:33|18:-4,1,172
88,68,37652,1,0,0:0:0:0:
128,153,37935,2,0,P|128:192|111:248,1,86
81,325,38501,1,0,0:0:0:0:
21,251,38784,1,0,0:0:0:0:
177,294,39067,6,0,P|218:304|249:333,1,86
332,378,39633,1,0,0:0:0:0:
403,316,39916,2,0,P|416:276|414:213,1,86
392,139,40482,1,0,0:0:0:0:
328,208,40765,1,0,0:0:0:0:
502,280,41331,5,0,0:0:0:0:
329,356,41897,6,0,B|281:372|241:356|241:356|201:340|160:354,1,172
69,381,42746,1,0,0:0:0:0:
9,308,43029,1,0,0:0:0:0:
101,287,43312,1,0,0:0:0:0:
32,189,43595,2,0,P|19:106|61:23,1,172
138,75,44444,2,0,B|230:112|315:49,1,172
383,9,45293,1,0,0:0:0:0:
440,86,45576,1,0,0:0:0:0:
356,130,45859,5,0,0:0:0:0:
132,257,46425,1,0,0:0:0:0:
367,362,46991,1,0,0:0:0:0:
171,342,47557,1,0,0:0:0:0:
256,192,48122,12,0,50386,0:0:0:0:
191,55,52650,6,0,P|193:131|164:194,1,129
142,214,53216,2,0,L|56:205,1,86
184,298,53782,2,0,P|227:303|293:346,1,86
339,380,54348,1,0,0:0:0:0:
424,339,54631,2,0,L|448:177,1,129
436,164,55197,6,0,L|426:61,1,86
244,78,55763,1,0,0:0:0:0:
336,104,56046,1,0,0:0:0:0:
251,201,56329,5,0,0:0:0:0:
161,170,56612,1,0,0:0:0:0:
147,76,56895,1,0,0:0:0:0:
251,201,57178,2,0,P|258:294|208:371,1,172
170,279,58027,2,0,B|264:279|363:309,1,172
421,355,58876,1,0,0:0:0:0:
495,297,59159,1,0,0:0:0:0:
411,70,59725,5,0,0:0:0:0:
492,118,60007,1,0,0:0:0:0:
411,168,60290,2,0,B|365:189|323:178|323:178|282:167|243:186,1,172
243,185,60998,1,0,0:0:0:0:
243,185,61139,1,0,0:0:0:0:
168,244,61422,1,0,0:0:0:0:
123,114,61705,5,0,0:0:0:0:
195,53,61988,1,0,0:0:0:0:
318,113,62271,2,0,P|372:108|406:79,1,86
454,14,62837,1,0,0:0:0:0:
319,120,63120,6,0,P|373:115|407:86,1,86
458,22,63686,1,0,0:0:0:0:
508,159,63969,1,0,0:0:0:0:
445,229,64252,5,0,0:0:0:0:
490,311,64535,1,0,0:0:0:0:
404,351,64818,2,0,P|324:375|233:348,1,172
161,301,65667,1,0,0:0:0:0:
87,361,65950,1,0,0:0:0:0:
205,207,66233,6,0,P|225:125|196:36,1,172
138,114,67082,2,0,B|233:132|313:95,1,172
389,53,67931,1,0,0:0:0:0:
476,88,68214,1,0,0:0:0:0:
464,311,68780,5,0,0:0:0:0:
377,346,69063,1,0,0:0:0:0:
390,251,69346,1,0,0:0:0:0:
290,302,69629,1,0,0:0:0:0:
254,315,69770,1,0,0:0:0:0:
215,320,69912,1,0,0:0:0:0:
178,306,70053,1,0,0:0:0:0:
139,300,70195,2,0,P|97:296|44:321,1,86
106,201,70761,6,0,P|130:145|119:64,1,129
97,39,71327,2,0,L|5:25,1,86
205,96,71892,2,0,P|251:88|290:74,1,86
363,16,72458,1,0,0:0:0:0:
445,61,72741,1,0,0:0:0:0:
378,176,73024,2,0,P|368:245|384:316,1,129
395,347,73590,6,0,L|492:357,1,86
341,248,74156,2,0,P|302:241|247:259,1,86
176,301,74722,1,0,0:0:0:0:
125,380,75005,1,0,0:0:0:0:
70,276,75288,6,0,P|53:214|15:144,1,129
41,112,75854,2,0,P|37:74|52:18,1,86
141,38,76420,1,0,0:0:0:0:
229,72,76703,1,0,0:0:0:0:
154,130,76986,1,0,0:0:0:0:
315,34,77269,6,0,P|397:9|493:55,1,172
391,147,78118,2,0,P|377:186|386:258,1,86
276,323,78684,2,0,P|239:341|184:334,1,86
154,316,79108,1,0,0:0:0:0:
154,316,79250,2,0,L|130:164,1,129
136,141,79816,6,0,L|154:242,1,86
135,345,80382,1,0,0:0:0:0:
71,249,80665,2,0,P|55:193|63:156,1,86
103,353,81231,1,0,0:0:0:0:
79,217,81514,2,0,P|87:169|123:132,1,86
231,105,82080,5,0,0:0:0:0:
263,281,82363,1,0,0:0:0:0:
191,193,82646,1,0,0:0:0:0:
368,172,82929,1,0,0:0:0:0:
390,62,83212,1,0,0:0:0:0:
390,62,83353,1,0,0:0:0:0:
390,62,83495,1,0,0:0:0:0:
257,98,83777,6,0,P|213:99|160:59,1,86
137,53,84202,1,0,0:0:0:0:
137,53,84343,2,0,L|125:169,1,86
110,302,84909,1,0,0:0:0:0:
33,210,85192,1,0,0:0:0:0:
209,231,85475,5,0,0:0:0:0:
209,231,85617,1,0,0:0:0:0:
209,231,85758,1,0,0:0:0:0:
281,318,86041,1,0,0:0:0:0:
329,161,86324,1,0,0:0:0:0:
256,192,86607,12,0,89974,0:0:0:0:
