osu file format v12

[General]
AudioFilename: My Love.mp3
AudioLeadIn: 0
PreviewTime: 49953
Countdown: 0
SampleSet: Soft
StackLeniency: 0.7
Mode: 3
LetterboxInBreaks: 0
SpecialStyle: 0
WidescreenStoryboard: 1

[Editor]
Bookmarks: 89115
DistanceSpacing: 1
BeatDivisor: 4
GridSize: 4
TimelineZoom: 1

[Metadata]
Title:ebb and flow (TV Size)
TitleUnicode:ebb and flow (TV Size)
Artist:Ray
ArtistUnicode:Ray
Creator:- R u m i a -
Version:HD
Source:Nagi no Asukara
Tags:opening 凪のあすから
BeatmapID:383085
BeatmapSetID:156314

[Difficulty]
HPDrainRate:8
CircleSize:7
OverallDifficulty:7
ApproachRate:8
SliderMultiplier:1.4
SliderTickRate:1

[Events]
//Background and Video events
0,0,"BG1.jpg",0,0
//Break Periods
//Storyboard Layer 0 (Background)
//Storyboard Layer 1 (Fail)
//Storyboard Layer 2 (Pass)
//Storyboard Layer 3 (Foreground)
//Storyboard Sound Samples
//Background Colour Transformations
3,100,163,162,255

[TimingPoints]
331,565.50424128181,4,2,5,20,1,0
2875,-100,4,2,5,30,0,0
5137,-100,4,2,5,40,0,0
7541,-100,4,2,5,25,0,0
9379,-100,4,2,6,50,0,0
13337,-100,4,2,3,50,0,0
13620,-100,4,2,6,50,0,0
17861,-100,4,2,3,50,0,0
18144,-100,4,2,6,50,0,0
22385,-100,4,2,3,50,0,0
22668,-100,4,2,6,50,0,0
23233,-100,4,2,5,50,0,0
23799,-100,4,2,6,50,0,0
24082,-100,4,2,5,50,0,0
25213,-100,4,2,6,50,0,0
26909,-100,4,2,3,50,0,0
27475,-100,4,2,6,50,0,0
31433,-100,4,2,3,50,0,0
31716,-100,4,2,6,50,0,0
35957,-100,4,2,3,50,0,0
36523,-100,4,2,6,50,0,0
39350,-100,4,2,3,50,0,0
39633,-100,4,2,6,50,0,0
40481,-100,4,2,3,50,0,0
41047,-100,4,2,6,50,0,0
46130,-100,4,2,5,35,0,0
46702,-100,4,2,5,30,0,0
47267,-100,4,2,5,35,0,0
50095,-100,4,2,5,30,0,0
52357,-100,4,2,4,80,0,1
61122,-100,4,2,4,60,0,1
61405,-100,4,2,4,80,0,1
71301,-100,4,2,4,60,0,1
71867,-100,4,2,4,80,0,1
84025,-100,4,2,4,80,0,0
86146,-100,4,2,4,60,0,0
87418,-100,4,2,4,40,0,0
88549,-100,4,2,4,20,0,0
89115,-100,4,2,4,5,0,0

[HitObjects]
329,192,331,5,0,0:0:0:0:
36,192,331,128,0,1462:0:0:0:0:
182,192,613,1,2,0:0:0:0:
256,192,896,1,2,0:0:0:0:
475,192,1179,1,0,0:0:0:0:
182,192,1462,128,0,2593:0:0:0:0:
402,192,1462,1,0,0:0:0:0:
475,192,1744,1,0,0:0:0:0:
329,192,1886,1,2,0:0:0:0:
256,192,2310,1,2,0:0:0:0:
475,192,2451,1,2,0:0:0:0:
36,192,2593,128,0,3724:0:0:0:0:
256,192,2875,1,2,0:0:0:0:
402,192,3158,1,2,0:0:0:0:
256,192,3441,1,2,0:0:0:0:
182,192,3724,128,0,4855:0:0:0:0:
109,192,3724,1,0,0:0:0:0:
256,192,4006,1,0,0:0:0:0:
402,192,4148,1,2,0:0:0:0:
475,192,4572,1,2,0:0:0:0:
329,192,4713,1,0,0:0:0:0:
36,192,4855,128,2,5986:0:0:0:0:
109,192,5137,1,2,0:0:0:0:
256,192,5420,1,2,0:0:0:0:
475,192,5703,1,2,0:0:0:0:
256,192,5986,128,0,7117:0:0:0:0:
402,192,5986,1,2,0:0:0:0:
475,192,6268,1,2,0:0:0:0:
182,192,6410,1,2,0:0:0:0:
109,192,6834,1,2,0:0:0:0:
402,192,6975,1,2,0:0:0:0:
475,192,7117,128,0,9379:0:0:0:0:
36,192,7117,128,0,9379:0:0:0:0:
329,192,7399,1,0,0:0:0:0:
329,192,7965,1,0,0:0:0:0:
109,192,9237,1,0,0:0:0:50:soft-hitwhistle.wav
182,192,9273,1,0,0:0:0:50:soft-hitwhistle.wav
256,192,9308,1,0,0:0:0:50:soft-hitwhistle.wav
329,192,9343,1,0,0:0:0:50:soft-hitwhistle.wav
402,192,9379,1,0,0:0:0:50:soft-hitwhistle.wav
256,192,9661,1,0,0:0:0:0:
182,192,9944,1,2,0:0:0:0:
36,192,9944,1,0,0:0:0:0:
475,192,10227,1,2,0:0:0:0:
182,192,10510,1,0,0:0:0:0:
109,192,10792,1,0,0:0:0:0:
475,192,11075,1,0,0:0:0:0:
329,192,11075,1,0,0:0:0:0:
402,192,11358,1,0,0:0:0:70:soft-hitnormal4.wav
256,192,11358,1,0,0:0:0:0:
329,192,11641,1,0,0:0:0:0:
182,192,11641,1,0,0:0:0:0:
36,192,11641,128,0,13903:0:0:0:0:
402,192,11923,1,0,0:0:0:70:soft-hitnormal4.wav
256,192,12206,1,0,0:0:0:0:
402,192,12489,1,0,0:0:0:70:soft-hitnormal4.wav
256,192,12772,1,0,0:0:0:70:soft-hitnormal4.wav
256,192,13054,1,0,0:0:0:70:soft-hitnormal4.wav
402,192,13337,1,0,0:0:0:70:soft-hitfinish3.wav
182,192,13337,1,0,0:0:0:70:soft-hitclap6.wav
329,192,13620,1,0,0:0:0:0:
182,192,13903,1,0,0:0:0:0:
402,192,13903,1,0,0:0:0:0:
329,192,14185,1,2,0:0:0:0:
475,192,14468,1,0,0:0:0:0:
182,192,14468,1,0,0:0:0:0:
402,192,14751,1,2,0:0:0:0:
109,192,14751,1,0,0:0:0:0:
329,192,15034,128,0,16165:0:0:0:0:
36,192,15034,1,0,0:0:0:0:
475,192,15316,1,2,0:0:0:0:
36,192,15599,1,2,0:0:0:0:
182,192,15882,1,2,0:0:0:0:
36,192,16165,1,0,0:0:0:0:
256,192,16165,1,2,0:0:0:0:
475,192,16165,128,0,18427:0:0:0:0:
109,192,16447,1,0,0:0:0:0:
329,192,16447,1,2,0:0:0:0:
182,192,16730,1,0,0:0:0:0:
402,192,16730,1,2,0:0:0:0:
329,192,17013,1,2,0:0:0:0:
36,192,17296,1,0,0:0:0:0:
182,192,17296,1,0,0:0:0:0:
402,192,17578,1,0,0:0:0:0:
256,192,17861,1,0,0:0:0:70:soft-hitclap3.wav
36,192,17861,1,0,0:0:0:0:
329,192,18144,1,2,0:0:0:0:
36,192,18427,1,0,0:0:0:0:
182,192,18427,1,2,0:0:0:0:
329,192,18709,1,2,0:0:0:0:
182,192,18992,1,2,0:0:0:0:
475,192,19275,1,0,0:0:0:0:
329,192,19275,1,0,0:0:0:0:
36,192,19558,1,2,0:0:0:0:
329,192,19840,1,0,0:0:0:0:
109,192,20123,128,0,20689:0:0:0:0:
256,192,20123,1,0,0:0:0:0:
402,192,20406,1,2,0:0:0:0:
475,192,20689,128,0,21820:0:0:0:0:
182,192,20689,1,2,0:0:0:0:
36,192,20689,1,0,0:0:0:0:
256,192,20971,1,0,0:0:0:0:
402,192,20971,1,0,0:0:0:0:
36,192,21254,1,2,0:0:0:0:
329,192,21537,1,0,0:0:0:0:
182,192,21820,1,0,0:0:0:0:
329,192,22102,1,0,0:0:0:0:
475,192,22385,1,0,0:0:0:70:soft-hitclap3.wav
36,192,22385,1,0,0:0:0:0:
182,192,22668,1,0,0:0:0:0:
329,192,22951,1,0,0:0:0:0:
36,192,22951,128,0,24647:0:0:0:0:
475,192,22951,1,0,0:0:0:0:
256,192,23233,1,0,0:0:0:0:
109,192,23516,1,0,0:0:0:0:
329,192,23799,1,0,0:0:0:0:
182,192,24082,1,2,0:0:0:0:
182,192,24364,1,0,0:0:0:0:
475,192,24647,1,2,0:0:0:0:
329,192,24647,1,0,0:0:0:0:
182,192,24930,1,2,0:0:0:0:
329,192,25213,1,0,0:0:0:0:
109,192,25213,1,0,0:0:0:0:
36,192,25495,1,2,0:0:0:0:
402,192,25495,128,0,26061:0:0:0:0:
109,192,25778,1,2,0:0:0:0:
329,192,26061,1,0,0:0:0:0:
182,192,26061,1,0,0:0:0:0:
475,192,26061,128,0,27475:0:0:0:0:
109,192,26626,1,0,0:0:0:0:
256,192,26626,1,0,0:0:0:0:
36,192,26909,1,0,0:0:0:0:
402,192,26909,1,8,0:0:0:70:soft-hitclap3.wav
329,192,27192,1,0,0:0:0:70:soft-hitfinish3.wav
109,192,27192,1,0,0:0:0:0:
402,192,27475,1,0,0:0:0:0:
256,192,27475,1,0,0:0:0:0:
36,192,27475,1,4,0:0:0:0:
109,192,27757,1,0,0:0:0:0:
109,192,28040,1,0,0:0:0:0:
402,192,28040,1,0,0:0:0:0:
256,192,28182,1,0,0:0:0:0:
329,192,28323,1,0,0:0:0:0:
182,192,28464,1,0,0:0:0:0:
109,192,28606,1,0,0:0:0:0:
256,192,28606,1,0,0:0:0:0:
475,192,28888,1,0,0:0:0:0:
329,192,28888,1,2,0:0:0:0:
256,192,29030,1,0,0:0:0:0:
109,192,29171,1,2,0:0:0:0:
329,192,29313,1,0,0:0:0:0:
182,192,29454,1,0,0:0:0:0:
475,192,29737,1,0,0:0:0:0:
329,192,29737,1,0,0:0:0:0:
256,192,30019,1,0,0:0:0:0:
182,192,30302,1,0,0:0:0:0:
36,192,30302,1,0,0:0:0:0:
475,192,30302,128,0,31433:0:0:0:0:
329,192,30585,1,0,0:0:0:0:
256,192,30726,1,0,0:0:0:0:
182,192,30868,1,0,0:0:0:0:
256,192,31150,1,0,0:0:0:0:
402,192,31292,1,0,0:0:0:0:
36,192,31433,1,0,0:0:0:70:soft-hitclap6.wav
182,192,31433,1,0,0:0:0:0:
329,192,31575,1,0,0:0:0:0:
182,192,31716,1,2,0:0:0:0:
475,192,31999,1,0,0:0:0:0:
109,192,31999,1,2,0:0:0:0:
182,192,32140,1,0,0:0:0:0:
256,192,32281,1,0,0:0:0:0:
402,192,32281,1,0,0:0:0:0:
182,192,32564,1,0,0:0:0:0:
36,192,32706,1,0,0:0:0:0:
329,192,32847,1,0,0:0:0:0:
475,192,32988,1,0,0:0:0:0:
182,192,33130,128,0,34261:0:0:0:0:
256,192,33130,1,2,0:0:0:0:
109,192,33412,1,0,0:0:0:0:
36,192,33554,1,0,0:0:0:0:
402,192,33695,1,2,0:0:0:0:
475,192,33837,1,2,0:0:0:0:
36,192,33978,1,0,0:0:0:0:
256,192,33978,1,2,0:0:0:0:
109,192,34261,1,0,0:0:0:0:
329,192,34261,1,2,0:0:0:0:
182,192,34544,1,0,0:0:0:0:
402,192,34544,1,2,0:0:0:0:
329,192,34826,1,2,0:0:0:0:
109,192,34826,1,0,0:0:0:0:
36,192,35109,1,0,0:0:0:0:
256,192,35109,1,0,0:0:0:0:
109,192,35392,1,0,0:0:0:0:
329,192,35392,1,0,0:0:0:0:
402,192,35675,1,0,0:0:0:0:
182,192,35675,1,0,0:0:0:0:
256,192,35816,1,0,0:0:0:0:
329,192,35957,1,0,0:0:0:70:soft-hitclap3.wav
109,192,35957,1,0,0:0:0:0:
36,192,36240,1,0,0:0:0:0:
256,192,36240,1,0,0:0:0:40:soft-hitclap3.wav
182,192,36523,1,0,0:0:0:0:
475,192,36523,128,0,37371:0:0:0:0:
109,192,36664,1,0,0:0:0:0:
36,192,36806,1,0,0:0:0:0:
256,192,36806,1,0,0:0:0:0:
109,192,37088,1,0,0:0:0:0:
329,192,37088,1,0,0:0:0:0:
182,192,37230,1,0,0:0:0:0:
402,192,37371,1,0,0:0:0:0:
329,192,37512,1,0,0:0:0:0:
36,192,37654,1,0,0:0:0:0:
256,192,37654,1,0,0:0:0:0:
329,192,37937,1,0,0:0:0:0:
256,192,38078,1,0,0:0:0:0:
182,192,38219,1,2,0:0:0:0:
36,192,38219,1,0,0:0:0:0:
109,192,38502,1,0,0:0:0:0:
256,192,38502,1,2,0:0:0:0:
475,192,38502,128,0,39633:0:0:0:0:
329,192,38785,1,2,0:0:0:0:
182,192,38926,1,0,0:0:0:0:
36,192,39068,1,0,0:0:0:0:
256,192,39350,1,0,0:0:0:0:
402,192,39350,1,0,0:0:0:70:soft-hitclap3.wav
182,192,39633,128,0,40481:0:0:0:0:
109,192,39633,1,0,0:0:0:0:
402,192,39916,1,0,0:0:0:0:
475,192,40057,1,0,0:0:0:0:
329,192,40199,1,0,0:0:0:0:
256,192,40481,1,0,0:0:0:70:soft-hitfinish3.wav
475,192,40481,1,0,0:0:0:0:
402,192,40764,1,0,0:0:0:0:
182,192,40764,1,0,0:0:0:0:
475,192,41047,128,0,43309:0:0:0:0:
109,192,41047,1,0,0:0:0:0:
329,192,41047,1,4,0:0:0:0:
36,192,41047,1,0,0:0:0:0:
402,192,41330,1,0,0:0:0:0:
109,192,41612,1,0,0:0:0:0:
329,192,41895,1,0,0:0:0:0:
36,192,42178,1,0,0:0:0:0:
256,192,42461,1,0,0:0:0:0:
109,192,42743,1,0,0:0:0:0:
329,192,43026,1,0,0:0:0:0:
182,192,43309,1,0,0:0:0:0:
402,192,43309,128,0,44157:0:0:0:0:
36,192,43592,1,0,0:0:0:0:
475,192,43874,1,0,0:0:0:0:
329,192,43874,1,0,0:0:0:0:
256,192,44157,1,0,0:0:0:0:
109,192,44157,128,0,45571:0:0:0:0:
182,192,44440,1,0,0:0:0:0:
475,192,44723,1,0,0:0:0:0:
36,192,45005,1,0,0:0:0:0:
256,192,45005,1,0,0:0:0:0:
402,192,45288,1,0,0:0:0:0:
329,192,45571,1,0,0:0:0:0:
475,192,45571,1,0,0:0:0:0:
256,192,45854,1,0,0:0:0:0:
475,192,46136,128,0,46702:0:0:0:0:
109,192,46136,1,0,0:0:0:0:
329,192,46419,1,0,0:0:0:0:
36,192,46702,128,0,47267:0:0:0:0:
182,192,46702,1,0,0:0:0:0:
329,192,46985,1,0,0:0:0:0:
256,192,47267,128,0,47833:0:0:0:0:
109,192,47267,1,0,0:0:0:0:
475,192,47550,1,0,0:0:0:0:
402,192,47833,128,0,50095:0:0:0:0:
36,192,47833,1,0,0:0:0:0:
256,192,48681,128,0,50095:0:0:0:0:
109,192,48964,128,0,50095:0:0:0:0:
475,192,50095,1,0,0:0:0:0:
182,192,50095,1,0,0:0:0:0:
402,192,50660,1,0,0:0:0:0:
109,192,50660,1,0,0:0:0:0:
36,192,51226,1,0,0:0:0:0:
329,192,51226,1,0,0:0:0:0:
256,192,51791,128,0,52357:0:0:0:0:
36,192,52357,1,0,0:0:0:0:
329,192,52357,1,4,0:0:0:0:
182,192,52357,128,0,54619:0:0:0:0:
402,192,52357,1,0,0:0:0:0:
475,192,52640,1,0,0:0:0:0:
329,192,52922,1,0,0:0:0:0:
109,192,52922,1,8,0:0:0:0:
402,192,53205,1,0,0:0:0:0:
256,192,53488,1,2,0:0:0:0:
475,192,53771,1,2,0:0:0:0:
36,192,54053,1,8,0:0:0:0:
329,192,54053,1,0,0:0:0:0:
475,192,54336,1,0,0:0:0:0:
402,192,54478,1,2,0:0:0:0:
109,192,54619,1,0,0:0:0:0:
329,192,54619,1,2,0:0:0:0:
475,192,54902,1,2,0:0:0:0:
36,192,55184,1,8,0:0:0:0:
256,192,55184,1,0,0:0:0:0:
402,192,55467,1,2,0:0:0:0:
256,192,55609,1,2,0:0:0:0:
109,192,55750,1,2,0:0:0:0:
36,192,56033,1,0,0:0:0:0:
475,192,56315,1,8,0:0:0:0:
329,192,56315,1,0,0:0:0:0:
182,192,56598,1,0,0:0:0:0:
36,192,56881,1,2,0:0:0:0:
329,192,56881,1,0,0:0:0:0:
475,192,57164,1,2,0:0:0:0:
402,192,57305,1,2,0:0:0:0:
329,192,57446,1,0,0:0:0:0:
109,192,57446,1,8,0:0:0:0:
182,192,57729,1,0,0:0:0:0:
475,192,58012,1,2,0:0:0:0:
329,192,58153,1,2,0:0:0:0:
182,192,58295,1,2,0:0:0:0:
329,192,58577,1,8,0:0:0:0:
475,192,58577,1,0,0:0:0:0:
109,192,58577,1,0,0:0:0:0:
182,192,58860,1,2,0:0:0:0:
36,192,58860,1,0,0:0:0:0:
475,192,59143,1,2,0:0:0:0:
36,192,59426,1,0,0:0:0:0:
182,192,59426,1,2,0:0:0:0:
329,192,59708,1,8,0:0:0:0:
182,192,59991,1,0,0:0:0:0:
109,192,59991,128,0,60839:0:0:0:0:
329,192,60133,1,2,0:0:0:0:
475,192,60274,1,0,0:0:0:0:
329,192,60415,1,2,0:0:0:0:
182,192,60557,1,0,0:0:0:0:
402,192,60698,1,0,0:0:0:0:
36,192,60839,1,0,0:0:0:0:
256,192,60839,1,0,0:0:0:0:
475,192,60839,1,0,0:0:0:0:
182,192,61122,1,0,0:0:0:0:
402,192,61122,1,0,0:0:0:70:soft-hitnormal6.wav
475,192,61405,1,0,0:0:0:0:
36,192,61405,128,0,63667:0:0:0:0:
329,192,61405,1,4,0:0:0:0:
109,192,61405,1,0,0:0:0:0:
182,192,61688,1,2,0:0:0:0:
402,192,61970,1,8,0:0:0:0:
256,192,61970,1,0,0:0:0:0:
182,192,62253,1,2,0:0:0:0:
329,192,62536,1,0,0:0:0:0:
256,192,62677,1,2,0:0:0:0:
182,192,62819,1,2,0:0:0:0:
329,192,63101,1,8,0:0:0:0:
475,192,63101,1,0,0:0:0:0:
109,192,63101,1,0,0:0:0:0:
256,192,63384,1,0,0:0:0:0:
182,192,63667,1,2,0:0:0:0:
475,192,63950,1,2,0:0:0:0:
402,192,64232,1,8,0:0:0:0:
36,192,64232,1,0,0:0:0:0:
182,192,64232,1,0,0:0:0:0:
329,192,64515,1,0,0:0:0:0:
475,192,64657,1,2,0:0:0:0:
182,192,64798,1,0,0:0:0:0:
36,192,64939,1,2,0:0:0:0:
256,192,65081,1,0,0:0:0:0:
402,192,65363,1,8,0:0:0:0:
109,192,65363,1,0,0:0:0:0:
475,192,65646,1,2,0:0:0:0:
256,192,65929,1,4,0:0:0:0:
402,192,65929,1,0,0:0:0:0:
109,192,65929,1,0,0:0:0:0:
329,192,66212,1,0,0:0:0:0:
182,192,66494,1,8,0:0:0:0:
475,192,66494,1,0,0:0:0:0:
402,192,66777,1,2,0:0:0:0:
109,192,66777,128,0,67343:0:0:0:0:
475,192,66919,1,0,0:0:0:0:
329,192,67060,1,2,0:0:0:0:
182,192,67201,1,0,0:0:0:0:
402,192,67343,1,2,0:0:0:0:
36,192,67343,128,0,67908:0:0:0:0:
256,192,67484,1,0,0:0:0:0:
475,192,67626,1,8,0:0:0:0:
182,192,67626,1,0,0:0:0:0:
109,192,67908,1,12,0:0:0:0:
402,192,67908,1,0,0:0:0:0:
256,192,67908,128,0,68474:0:0:0:0:
329,192,68191,1,0,0:0:0:0:
475,192,68474,1,8,0:0:0:0:
36,192,68474,1,0,0:0:0:0:
182,192,68474,128,0,68757:0:0:0:0:
36,192,68757,1,0,0:0:0:0:
475,192,68757,1,8,0:0:0:0:
256,192,68757,128,0,69039:0:0:0:0:
109,192,69039,1,0,0:0:0:0:
329,192,69039,128,0,69322:0:0:0:0:
182,192,69322,1,8,0:0:0:0:
402,192,69322,128,0,69888:0:0:0:0:
36,192,69463,1,8,0:0:0:0:
256,192,69605,1,8,0:0:0:0:
36,192,69888,1,0,0:0:0:0:
182,192,69888,128,0,70453:0:0:0:0:
475,192,69888,1,0,0:0:0:0:
329,192,69888,1,4,0:0:0:0:
256,192,70170,1,0,0:0:0:0:
36,192,70453,1,0,0:0:0:0:
329,192,70453,1,4,0:0:0:0:
475,192,70453,128,0,71019:0:0:0:0:
109,192,70736,1,0,0:0:0:0:
329,192,71019,1,8,0:0:0:0:
256,192,71019,1,0,0:0:0:0:
36,192,71301,1,0,0:0:0:0:
182,192,71301,128,0,72150:0:0:0:0:
402,192,71301,1,0,0:0:0:0:
475,192,71301,1,4,0:0:0:0:
329,192,71443,1,2,0:0:0:0:
256,192,71584,1,0,0:0:0:0:
329,192,71725,1,2,0:0:0:0:
475,192,71867,1,2,0:0:0:0:
36,192,72150,1,0,0:0:0:0:
109,192,72150,1,8,0:0:0:0:
402,192,72150,1,0,0:0:0:0:
329,192,72432,1,2,0:0:0:0:
182,192,72574,1,2,0:0:0:0:
36,192,72715,1,2,0:0:0:0:
329,192,72998,1,2,0:0:0:0:
182,192,73281,1,8,0:0:0:0:
36,192,73281,1,0,0:0:0:0:
475,192,73281,1,0,0:0:0:0:
402,192,73563,1,2,0:0:0:0:
256,192,73705,1,2,0:0:0:0:
109,192,73846,1,2,0:0:0:0:
329,192,74129,1,2,0:0:0:0:
36,192,74412,1,0,0:0:0:0:
182,192,74412,1,8,0:0:0:0:
402,192,74412,1,0,0:0:0:0:
256,192,74694,1,2,0:0:0:0:
475,192,74977,128,0,75543:0:0:0:0:
402,192,74977,1,0,0:0:0:0:
109,192,74977,1,0,0:0:0:0:
256,192,75260,1,2,0:0:0:0:
329,192,75401,1,2,0:0:0:0:
182,192,75543,1,0,0:0:0:0:
402,192,75543,1,8,0:0:0:0:
256,192,75825,1,0,0:0:0:0:
36,192,75825,128,0,76956:0:0:0:0:
182,192,76108,1,0,0:0:0:0:
329,192,76108,1,0,0:0:0:0:
402,192,76249,1,2,0:0:0:0:
475,192,76391,1,0,0:0:0:0:
182,192,76674,1,8,0:0:0:0:
109,192,76674,1,0,0:0:0:0:
402,192,76674,1,0,0:0:0:0:
329,192,76956,1,0,0:0:0:0:
256,192,76956,128,0,78087:0:0:0:0:
36,192,77239,1,0,0:0:0:0:
182,192,77239,1,2,0:0:0:0:
402,192,77522,1,0,0:0:0:0:
475,192,77805,1,0,0:0:0:0:
109,192,77805,1,0,0:0:0:0:
36,192,77805,1,8,0:0:0:0:
182,192,78087,128,0,78936:0:0:0:0:
329,192,78087,1,2,0:0:0:0:
402,192,78229,1,2,0:0:0:0:
36,192,78370,1,0,0:0:0:0:
475,192,78370,1,2,0:0:0:0:
329,192,78653,1,2,0:0:0:0:
475,192,78794,1,8,0:0:0:0:
256,192,78936,1,0,0:0:0:0:
36,192,78936,128,0,79501:0:0:0:0:
402,192,78936,1,8,0:0:0:0:
109,192,79077,1,8,0:0:0:0:
256,192,79218,1,8,0:0:0:0:
182,192,79501,1,0,0:0:0:0:
329,192,79501,1,4,0:0:0:0:
475,192,79501,1,0,0:0:0:0:
402,192,79784,1,0,0:0:0:0:
475,192,80067,1,0,0:0:0:0:
36,192,80067,1,0,0:0:0:0:
256,192,80349,1,0,0:0:0:0:
109,192,80632,1,2,0:0:0:0:
402,192,80773,1,2,0:0:0:0:
36,192,80915,1,0,0:0:0:0:
475,192,80915,1,0,0:0:0:0:
402,192,81198,1,0,0:0:0:0:
256,192,81198,1,8,0:0:0:0:
475,192,81480,1,0,0:0:0:0:
182,192,81480,1,4,0:0:0:0:
36,192,81480,1,0,0:0:0:25:soft-hitfinish6.wav
256,192,81763,1,2,0:0:0:0:
109,192,82046,1,0,0:0:0:0:
402,192,82046,1,0,0:0:0:0:
475,192,82329,1,8,0:0:0:0:
36,192,82329,1,0,0:0:0:0:
256,192,82329,1,2,0:0:0:0:
402,192,82611,1,2,0:0:0:0:
475,192,82753,1,2,0:0:0:0:
109,192,82894,1,2,0:0:0:0:
36,192,83035,1,2,0:0:0:0:
256,192,83177,1,8,0:0:0:0:
402,192,83177,1,0,0:0:0:0:
36,192,83460,1,0,0:0:0:0:
182,192,83460,1,8,0:0:0:0:
475,192,83460,1,0,0:0:0:0:
256,192,83742,1,2,0:0:0:0:
475,192,84025,1,4,0:0:0:0:
109,192,84025,1,0,0:0:0:0:
329,192,84025,1,0,0:0:0:0:
36,192,84308,1,2,0:0:0:0:
329,192,84591,1,8,0:0:0:0:
182,192,84591,1,0,0:0:0:0:
475,192,84873,128,0,89115:0:0:0:0:
109,192,84873,1,2,0:0:0:0:
182,192,85015,1,2,0:0:0:0:
402,192,85156,1,2,0:0:0:0:
329,192,85298,1,2,0:0:0:0:
256,192,85439,128,0,89115:0:0:0:0:
402,192,85439,1,0,0:0:0:0:
109,192,85439,1,2,0:0:0:0:
329,192,85722,1,2,0:0:0:0:
36,192,85722,1,8,0:0:0:0:
36,192,86004,128,0,89115:0:0:0:0:
109,192,86004,1,0,0:0:0:0:
402,192,86004,1,0,0:0:0:0:
182,192,86004,1,4,0:0:0:0:
