osu file format v14

[General]
AudioFilename: audio6.mp3
AudioLeadIn: 3000
PreviewTime: 4
Countdown: 0
SampleSet: Soft
StackLeniency: 0.3
Mode: 0
LetterboxInBreaks: 0
WidescreenStoryboard: 0

[Editor]
DistanceSpacing: 1.36
BeatDivisor: 4
GridSize: 4
TimelineZoom: 1.6

[Metadata]
Title:a-gain
TitleUnicode:a-gain
Artist:Ray
ArtistUnicode:Ray
Creator:Krfawy
Version:Hard
Source:蒼の彼方のフォーリズム
Tags:Ao no Kanata no Four Rhythm ending ed SEE streeteelf Chalwa TwilightForest
BeatmapID:1081575
BeatmapSetID:446880

[Difficulty]
HPDrainRate:3
CircleSize:3.5
OverallDifficulty:4
ApproachRate:5.5
SliderMultiplier:1.15
SliderTickRate:1

[Events]
//Background and Video events
0,0,"fb9a34e7.jpg",0,0
//Break Periods
//Storyboard Layer 0 (Background)
//Storyboard Layer 1 (Fail)
//Storyboard Layer 2 (Pass)
//Storyboard Layer 3 (Foreground)
//Storyboard Sound Samples

[TimingPoints]
454,449.775112443778,4,2,1,40,1,0
29239,-100,4,2,1,60,0,0
58025,-88.4955752212389,4,2,1,60,0,1
85011,-100,4,2,1,40,0,0
87260,-100,4,2,1,5,0,0

[Colours]
Combo1 : 132,232,147
Combo2 : 253,147,208
Combo3 : 150,190,255
Combo4 : 250,90,100
SliderTrackOverride : 250,250,180

[HitObjects]
294,273,229,5,2,0:0:0:0:
299,195,454,2,0,B|303:129|303:129|295:89|295:89|299:23,2,172.5,2|2|2,0:0|0:0|0:0,0:0:0:0:
294,273,2028,1,0,0:0:0:0:
294,273,2477,6,0,L|290:339,1,57.5,2|2,0:0|0:0,0:0:0:0:
221,368,2927,2,0,P|134:336|106:309,1,115,2|0,0:0|0:0,0:0:0:0:
66,263,3602,1,0,0:0:0:0:
54,185,3827,1,2,0:0:0:0:
87,113,4052,6,0,B|131:93|167:113|171:113|171:113|175:113|211:133|255:113,2,172.5,2|2|2,0:0|0:0|0:0,0:0:0:0:
54,185,5626,2,0,P|57:242|79:294,2,115,0|2|0,0:0|0:0|0:0,0:0:0:0:
54,185,7425,5,2,0:0:0:0:
126,152,7650,2,0,B|158:232|158:232|126:312,2,172.5,2|2|2,0:0|0:0|0:0,0:0:0:0:
97,79,9224,1,0,0:0:0:0:
97,79,9674,2,0,B|17:111,1,57.5,2|2,0:0|0:0,0:0:0:0:
10,171,10124,2,0,B|23:200|10:223|10:226|10:226|10:229|-3:252|10:281,1,115,2|0,0:0|0:0,0:0:0:0:
70,332,10798,1,0,0:0:0:0:
146,315,11023,1,2,0:0:0:0:
180,245,11248,6,0,B|190:205|190:205|180:165|180:165|196:121|180:77,2,172.5,2|2|2,0:0|0:0|0:0,0:0:0:0:
146,315,12822,2,0,P|193:288|241:314,2,115,2|2|2,0:0|0:0|0:0,0:0:0:0:
82,361,13947,2,0,L|110:193,1,115,0|2,0:0|0:0,0:0:0:0:
127,93,14846,5,4,0:1:0:0:
339,192,15521,1,4,0:1:0:0:
127,93,16421,2,0,P|61:123|106:249,1,230,2|2,0:0|0:0,0:0:0:0:
102,248,17995,2,0,B|130:243|130:243|159:244,1,57.5,0|2,0:0|0:0,0:0:0:0:
237,251,18445,5,4,0:1:0:0:
464,305,19119,1,4,0:1:0:0:
237,251,19794,1,2,0:0:0:0:
159,244,20019,2,0,B|203:215|269:223|269:223|337:130,1,230,2|2,0:0|0:0,0:0:0:0:
296,63,21143,2,0,P|275:83|262:108,1,57.5
380,199,21593,2,0,P|400:178|413:153,1,57.5,2|0,0:0|0:0,0:0:0:0:
400,48,22043,5,4,0:1:0:0:
256,233,22717,1,4,0:1:0:0:
256,233,23617,2,0,B|220:230|220:230|177:237|177:237|145:214|91:208|91:208|125:199|142:182,1,230,2|2,0:0|0:0,0:0:0:0:
142,181,25191,2,0,P|165:164|180:140,1,57.5,0|2,0:0|0:0,0:0:0:0:
195,63,25641,5,4,0:1:0:0:
59,254,26316,1,4,0:1:0:0:
361,332,27215,1,4,0:1:0:0:
361,332,29014,5,2,0:0:0:0:
435,308,29239,2,0,P|458:291|473:267,1,57.5,4|0,0:1|0:0,0:0:0:0:
478,188,29689,2,0,P|474:159|461:134,1,57.5,2|0,1:2|0:0,0:0:0:0:
400,84,30139,1,2,0:0:0:0:
325,106,30364,1,0,0:0:0:0:
300,179,30588,2,0,P|304:208|317:233,1,57.5,2|0,1:2|0:0,0:0:0:0:
378,283,31038,6,0,P|401:300|428:309,1,57.5,2|0,0:0|0:0,0:0:0:0:
506,301,31488,1,2,1:2:0:0:
510,222,31713,1,0,0:0:0:0:
480,149,31938,2,0,P|456:131|429:122,1,57.5,2|0,0:0|0:0,0:0:0:0:
312,132,32388,1,2,1:2:0:0:
247,230,32612,1,2,1:2:0:0:
280,342,32837,6,0,P|306:332|328:313,1,57.5,2|0,0:0|0:0,0:0:0:0:
347,237,33287,2,0,P|365:215|374:188,1,57.5,2|0,1:2|0:0,0:0:0:0:
352,112,33737,2,0,B|336:83|347:58|347:56|347:56|346:53|358:28|342:0,1,115,2|2,0:0|1:2,0:0:0:0:
256,33,34412,1,2,0:0:0:0:
169,0,34636,2,0,B|153:28|165:53|164:56|164:56|164:58|175:83|160:112,1,115,2|2,0:0|1:2,0:0:0:0:
160,272,35536,2,0,B|192:272|208:294|210:295|210:295|213:296|229:319|261:319,1,115,2|2,0:0|1:2,0:0:0:0:
378,307,36211,1,2,1:2:0:0:
469,233,36436,6,0,B|491:209|487:182|488:180|488:180|489:177|484:150|507:127,1,115,2|2,0:0|1:2,0:0:0:0:
492,50,37110,1,0,0:0:0:0:
414,65,37335,2,0,L|246:93,1,115,2|2,0:0|1:2,0:0:0:0:
222,96,38010,1,0,0:0:0:0:
145,110,38235,2,0,P|120:125|103:148,1,57.5,2|0,0:0|0:0,0:0:0:0:
89,225,38684,2,0,P|82:253|86:281,1,57.5,2|0,1:2|0:0,0:0:0:0:
130,345,39134,2,0,L|298:317,1,115,2|2,0:0|1:2,0:0:0:0:
243,326,40034,5,2,0:0:0:0:
295,267,40259,1,0,0:0:0:0:
272,192,40483,2,0,P|265:163|269:135,1,57.5,2|0,1:2|0:0,0:0:0:0:
309,68,40933,2,0,P|356:95|404:69,1,115,2|2,0:0|1:2,0:0:0:0:
467,19,41608,2,0,B|451:48|462:73|462:75|462:75|461:78|473:103|457:131,3,115,2|2|2|2,1:2|1:2|1:2|1:2,0:0:0:0:
378,264,43407,2,0,P|370:277|367:291,2,28.75,2|2|4,0:0|0:0|0:1,0:0:0:0:
