osu file format v14

[General]
AudioFilename: Sweet Days.mp3
AudioLeadIn: 0
PreviewTime: 49213
Countdown: 0
SampleSet: None
StackLeniency: 0.7
Mode: 3
LetterboxInBreaks: 0
SpecialStyle: 0
WidescreenStoryboard: 0

[Editor]
DistanceSpacing: 1
BeatDivisor: 2
GridSize: 4
TimelineZoom: 1.5

[Metadata]
Title:Sweet Days
TitleUnicode:Sweet Days
Artist:Ray
ArtistUnicode:Ray
Creator:Shirou
Version:EZ
Source:れいちゃんねる!
Tags:_FrEsH_ChICkEn_ RAYVE PA-NON Takeshi Ozaki ED channel 尾崎武士
BeatmapID:732405
BeatmapSetID:330461

[Difficulty]
HPDrainRate:7
CircleSize:4
OverallDifficulty:7.5
ApproachRate:5
SliderMultiplier:1.4
SliderTickRate:1

[Events]
//Background and Video events
0,0,"bg.jpg",0,0
//Break Periods
//Storyboard Layer 0 (Background)
//Storyboard Layer 1 (Fail)
//Storyboard Layer 2 (Pass)
//Storyboard Layer 3 (Foreground)
//Storyboard Sound Samples

[TimingPoints]
3395,344.827586206897,4,3,1,40,1,0
50291,-100,4,3,1,40,0,1
59946,-100,4,3,1,40,0,0
61326,-100,4,3,1,40,0,1
73739,-100,4,3,1,40,0,0

[HitObjects]
320,192,3394,128,0,3912:0:0:0:0:
192,192,3394,1,4,0:0:0:0:
64,192,3912,128,2,4429:0:0:0:0:
448,192,3912,1,8,0:0:0:0:
448,192,4429,1,8,0:0:0:0:
320,192,4601,1,2,0:0:0:0:
448,192,4774,1,2,0:0:0:0:
64,192,4774,1,8,0:0:0:0:
192,192,5119,1,2,0:0:0:0:
64,192,5463,1,2,0:0:0:0:
448,192,5463,1,8,0:0:0:0:
320,192,5808,1,2,0:0:0:0:
192,192,6153,1,2,0:0:0:0:
320,192,6498,1,2,0:0:0:0:
448,192,6843,1,8,0:0:0:0:
64,192,6843,1,2,0:0:0:0:
192,192,7188,1,2,0:0:0:0:
320,192,7532,1,2,0:0:0:0:
192,192,7877,1,2,0:0:0:0:
64,192,8222,1,2,0:0:0:0:
448,192,8222,1,8,0:0:0:0:
320,192,8567,1,2,0:0:0:0:
192,192,8912,1,2,0:0:0:0:
64,192,9257,1,2,0:0:0:0:
448,192,9601,1,8,0:0:0:0:
192,192,9601,1,2,0:0:0:0:
320,192,9946,1,2,0:0:0:0:
192,192,10291,1,2,0:0:0:0:
448,192,10636,1,2,0:0:0:0:
64,192,10981,1,8,0:0:0:0:
320,192,10981,1,2,0:0:0:0:
448,192,11326,1,2,0:0:0:0:
64,192,11670,1,2,0:0:0:0:
320,192,12015,1,2,0:0:0:0:
448,192,12360,1,2,0:0:0:0:
192,192,12360,1,8,0:0:0:0:
64,192,12705,1,2,0:0:0:0:
448,192,13050,1,2,0:0:0:0:
192,192,13395,1,2,0:0:0:0:
64,192,13739,1,2,0:0:0:0:
320,192,13739,1,8,0:0:0:0:
192,192,14084,1,2,0:0:0:0:
448,192,14429,1,8,0:0:0:0:
320,192,14429,1,2,0:0:0:0:
64,192,14774,1,2,0:0:0:0:
64,192,15119,1,2,0:0:0:0:
64,192,15463,1,2,0:0:0:0:
448,192,15808,1,4,0:0:0:0:
192,192,15808,1,0,0:0:0:0:
448,192,16153,1,2,0:0:0:0:
448,192,16498,1,2,0:0:0:0:
448,192,16843,1,2,0:0:0:0:
320,192,17188,1,2,0:0:0:0:
320,192,17532,1,2,0:0:0:0:
320,192,17877,1,2,0:0:0:0:
320,192,18222,1,2,0:0:0:0:
192,192,18567,1,2,0:0:0:0:
192,192,18912,1,2,0:0:0:0:
192,192,19257,1,2,0:0:0:0:
192,192,19601,1,2,0:0:0:0:
64,192,19946,1,2,0:0:0:0:
64,192,20291,1,2,0:0:0:0:
64,192,20636,1,2,0:0:0:0:
64,192,20981,1,2,0:0:0:0:
192,192,21326,1,2,0:0:0:0:
192,192,21670,1,2,0:0:0:0:
192,192,22015,1,2,0:0:0:0:
192,192,22360,1,2,0:0:0:0:
320,192,22705,1,2,0:0:0:0:
320,192,23050,1,2,0:0:0:0:
320,192,23395,1,2,0:0:0:0:
320,192,23739,1,2,0:0:0:0:
448,192,24084,1,2,0:0:0:0:
448,192,24429,1,2,0:0:0:0:
448,192,24774,1,2,0:0:0:0:
448,192,25119,1,2,0:0:0:0:
320,192,25463,1,2,0:0:0:0:
320,192,25808,1,2,0:0:0:0:
320,192,26153,1,2,0:0:0:0:
320,192,26498,128,8,26843:0:0:0:0:
64,192,26843,1,0,0:0:0:0:
448,192,26843,1,4,0:0:0:0:
192,192,27188,1,8,0:0:0:0:
320,192,27188,1,2,0:0:0:0:
64,192,27532,1,0,0:0:0:0:
192,192,27877,1,8,0:0:0:0:
448,192,27877,1,2,0:0:0:0:
320,192,28222,1,2,0:0:0:0:
64,192,28567,1,8,0:0:0:0:
448,192,28567,1,2,0:0:0:0:
192,192,28912,1,0,0:0:0:0:
64,192,29257,1,2,0:0:0:0:
320,192,29257,1,8,0:0:0:0:
448,192,29601,1,0,0:0:0:0:
64,192,29946,1,2,0:0:0:0:
320,192,29946,1,8,0:0:0:0:
192,192,30291,1,0,0:0:0:0:
64,192,30636,1,2,0:0:0:0:
448,192,30636,1,8,0:0:0:0:
320,192,30981,1,2,0:0:0:0:
64,192,31326,1,2,0:0:0:0:
448,192,31326,1,8,0:0:0:0:
192,192,31670,1,2,0:0:0:0:
320,192,32015,1,8,0:0:0:0:
448,192,32188,1,8,0:0:0:0:
320,192,32532,128,8,32705:0:0:0:0:
64,192,32705,1,4,0:0:0:0:
448,192,32705,1,8,0:0:0:0:
320,192,33050,1,0,0:0:0:0:
192,192,33395,1,2,0:0:0:0:
448,192,33395,1,8,0:0:0:0:
64,192,33739,1,2,0:0:0:0:
192,192,34084,1,8,0:0:0:0:
448,192,34084,1,2,0:0:0:0:
320,192,34429,1,0,0:0:0:0:
64,192,34774,1,2,0:0:0:0:
448,192,34774,1,8,0:0:0:0:
192,192,35119,1,2,0:0:0:0:
64,192,35463,1,8,0:0:0:0:
320,192,35463,1,2,0:0:0:0:
192,192,35808,1,0,0:0:0:0:
320,192,36153,1,2,0:0:0:0:
448,192,36153,1,8,0:0:0:0:
64,192,36498,1,2,0:0:0:0:
192,192,36843,1,2,0:0:0:0:
448,192,36843,1,8,0:0:0:0:
320,192,37188,1,2,0:0:0:0:
64,192,37532,1,0,0:0:0:0:
448,192,37532,1,8,0:0:0:0:
192,192,37877,1,4,0:0:0:0:
320,192,37877,1,8,0:0:0:0:
192,192,38222,1,2,0:0:0:0:
320,192,38222,1,8,0:0:0:0:
64,192,38567,1,2,0:0:0:0:
448,192,38567,1,8,0:0:0:0:
192,192,38912,1,2,0:0:0:0:
320,192,39257,1,2,0:0:0:0:
64,192,39601,1,2,0:0:0:0:
448,192,39946,1,8,0:0:0:0:
192,192,39946,1,2,0:0:0:0:
320,192,40291,1,2,0:0:0:0:
192,192,40463,128,8,40636:0:0:0:0:
64,192,40636,1,4,0:0:0:0:
448,192,40636,1,8,0:0:0:0:
192,192,40981,1,2,0:0:0:0:
64,192,41326,1,2,0:0:0:0:
320,192,41326,1,8,0:0:0:0:
192,192,41670,1,2,0:0:0:0:
320,192,42015,1,2,0:0:0:0:
448,192,42360,1,2,0:0:0:0:
320,192,42705,1,8,0:0:0:0:
64,192,42705,1,2,0:0:0:0:
192,192,43050,1,2,0:0:0:0:
448,192,43050,1,8,0:0:0:0:
64,192,43395,1,8,0:0:0:0:
448,192,43395,1,4,0:0:0:0:
320,192,43739,1,2,0:0:0:0:
64,192,44084,1,2,0:0:0:0:
448,192,44084,1,8,0:0:0:0:
320,192,44429,1,2,0:0:0:0:
192,192,44774,1,2,0:0:0:0:
64,192,45119,1,2,0:0:0:0:
192,192,45463,1,2,0:0:0:0:
448,192,45463,1,8,0:0:0:0:
320,192,45808,128,2,46153:0:0:0:0:
64,192,46153,1,2,0:0:0:0:
448,192,46153,1,8,0:0:0:0:
192,192,46498,1,2,0:0:0:0:
320,192,46498,1,8,0:0:0:0:
448,192,46843,1,2,0:0:0:0:
320,192,47188,1,8,0:0:0:0:
64,192,47188,1,2,0:0:0:0:
448,192,47532,128,2,48912:0:0:0:0:
320,192,47877,1,2,0:0:0:0:
192,192,48222,1,2,0:0:0:0:
64,192,48567,128,8,48912:0:0:0:0:
64,192,50291,1,8,0:0:0:0:
448,192,50291,1,4,0:0:0:0:
320,192,50636,1,8,0:0:0:0:
192,192,50636,1,2,0:0:0:0:
448,192,50981,1,8,0:0:0:0:
192,192,51326,1,8,0:0:0:0:
64,192,51326,1,2,0:0:0:0:
320,192,51670,1,0,0:0:0:0:
448,192,52015,1,8,0:0:0:0:
64,192,52015,1,2,0:0:0:0:
192,192,52360,1,0,0:0:0:0:
320,192,52705,1,8,0:0:0:0:
448,192,52705,1,2,0:0:0:0:
192,192,53050,1,0,0:0:0:0:
64,192,53395,1,2,0:0:0:0:
448,192,53395,1,8,0:0:0:0:
320,192,53739,1,0,0:0:0:0:
192,192,54084,1,2,0:0:0:0:
448,192,54084,1,8,0:0:0:0:
64,192,54429,1,0,0:0:0:0:
320,192,54774,1,8,0:0:0:0:
192,192,54774,1,2,0:0:0:0:
448,192,55119,1,0,0:0:0:0:
192,192,55463,1,8,0:0:0:0:
64,192,55463,1,2,0:0:0:0:
320,192,55808,1,2,0:0:0:0:
192,192,55808,1,4,0:0:0:0:
64,192,56153,1,2,0:0:0:0:
448,192,56153,1,8,0:0:0:0:
320,192,56498,1,0,0:0:0:0:
448,192,56843,1,8,0:0:0:0:
192,192,56843,1,2,0:0:0:0:
64,192,57188,1,0,0:0:0:0:
320,192,57532,1,2,0:0:0:0:
448,192,57532,1,8,0:0:0:0:
192,192,57877,1,0,0:0:0:0:
448,192,58222,1,8,0:0:0:0:
64,192,58222,1,2,0:0:0:0:
192,192,58567,1,0,0:0:0:0:
320,192,58567,1,4,0:0:0:0:
64,192,58912,1,2,0:0:0:0:
448,192,58912,1,8,0:0:0:0:
192,192,59257,1,2,0:0:0:0:
320,192,59601,1,2,0:0:0:0:
64,192,59601,1,0,0:0:0:0:
448,192,59946,1,2,0:0:0:0:
64,192,60291,1,8,0:0:0:0:
192,192,60636,1,8,0:0:0:0:
320,192,60981,1,2,0:0:0:0:
448,192,61326,1,4,0:0:0:0:
64,192,61326,1,0,0:0:0:0:
192,192,61670,1,2,0:0:0:0:
320,192,61670,1,8,0:0:0:0:
64,192,62015,1,0,0:0:0:0:
192,192,62360,1,2,0:0:0:0:
448,192,62360,1,8,0:0:0:0:
320,192,62705,1,0,0:0:0:0:
64,192,63050,1,2,0:0:0:0:
448,192,63050,1,8,0:0:0:0:
192,192,63395,1,0,0:0:0:0:
320,192,63739,1,8,0:0:0:0:
64,192,63739,1,2,0:0:0:0:
192,192,64084,1,0,0:0:0:0:
64,192,64429,1,2,0:0:0:0:
448,192,64429,1,8,0:0:0:0:
192,192,64774,1,0,0:0:0:0:
320,192,65119,1,2,0:0:0:0:
448,192,65119,1,8,0:0:0:0:
192,192,65463,1,0,0:0:0:0:
64,192,65808,1,2,0:0:0:0:
320,192,65808,1,8,0:0:0:0:
192,192,66153,1,0,0:0:0:0:
64,192,66498,1,2,0:0:0:0:
448,192,66498,1,8,0:0:0:0:
320,192,66843,1,0,0:0:0:0:
64,192,67188,1,2,0:0:0:0:
320,192,67188,1,8,0:0:0:0:
192,192,67532,1,0,0:0:0:0:
448,192,67877,1,8,0:0:0:0:
192,192,67877,1,2,0:0:0:0:
320,192,68222,1,0,0:0:0:0:
64,192,68567,1,2,0:0:0:0:
448,192,68567,1,8,0:0:0:0:
192,192,68912,1,0,0:0:0:0:
64,192,69257,1,2,0:0:0:0:
192,192,69601,1,2,0:0:0:0:
448,192,69601,1,8,0:0:0:0:
64,192,69946,1,2,0:0:0:0:
320,192,69946,1,8,0:0:0:0:
192,192,70291,1,2,0:0:0:0:
448,192,70291,1,8,0:0:0:0:
320,192,70636,1,8,0:0:0:0:
64,192,70636,1,2,0:0:0:0:
64,192,70981,1,2,0:0:0:0:
192,192,70981,1,8,0:0:0:0:
320,192,71326,1,2,0:0:0:0:
448,192,71326,1,8,0:0:0:0:
192,192,71670,1,8,0:0:0:0:
64,192,71670,1,2,0:0:0:0:
320,192,72015,1,2,0:0:0:0:
448,192,72015,1,8,0:0:0:0:
64,192,72360,1,4,0:0:0:0:
448,192,72360,1,8,0:0:0:0:
320,192,72705,1,0,0:0:0:0:
64,192,73222,1,0,0:0:0:0:
320,192,73567,1,0,0:0:0:0:
64,192,75119,128,0,75636:0:0:0:0:
192,192,75119,1,4,0:0:0:0:
448,192,75636,128,2,76153:0:0:0:0:
320,192,75636,1,8,0:0:0:0:
64,192,76153,1,8,0:0:0:0:
192,192,76326,1,2,0:0:0:0:
448,192,76498,1,8,0:0:0:0:
64,192,76498,1,2,0:0:0:0:
320,192,76843,1,2,0:0:0:0:
64,192,77188,1,2,0:0:0:0:
448,192,77188,1,8,0:0:0:0:
192,192,77532,1,2,0:0:0:0:
320,192,77877,1,2,0:0:0:0:
192,192,78222,1,2,0:0:0:0:
320,192,78567,1,8,0:0:0:0:
64,192,78567,1,2,0:0:0:0:
192,192,78912,1,2,0:0:0:0:
448,192,79257,1,2,0:0:0:0:
320,192,79601,1,2,0:0:0:0:
64,192,79946,1,2,0:0:0:0:
448,192,79946,1,8,0:0:0:0:
192,192,80291,1,2,0:0:0:0:
320,192,80636,1,2,0:0:0:0:
64,192,80981,1,2,0:0:0:0:
192,192,81326,1,2,0:0:0:0:
448,192,81326,1,8,0:0:0:0:
320,192,81670,1,2,0:0:0:0:
64,192,82015,1,2,0:0:0:0:
320,192,82360,1,2,0:0:0:0:
192,192,82705,1,2,0:0:0:0:
448,192,82705,1,8,0:0:0:0:
320,192,83050,1,2,0:0:0:0:
192,192,83395,1,2,0:0:0:0:
64,192,83739,1,2,0:0:0:0:
448,192,84084,1,8,0:0:0:0:
192,192,84084,1,2,0:0:0:0:
320,192,84429,1,2,0:0:0:0:
448,192,84774,1,2,0:0:0:0:
192,192,85119,1,2,0:0:0:0:
64,192,85463,1,2,0:0:0:0:
320,192,85463,1,8,0:0:0:0:
448,192,85808,1,2,0:0:0:0:
192,192,86153,1,2,0:0:0:0:
448,192,86153,128,0,87360:0:0:0:0:
64,192,86498,1,2,0:0:0:0:
320,192,86843,1,2,0:0:0:0:
192,192,87188,1,2,0:0:0:0:
