osu file format v12

[General]
AudioFilename: Rakuen PROJECT (TV Size).mp3
AudioLeadIn: 0
PreviewTime: -1
Countdown: 1
SampleSet: Soft
StackLeniency: 0.7
Mode: 1
LetterboxInBreaks: 1
WidescreenStoryboard: 1

[Editor]
DistanceSpacing: 1
BeatDivisor: 4
GridSize: 4

[Metadata]
Title:Rakuen PROJECT (TV Size)
TitleUnicode:楽園PROJECT (TV Size)
Artist:Ray
ArtistUnicode:Ray
Creator:TenguKing9
Version:Futsuu
Source:
Tags:
BeatmapID:372301
BeatmapSetID:150970

[Difficulty]
HPDrainRate:4
CircleSize:5
OverallDifficulty:5
ApproachRate:5
SliderMultiplier:1.4
SliderTickRate:1

[Events]
//Background and Video events
0,0,"Konachan.com - 166800 bow brown_eyes clouds green_eyes long_hair pink_hair seifuku short_hair skirt sky socks tail thighhighs to_love_ru twintails water wet wink.jpg",0,0
//Break Periods
//Storyboard Layer 0 (Background)
//Storyboard Layer 1 (Fail)
//Storyboard Layer 2 (Pass)
//Storyboard Layer 3 (Foreground)
//Storyboard Sound Samples
//Background Colour Transformations
3,100,163,162,255

[TimingPoints]
1070,444.444444444444,4,2,0,100,1,0
59736,-100,4,2,0,100,0,1
73958,-100,4,2,0,100,0,0

[HitObjects]
257,193,1070,1,0,0:0:0:0:
257,193,1514,1,0,0:0:0:0:
257,193,1958,1,0,0:0:0:0:
257,193,2847,1,2,0:0:0:0:
257,193,3292,1,0,0:0:0:0:
257,193,3736,1,0,0:0:0:0:
255,189,4625,5,0,0:0:0:0:
255,189,5514,1,0,0:0:0:0:
255,189,6403,1,2,0:0:0:0:
255,189,6847,1,0,0:0:0:0:
255,189,7292,1,0,0:0:0:0:
252,190,8181,5,6,0:0:0:0:
252,190,9069,1,0,0:0:0:0:
252,190,9514,1,0,0:0:0:0:
254,194,9958,5,0,0:0:0:0:
252,190,10847,1,0,0:0:0:0:
254,194,11292,1,0,0:0:0:0:
255,194,11736,5,6,0:0:0:0:
255,194,12625,5,6,0:0:0:0:
255,194,13514,1,0,0:0:0:0:
256,193,14403,5,0,0:0:0:0:
256,193,15292,1,2,0:0:0:0:
256,193,15736,1,0,0:0:0:0:
256,193,16181,1,0,0:0:0:0:
257,192,17069,5,0,0:0:0:0:
256,193,17514,1,0,0:0:0:0:
257,192,17958,1,0,0:0:0:0:
256,191,18847,1,0,0:0:0:0:
256,191,19736,1,0,0:0:0:0:
257,194,20625,1,0,0:0:0:0:
255,191,22403,5,6,0:0:0:0:
255,191,22847,1,0,0:0:0:0:
255,191,23292,1,0,0:0:0:0:
255,191,24181,1,0,0:0:0:0:
255,191,25069,1,0,0:0:0:0:
249,197,25958,5,4,0:0:0:0:
255,191,26403,1,0,0:0:0:0:
249,197,26847,1,0,0:0:0:0:
255,195,27736,5,0,0:0:0:0:
252,194,29514,5,0,0:0:0:0:
252,194,29958,1,0,0:0:0:0:
256,193,30403,1,0,0:0:0:0:
256,193,31292,1,0,0:0:0:0:
256,193,32181,1,2,0:0:0:0:
256,193,32625,1,0,0:0:0:0:
256,193,33069,1,0,0:0:0:0:
256,193,33958,5,4,0:0:0:0:
256,191,34847,5,0,0:0:0:0:
256,191,35736,1,0,0:0:0:0:
256,191,36181,1,0,0:0:0:0:
255,191,36625,5,4,0:0:0:0:
255,191,37514,1,2,0:0:0:0:
255,191,37958,1,0,0:0:0:0:
255,193,38403,5,0,0:0:0:0:
255,191,39292,1,0,0:0:0:0:
253,193,40181,5,6,0:0:0:0:
253,193,40625,1,0,0:0:0:0:
253,193,41069,5,0,0:0:0:0:
258,193,41958,5,0,0:0:0:0:
258,193,42847,1,0,0:0:0:0:
258,193,43292,1,0,0:0:0:0:
256,189,43736,5,2,0:0:0:0:
256,189,44625,1,2,0:0:0:0:
249,194,45514,5,0,0:0:0:0:
256,189,45958,1,0,0:0:0:0:
249,194,46403,1,0,0:0:0:0:
256,193,47292,5,0,0:0:0:0:
256,193,48181,1,0,0:0:0:0:
253,190,49069,5,0,0:0:0:0:
253,190,49958,5,0,0:0:0:0:
253,190,50847,1,2,0:0:0:0:
253,190,51292,1,0,0:0:0:0:
253,190,51736,1,0,0:0:0:0:
255,193,52625,5,0,0:0:0:0:
255,193,53069,1,2,0:0:0:0:
255,193,53514,1,2,0:0:0:0:
255,193,54403,5,0,0:0:0:0:
255,193,54847,1,0,0:0:0:0:
255,193,55292,1,0,0:0:0:0:
257,194,56181,5,0,0:0:0:0:
248,195,57958,5,2,0:0:0:0:
248,195,58403,1,0,0:0:0:0:
248,195,58847,1,2,0:0:0:0:
255,194,59736,5,4,0:0:0:0:
248,195,60181,1,0,0:0:0:0:
255,194,61069,1,0,0:0:0:0:
254,195,61514,5,0,0:0:0:0:
254,195,61958,1,0,0:0:0:0:
254,195,62847,5,0,0:0:0:0:
254,195,63292,1,2,0:0:0:0:
254,195,64181,1,0,0:0:0:0:
254,195,64625,1,0,0:0:0:0:
252,188,65069,5,0,0:0:0:0:
254,195,65958,1,0,0:0:0:0:
252,188,66403,5,0,0:0:0:0:
266,192,66847,5,2,0:0:0:0:
266,192,68181,5,0,0:0:0:0:
250,189,68625,5,0,0:0:0:0:
250,189,69958,5,0,0:0:0:0:
250,189,70403,1,6,0:0:0:0:
250,189,71292,1,0,0:0:0:0:
253,195,72181,5,0,0:0:0:0:
253,195,73069,1,0,0:0:0:0:
252,196,73958,5,0,0:0:0:0:
252,196,74403,1,0,0:0:0:0:
252,196,74847,1,0,0:0:0:0:
260,190,75736,5,0,0:0:0:0:
260,190,76181,1,0,0:0:0:0:
260,190,76625,1,0,0:0:0:0:
253,189,77514,5,2,0:0:0:0:
253,189,78181,1,2,0:0:0:0:
253,189,78847,5,0,0:0:0:0:
253,189,79069,1,6,0:0:0:0:
246,187,81069,5,6,0:0:0:0:
246,187,81514,1,0,0:0:0:0:
246,187,81958,1,0,0:0:0:0:
252,188,82847,5,0,0:0:0:0:
252,188,83736,1,0,0:0:0:0:
254,193,84625,5,2,0:0:0:0:
252,188,85069,1,0,0:0:0:0:
254,193,85514,1,0,0:0:0:0:
256,189,86403,5,0,0:0:0:0:
256,189,87292,1,0,0:0:0:0:
255,190,88069,5,0,0:0:0:0:
256,189,88403,1,0,0:0:0:0:
255,190,88847,1,4,0:0:0:0:
