osu file format v10

[General]
AudioFilename: Rakuen PROJECT (TV Size).mp3
AudioLeadIn: 2500
PreviewTime: 58073
Countdown: 0
SampleSet: Soft
StackLeniency: 0.7
Mode: 0
LetterboxInBreaks: 0

[Editor]
DistanceSpacing: 1
BeatDivisor: 4
GridSize: 4

[Metadata]
Title:Rakuen PROJECT (TV Size)
TitleUnicode:Rakuen PROJECT (TV Size)
Artist:Ray
ArtistUnicode:Ray
Creator:Andrea
Version:Hard
Source:To LOVE-Ru Darkness
Tags:osuplayer111 Sekai-nyan Vicho xxheroxx Opening Kentaro Yabuki Saki Hasemi ToLoveRu Trouble ToRabuRu
BeatmapID:181565
BeatmapSetID:60765

[Difficulty]
HPDrainRate:7
CircleSize:4
OverallDifficulty:7
ApproachRate:8
SliderMultiplier:1.8
SliderTickRate:1

[Events]
//Background and Video events
0,0,"BG.jpg"
Video,-960,"Video.avi"
//Break Periods
//Storyboard Layer 0 (Background)
//Storyboard Layer 1 (Fail)
//Storyboard Layer 2 (Pass)
//Storyboard Layer 3 (Foreground)
//Storyboard Sound Samples
//Background Colour Transformations
3,100,128,255,128

[TimingPoints]
1070,444.444444444444,4,2,1,80,1,0
1403,-100,4,1,1,80,0,0
3958,-100,4,2,1,80,0,0
4180,-100,4,1,1,80,0,0
4625,-100,4,2,1,80,0,0
4847,-100,4,1,1,80,0,0
8180,-100,4,2,1,80,0,0
8403,-100,4,1,1,80,0,0
11736,-100,4,2,1,80,0,0
12180,-100,4,1,1,80,0,0
15292,-100,4,2,1,80,0,0
15736,-100,4,1,1,80,0,0
18847,-100,4,2,1,80,0,0
19069,-100,4,1,1,80,0,0
19514,-100,4,2,1,80,0,0
19958,-100,4,1,1,80,0,0
20403,-100,4,2,1,80,0,0
20847,-100,4,2,1,50,0,0
21514,-100,4,1,1,80,0,0
22403,-100,4,2,1,80,0,0
22625,-100,4,1,1,80,0,0
25958,-100,4,2,1,80,0,0
26180,-100,4,1,1,80,0,0
29514,-100,4,2,1,80,0,0
29847,-100,4,1,1,80,0,0
36625,-100,4,2,1,80,0,0
36958,-100,4,1,1,80,0,0
39069,-100,4,2,1,80,0,0
39292,-100,4,1,1,80,0,0
39514,-100,4,2,1,80,0,0
39736,-100,4,1,1,80,0,0
40180,-100,4,2,1,80,0,0
40514,-100,4,1,1,80,0,0
43736,-100,4,2,1,80,0,0
43958,-100,4,1,1,80,0,0
50847,-100,4,2,1,80,0,0
51180,-100,4,1,1,80,0,0
52625,-100,4,2,1,80,0,0
52958,-100,4,1,1,80,0,0
55069,-100,4,2,1,80,0,0
55514,-100,4,1,1,80,0,0
58069,-100,4,2,1,80,0,0
58403,-100,4,1,1,50,0,0
59736,-100,4,2,1,80,0,1
60069,-100,4,1,1,80,0,1
62625,-100,4,2,1,80,0,1
62847,-100,4,1,1,80,0,1
63292,-100,4,2,1,80,0,1
63625,-100,4,1,1,80,0,1
66847,-100,4,2,1,80,0,1
67292,-100,4,1,1,80,0,1
70403,-100,4,2,1,80,0,1
70847,-100,4,1,1,80,0,1
73958,-100,4,2,1,80,0,1
74403,-100,4,1,1,80,0,1
77514,-100,4,2,1,80,0,1
77736,-100,4,1,1,80,0,1
78180,-100,4,2,1,80,0,1
78625,-100,4,1,1,80,0,1
79069,-100,4,2,1,80,0,1
79514,-100,4,2,1,50,0,1
80180,-100,4,1,1,80,0,1
81069,-100,4,2,1,80,0,0
81292,-100,4,1,1,80,0,0
84625,-100,4,2,1,80,0,0
84847,-100,4,1,1,80,0,0
86181,-100,4,2,1,80,0,0
87069,-100,4,1,1,80,0,0
88180,-100,4,2,1,80,0,0

[Colours]
Combo1 : 255,255,128
Combo2 : 255,128,255
Combo3 : 128,0,64
Combo4 : 128,64,64

[HitObjects]
56,60,1069,2,0,B|128:60|176:116,1,135,4|0,0:0|0:0,0:0:0
174,114,1514,2,0,B|263:114,1,90,8|0,0:0|0:0,0:0:0
356,112,1958,2,0,B|356:184|356:184|320:236,1,135
320,235,2403,1,8,0:0:0
256,300,2625,1,0,0:0:0
168,300,2847,6,0,B|96:300|44:248,1,135
28,228,3292,1,8,0:0:0
16,200,3403,1,0,0:0:0
18,169,3514,1,0,0:0:0
100,128,3736,2,0,B|148:128|176:84,1,90,0|4,0:0|0:0,0:0:0
256,44,4181,1,8,0:0:0
337,85,4403,6,0,B|364:128|412:128,2,90,0|4|0,0:0|0:0|0:0,0:0:0
337,85,4958,1,0,0:0:0
337,85,5069,1,8,0:0:0
256,128,5292,1,0,0:0:0
212,204,5514,6,0,B|212:280|160:324,2,135,0|8|0,0:0|0:0|0:0,0:0:0
300,204,6403,2,0,B|300:280|352:324,2,135,0|8|0,0:0|0:0|0:0,0:0:0
256,128,7292,1,0,0:0:0
344,128,7514,1,0,0:0:0
296,52,7736,1,8,0:0:0
384,52,7958,5,0,0:0:0
392,52,8070,1,0,0:0:0
400,52,8181,2,0,B|448:52|480:88,1,90,4|0,0:0|0:0,0:0:0
480,176,8625,2,0,B|480:264|400:332,1,180,8|0,0:0|0:0,0:0:0
264,332,9403,2,0,B|196:332|196:332|140:296,1,135,8|0,0:0|0:0,0:0:0
68,240,9958,2,0,B|24:188|24:188|24:120,2,135,0|8|0,0:0|0:0|0:0,0:0:0
100,156,10847,5,0,0:0:0
256,68,11292,1,8,0:0:0
412,156,11736,1,4,0:0:0
256,244,12181,1,8,0:0:0
164,88,12625,1,0,0:0:0
348,88,13070,1,8,0:0:0
256,244,13514,5,0,0:0:0
188,304,13736,1,0,0:0:0
256,364,13958,1,8,0:0:0
324,304,14181,1,0,0:0:0
184,192,14625,1,0,0:0:0
256,140,14847,1,8,0:0:0
328,192,15070,5,0,0:0:0
340,180,15181,1,0,0:0:0
352,168,15292,2,0,B|444:168|500:80,2,180,4|8|0,0:0|0:0|0:0,0:0:0
376,80,16403,1,0,0:0:0
300,32,16625,1,8,0:0:0
212,32,16847,5,0,0:0:0
136,80,17070,2,0,B|136:144|136:144|92:200,2,135,0|8|0,0:0|0:0|0:0,0:0:0
212,32,17958,1,0,0:0:0
256,160,18292,1,8,0:0:0
300,32,18625,1,0,0:0:0
336,116,18847,6,0,B|384:192,1,90,4|0,0:0|0:0,0:0:0
176,116,19292,2,0,B|128:192,1,90,8|4,0:0|0:0,0:0:0
212,352,19958,1,0,0:0:0
300,352,20181,1,8,0:0:0
256,276,20403,1,4,0:0:0
256,72,20847,6,0,B|208:72|172:36,2,90,0|2|0,0:0|0:0|0:0,0:0:0
256,160,21514,2,0,B|332:160|376:104,2,135
236,160,22292,1,0,0:0:0
216,160,22403,5,4,0:0:0
128,160,22625,1,0,0:0:0
76,232,22847,1,8,0:0:0
128,304,23069,2,0,B|196:304|196:304|236:324|236:324|304:324,1,180
392,320,23736,1,8,0:0:0
456,260,23958,6,0,B|512:236|516:192|512:148|456:124,1,180
364,124,24625,1,8,0:0:0
300,60,24847,1,0,0:0:0
212,60,25069,2,0,B|140:60|92:116,2,135,0|8|0,0:0|0:0|0:0,0:0:0
256,136,25958,5,4,0:0:0
324,196,26181,1,0,0:0:0
256,256,26403,1,8,0:0:0
188,196,26625,2,0,B|96:196|36:280,1,180
36,368,27292,6,0,B|4:368,3,30,8|0|0|0,0:0|0:0|0:0|0:0,0:0:0
124,368,27736,1,0,0:0:0
140,360,27847,1,0,0:0:0
156,352,27958,1,0,0:0:0
172,344,28069,1,0,0:0:0
188,336,28181,1,0,0:0:0
204,328,28292,1,0,0:0:0
220,320,28403,1,0,0:0:0
304,288,28625,6,0,B|352:288|384:328,1,90
208,96,29069,2,0,B|160:96|128:56,1,90
40,64,29514,6,0,B|40:136|92:184,2,135,4|8|0,0:0|0:0|0:0,0:0:0
324,332,30625,1,0,0:0:0
404,296,30847,2,0,B|404:224|352:176,1,135,8|0,0:0|0:0,0:0:0
351,175,31292,2,0,B|260:176,1,90
172,176,31736,1,8,0:0:0
132,96,31958,6,0,B|180:96|212:60,1,90
380,96,32403,2,0,B|332:96|300:60,1,90,0|8,0:0|0:0,0:0:0
256,140,32847,1,0,0:0:0
208,216,33069,6,0,B|256:264|256:264|304:216,2,135,0|8|0,0:0|0:0|0:0,0:0:0
388,216,34181,1,0,0:0:0
388,308,34403,2,0,B|456:308|456:308|504:352,2,135,8|0|0,0:0|0:0|0:0,0:0:0
208,308,35514,6,0,B|208:264|208:264|176:228,1,90,0|8,0:0|0:0,0:0:0
304,76,35958,2,0,B|304:120|304:120|336:156,1,90,0|8,0:0|0:0,0:0:0
256,196,36403,5,0,0:0:0
256,196,36514,1,0,0:0:0
256,196,36625,2,0,B|164:92,2,135,4|8|0,0:0|0:0|0:0,0:0:0
368,336,37736,1,0,0:0:0
432,272,37958,2,0,B|432:204|464:204|464:140,2,135,8|0|0,0:0|0:0|0:0,0:0:0
396,96,39069,6,0,B|348:96|348:96|316:68,1,90,4|8,0:0|0:0,0:0:0
256,136,39514,1,4,0:0:0
116,96,39736,2,0,B|164:96|164:96|196:68,1,90,8|0,0:0|0:0,0:0:0
256,136,40181,6,0,B|256:272,2,135,4|8|0,0:0|0:0|0:0,0:0:0
212,344,41292,1,0,0:0:0
300,344,41514,2,0,B|368:344|416:280,2,135,8|0|0,0:0|0:0|0:0,0:0:0
356,72,42625,6,0,B|384:36,2,45
300,140,43069,1,0,0:0:0
212,140,43292,1,8,0:0:0
156,72,43514,6,0,B|128:36,2,45,0|0|4,0:0|0:0|0:0,0:0:0
212,140,43958,1,0,0:0:0
300,140,44181,1,8,0:0:0
256,220,44403,2,0,B|348:220|420:292,1,180
340,336,45069,1,8,0:0:0
256,308,45292,1,0,0:0:0
172,336,45514,6,0,B|104:336|52:276,2,135,0|8|0,0:0|0:0|0:0,0:0:0
172,48,46403,2,0,B|104:48|52:108,2,135,0|8|0,0:0|0:0|0:0,0:0:0
116,192,47292,6,0,B|256:192,2,135,0|8|0,0:0|0:0|0:0,0:0:0
116,104,48181,1,0,0:0:0
16,196,48514,1,8,0:0:0
116,280,48847,2,0,B|68:280|40:320,2,90
396,280,49736,6,0,B|444:280|472:320,2,90
316,236,50403,1,8,0:0:0
316,148,50625,1,0,0:0:0
396,104,50847,2,0,B|472:104|508:40,2,135,4|8|0,0:0|0:0|0:0,0:0:0
228,40,51958,6,0,B|180:40|148:76,1,90,0|8,0:0|0:0,0:0:0
148,164,52403,1,0,0:0:0
148,252,52625,2,0,B|80:252|80:252|32:304,2,135,4|8|0,0:0|0:0|0:0,0:0:0
304,340,53736,5,0,0:0:0
364,272,53958,1,8,0:0:0
376,272,54069,1,0,0:0:0
388,272,54181,2,0,B|436:272|468:232,1,90
464,100,54736,1,8,0:0:0
344,36,55069,6,0,B|256:52|256:52|168:36,1,180,4|0,0:0|0:0,0:0:0
76,40,55736,1,8,0:0:0
124,116,55958,2,0,B|124:160|84:196,1,90
32,264,56403,2,0,B|68:292,1,45,0|0,0:0|0:0,0:0:0
140,344,56736,2,0,B|188:344,1,45
364,344,57292,5,0,0:0:0
420,272,57514,1,8,0:0:0
432,256,57625,1,0,0:0:0
444,240,57736,1,0,0:0:0
456,224,57847,1,8,0:0:0
468,208,57958,1,0,0:0:0
480,192,58069,1,4,0:0:0
256,192,58403,12,4,59736,0:0:0
52,236,60069,6,0,B|116:236|168:296,1,135,8|0,0:0|0:0,0:0:0
256,272,60625,2,0,B|256:136,2,135,0|8|0,0:0|0:0|0:0,0:0:0
343,296,61514,2,0,B|396:236|460:236,1,135,0|8,0:0|0:0,0:0:0
484,148,62069,2,0,B|444:116,1,45
384,56,62403,2,0,B|336:56|308:96,1,90,0|4,0:0|0:0,0:0:0
256,168,62847,1,8,0:0:0
204,96,63069,2,0,B|176:56|128:56,1,90,0|4,0:0|0:0,0:0:0
36,156,63625,6,0,B|36:224|36:224|80:276,1,135,8|0,0:0|0:0,0:0:0
160,316,64181,2,0,B|160:248|160:248|116:196,2,135,0|8|0,0:0|0:0|0:0,0:0:0
236,364,65069,2,0,B|308:364|352:304,1,135,0|8,0:0|0:0,0:0:0
396,228,65625,2,0,B|444:228,1,45
496,156,65958,1,0,0:0:0
424,100,66181,1,0,0:0:0
352,44,66403,1,8,0:0:0
280,100,66625,5,0,0:0:0
268,92,66736,1,0,0:0:0
256,84,66847,2,0,B|184:84|152:60|152:60|80:60,2,180,4|8|0,0:0|0:0|0:0,0:0:0
180,196,68069,2,0,B|112:196|56:248,1,135,8|0,0:0|0:0,0:0:0
332,196,68625,2,0,B|400:196|456:248,2,135,0|8|0,0:0|0:0|0:0,0:0:0
256,244,69514,1,0,0:0:0
40,40,69958,5,8,0:0:0
256,344,70403,1,4,0:0:0
472,40,70847,1,8,0:0:0
132,192,71292,1,0,0:0:0
380,192,71736,1,8,0:0:0
212,40,72181,2,0,B|172:120,1,90
300,40,72625,2,0,B|340:120,1,90,8|0,0:0|0:0,0:0:0
212,344,73292,5,0,0:0:0
300,344,73514,1,8,0:0:0
256,268,73736,1,0,0:0:0
256,256,73847,1,0,0:0:0
256,244,73958,2,0,B|256:64,2,180,4|8|0,0:0|0:0|0:0,0:0:0
164,244,75069,1,0,0:0:0
212,320,75292,1,8,0:0:0
300,320,75514,1,0,0:0:0
348,244,75736,6,0,B|420:244|420:244|464:196,2,135,0|8|0,0:0|0:0|0:0,0:0:0
164,244,76625,2,0,B|92:244|92:244|48:196,2,135,0|8|0,0:0|0:0|0:0,0:0:0
212,168,77514,2,0,B|212:120|172:88,1,90,4|0,0:0|0:0,0:0:0
300,168,77958,2,0,B|300:120|340:88,1,90,8|4,0:0|0:0,0:0:0
256,248,78625,2,0,B|256:344,2,90,0|8|4,0:0|0:0|0:0,0:0:0
296,64,79514,2,0,B|256:44|256:44|216:64,2,90,0|2|0,0:0|0:0|0:0,0:0:0
384,192,80181,6,0,B|524:192,2,135
364,192,80958,1,0,0:0:0
344,192,81069,1,4,0:0:0
300,272,81292,1,0,0:0:0
256,192,81514,1,8,0:0:0
212,272,81736,2,0,B|172:192|172:192|212:112,1,180
300,112,82403,1,8,0:0:0
256,192,82625,1,0,0:0:0
144,72,83069,6,0,B|100:152,1,90,0|8,0:0|0:0,0:0:0
144,312,83514,2,0,B|100:232,1,90
256,192,84069,2,0,B|392:192,1,135,8|0,0:0|0:0,0:0:0
416,104,84625,1,4,0:0:0
492,148,84847,1,0,0:0:0
492,236,85069,1,8,0:0:0
416,280,85292,1,0,0:0:0
60,260,85736,1,0,0:0:0
120,192,85958,1,8,0:0:0
60,124,86181,1,0,0:0:0
412,40,87069,6,0,B|364:40|328:80,1,90
256,124,87514,1,0,0:0:0
100,40,87736,2,0,B|148:40|184:80,1,90
256,124,88181,2,0,B|256:260,2,135,4|4|4,0:0|0:0|0:0,0:0:0
