osu file format v13

[General]
AudioFilename: Party time.mp3
AudioLeadIn: 0
PreviewTime: 43902
Countdown: 0
SampleSet: Soft
StackLeniency: 0.7
Mode: 0
LetterboxInBreaks: 0
WidescreenStoryboard: 0

[Editor]
DistanceSpacing: 1
BeatDivisor: 4
GridSize: 4
TimelineZoom: 1

[Metadata]
Title:Party time!
TitleUnicode:Party time!
Artist:Ray
ArtistUnicode:Ray
Creator:Inyuschan
Version:Hard
Source:
Tags:RAYVE J-pop JPOP 高瀬一矢 レイ short cut version
BeatmapID:487387
BeatmapSetID:206752

[Difficulty]
HPDrainRate:6
CircleSize:4
OverallDifficulty:6
ApproachRate:7.5
SliderMultiplier:1.6
SliderTickRate:2

[Events]
//Background and Video events
0,0,"BG.jpg",0,0
//Break Periods
//Storyboard Layer 0 (Background)
//Storyboard Layer 1 (Fail)
//Storyboard Layer 2 (Pass)
//Storyboard Layer 3 (Foreground)
//Storyboard Sound Samples
//Background Colour Transformations
3,100,0,0,0

[TimingPoints]
518,461.538461538462,4,2,1,60,1,0
13441,-100,4,3,1,60,0,0
13902,-100,4,2,1,60,0,0
14018,-100,4,3,1,60,0,0
14825,-100,4,2,1,60,0,0
14941,-100,4,3,1,60,0,0
15287,-100,4,2,1,60,0,0
20825,-100,4,3,1,60,0,0
21287,-100,4,2,1,70,0,0
22671,-100,4,2,1,60,0,0
28210,-100,4,3,1,60,0,0
28671,-100,4,2,1,60,0,0
36748,-100,4,2,1,50,0,0
37441,-100,4,2,1,60,0,0
43902,-100,4,2,1,70,0,0
44594,-100,4,2,1,80,0,1
47018,-100,4,2,2,80,0,1
47248,-100,4,2,1,80,0,1
49787,-100,4,2,2,80,0,1
50018,-100,4,2,1,80,0,1
52556,-100,4,2,2,80,0,1
52787,-100,4,2,1,80,0,1
57171,-100,4,2,2,80,0,1
57402,-100,4,2,1,80,0,1
58441,-100,4,2,1,70,0,1
59133,-100,4,2,1,70,0,0
59364,-100,4,2,1,80,0,1
64556,-100,4,2,2,80,0,1
64787,-100,4,2,1,80,0,1
72287,-100,4,2,1,70,0,1
74133,-100,4,2,1,70,0,0
74594,-100,4,2,1,50,0,0
75287,-100,4,2,1,40,0,0
75979,-100,4,2,1,30,0,0
76210,-100,4,2,1,20,0,0
76441,-100,4,2,1,10,0,0
76671,-100,4,2,1,5,0,0

[Colours]
Combo1 : 134,142,193
Combo2 : 255,210,255
Combo3 : 255,203,179
Combo4 : 217,128,128

[HitObjects]
436,280,7902,6,0,P|380:280|284:224,1,160,4|2,0:0|0:0,0:0:0:0:
236,172,8594,2,0,P|192:204|184:256,1,80
220,296,9056,1,0,0:0:0:0:
288,332,9287,2,0,P|324:332|368:296,1,80,2|0,0:0|0:0,0:0:0:0:
384,232,9748,5,0,0:0:0:0:
384,152,9979,2,0,L|304:112,1,80,0|2,0:0|0:0,0:0:0:0:
128,152,10441,2,0,L|208:112,1,80
256,56,10902,1,0,0:0:0:0:
256,172,11133,2,0,L|256:272,1,80,2|0,0:0|0:0,0:0:0:0:
188,296,11594,6,0,P|256:332|330:287,2,160,0|2|0,0:0|0:0|0:0,0:0:0:0:
148,228,12748,1,0,0:0:0:0:
136,148,12979,2,0,P|164:148|216:184,1,80,2|0,0:0|0:0,0:0:0:0:
256,240,13441,5,0,0:0:0:0:
256,240,13556,1,0,0:0:0:0:
256,240,13671,2,0,L|328:288,1,80,0|2,0:0|0:0,0:0:0:0:
388,332,14133,1,0,0:0:0:0:
452,284,14364,1,0,0:0:0:0:
452,284,14479,1,0,0:0:0:0:
452,284,14594,2,0,B|472:248|472:248|472:196,1,80,0|2,0:0|0:0,0:0:0:0:
420,148,15056,1,0,0:0:0:0:
344,56,15287,6,0,P|308:84|300:144,1,80,4|0,0:0|0:0,0:0:0:0:
168,56,15748,2,0,P|204:84|212:144,1,80,2|0,0:0|0:0,0:0:0:0:
256,184,16210,1,0,0:0:0:0:
200,240,16441,1,0,0:0:0:0:
256,296,16671,1,2,0:0:0:0:
312,240,16902,1,0,0:0:0:0:
364,180,17133,6,0,B|412:112|412:112|412:20,2,160,0|2|0,0:0|0:0|0:0,0:0:0:0:
256,328,18518,1,2,0:0:0:0:
124,212,18979,6,0,L|64:136,1,80
130,29,19441,2,0,L|180:92,1,80,2|0,0:0|0:0,0:0:0:0:
256,120,19902,1,0,0:0:0:0:
381,29,20133,2,0,L|332:92,1,80,0|2,0:0|0:0,0:0:0:0:
256,120,20594,1,4,0:0:0:0:
256,240,20825,5,0,0:0:0:0:
256,240,20941,1,0,0:0:0:0:
256,240,21056,2,0,L|256:328,1,80,0|4,0:0|0:0,0:0:0:0:
332,348,21518,2,0,P|371:345|405:324,2,80,0|2|0,0:0|0:0|0:0,0:0:0:0:
179,348,22210,2,0,P|140:345|106:324,1,80,2|0,0:0|0:0,0:0:0:0:
216,276,22671,6,0,B|236:220|300:220|300:124,1,160,0|2,0:0|0:0,0:0:0:0:
212,143,23364,2,0,B|212:220|276:220|296:276,1,160,0|0,0:0|0:0,0:0:0:0:
276,352,24056,2,0,P|328:348|364:232,1,160,2|0,0:0|0:0,0:0:0:0:
320,200,24748,5,0,0:0:0:0:
256,152,24979,1,2,0:0:0:0:
192,200,25210,2,0,L|128:256,1,80
15,200,25671,2,0,L|76:148,1,80,0|2,0:0|0:0,0:0:0:0:
136,96,26133,1,0,0:0:0:0:
200,48,26364,6,0,P|256:48|332:140,1,160,0|2,0:0|0:0,0:0:0:0:
320,196,27056,2,0,B|320:236|320:236|288:280,1,80
215,268,27518,2,0,B|192:236|192:236|192:196,2,80,0|2|0,0:0|0:0|0:0,0:0:0:0:
280,316,28210,5,0,0:0:0:0:
280,316,28325,1,0,0:0:0:0:
280,316,28441,2,0,L|372:316,1,80,0|2,0:0|0:0,0:0:0:0:
432,348,28902,1,0,0:0:0:0:
360,316,29133,2,0,L|396:220,1,80,0|0,0:0|0:0,0:0:0:0:
324,89,29594,2,0,L|296:164,1,80,2|0,0:0|0:0,0:0:0:0:
296,244,30056,6,0,L|352:328,1,80
216,244,30518,2,0,L|160:328,1,80,2|0,0:0|0:0,0:0:0:0:
168,104,31210,1,0,0:0:0:0:
216,40,31441,1,2,0:0:0:0:
296,40,31671,1,0,0:0:0:0:
344,104,31902,6,0,B|344:192|344:192|304:272,1,160,0|2,0:0|0:0,0:0:0:0:
256,316,32594,1,0,0:0:0:0:
200,256,32825,2,0,B|168:192|168:192|168:104,1,160,0|2,0:0|0:0,0:0:0:0:
228,52,33518,1,0,0:0:0:0:
168,104,33748,6,0,P|124:104|84:140,1,80
52,192,34210,1,2,0:0:0:0:
94,260,34441,2,0,P|128:281|168:280,1,80
236,236,34902,1,0,0:0:0:0:
287,174,35133,2,0,P|312:208|312:256,1,80,2|0,0:0|0:0,0:0:0:0:
268,320,35594,5,0,0:0:0:0:
184,332,35825,2,0,P|152:332|100:296,1,80,0|2,0:0|0:0,0:0:0:0:
92,192,36287,2,0,P|124:192|176:228,1,80,0|0,0:0|0:0,0:0:0:0:
236,256,36748,2,0,L|264:256,8,20,0|0|0|0|2|0|0|0|0,0:0|0:0|0:0|0:0|0:0|0:0|0:0|0:0|0:0,0:0:0:0:
192,328,37441,6,0,P|160:292|200:180,1,160,0|2,0:0|0:0,0:0:0:0:
256,164,38133,1,0,0:0:0:0:
329,191,38364,2,0,P|359:261|320:328,1,160,0|2,0:0|0:0,0:0:0:0:
240,340,39056,6,0,L|120:224,1,160
72,168,39748,1,2,0:0:0:0:
125,108,39979,1,0,0:0:0:0:
180,52,40210,1,0,0:0:0:0:
260,52,40441,2,0,P|312:52|400:144,1,160
256,192,41133,12,2,42979,0:0:0:0:
256,128,43902,5,2,0:0:0:0:
256,256,44133,1,0,0:0:0:0:
332,192,44364,1,0,0:0:0:0:
180,192,44594,6,0,P|128:192|88:84,1,160,4|0,0:0|0:0,0:0:0:0:
125,40,45287,2,0,P|152:69|160:108,1,80,8|0,0:0|0:0,0:0:0:0:
80,106,45748,1,2,0:0:0:0:
48,180,45979,2,0,P|48:240|68:268,1,80,0|8,0:0|0:0,0:0:0:0:
132,224,46441,6,0,P|136:288|44:336,2,160,2|2|0,0:0|0:0|0:0,0:0:0:0:
92,156,47594,2,0,P|120:108|232:116,1,160,2|8,0:0|0:0,0:0:0:0:
295,102,48287,6,0,P|372:95|420:156,1,160,2|0,0:0|0:0,0:0:0:0:
392,232,48979,1,8,0:0:0:0:
340,168,49210,1,0,0:0:0:0:
295,102,49441,2,0,P|243:102|191:166,2,120,2|0|0,0:0|0:0|0:0,0:0:0:0:
312,180,50364,5,2,0:0:0:0:
296,260,50594,1,0,0:0:0:0:
216,260,50825,2,0,P|164:260|92:184,1,160,8|2,0:0|0:0,0:0:0:0:
136,116,51518,1,0,0:0:0:0:
136,116,51633,1,0,0:0:0:0:
136,116,51748,2,0,L|164:92,4,20,8|0|0|0|4,0:0|0:0|0:0|0:0|0:0,0:0:0:0:
296,108,52441,6,0,P|340:108|408:212,1,160,2|0,0:0|0:0,0:0:0:0:
368,260,53133,1,2,0:0:0:0:
308,316,53364,1,0,0:0:0:0:
256,256,53594,1,8,0:0:0:0:
204,316,53825,6,0,P|160:316|96:220,1,160,2|0,0:0|0:0,0:0:0:0:
144,168,54518,1,8,0:0:0:0:
200,112,54748,1,0,0:0:0:0:
280,112,54979,2,0,L|352:164,1,80,2|0,0:0|0:0,0:0:0:0:
359,271,55441,2,0,L|424:318,1,80,8|4,0:0|0:0,0:0:0:0:
296,220,55902,5,2,0:0:0:0:
219,235,56133,2,0,P|221:195|240:160,1,80,0|8,0:0|0:0,0:0:0:0:
252,308,56594,2,0,P|208:312|140:216,2,160,4|2|4,0:0|0:0|0:0,0:0:0:0:
364,192,57979,2,0,L|312:132,1,80,0|8,0:0|0:0,0:0:0:0:
256,72,58441,5,0,0:0:0:0:
216,208,58671,1,2,0:0:0:0:
312,132,58902,1,0,0:0:0:0:
200,132,59133,1,0,0:0:0:0:
296,208,59364,1,4,0:0:0:0:
404,316,59825,6,0,L|456:248,1,80,0|8,0:0|0:0,0:0:0:0:
492,140,60287,1,0,0:0:0:0:
436,80,60518,2,0,P|380:80|320:160,1,160,2|8,0:0|0:0,0:0:0:0:
400,156,61210,1,2,0:0:0:0:
320,156,61441,5,0,0:0:0:0:
248,124,61671,2,0,P|252:76|276:44,2,80,0|8|0,0:0|0:0|0:0,0:0:0:0:
300,196,62364,2,0,L|340:272,1,80,2|0,0:0|0:0,0:0:0:0:
212,196,62825,2,0,L|172:272,1,80,8|0,0:0|0:0,0:0:0:0:
30,282,63287,6,0,L|68:212,1,80,2|0,0:0|0:0,0:0:0:0:
140,180,63748,2,0,P|118:147|82:134,1,80,8|0,0:0|0:0,0:0:0:0:
148,260,64210,2,0,P|176:296|268:296,2,120,2|0|0,0:0|0:0|0:0,0:0:0:0:
224,232,65133,5,2,0:0:0:0:
246,307,65364,2,0,P|282:331|326:331,1,80,0|8,0:0|0:0,0:0:0:0:
372,276,65825,1,0,0:0:0:0:
372,196,66056,2,0,L|296:140,1,80,2|0,0:0|0:0,0:0:0:0:
244,100,66518,2,0,L|220:80,4,20,0|0|0|0|4,0:0|0:0|0:0|0:0|0:0,0:0:0:0:
88,164,67210,6,0,P|88:192|40:252,1,80,0|8,0:0|0:0,0:0:0:0:
28,312,67671,1,0,0:0:0:0:
104,344,67902,2,0,P|156:344|188:316,1,80,2|0,0:0|0:0,0:0:0:0:
252,296,68364,2,0,L|344:296,1,80,8|0,0:0|0:0,0:0:0:0:
400,256,68825,6,0,B|400:200|296:200|292:120,1,160,2|8,0:0|0:0,0:0:0:0:
216,141,69518,2,0,B|216:200|112:200|112:256,1,160
180,296,70210,1,8,0:0:0:0:
112,252,70441,6,0,P|76:220|76:96,1,160
120,56,71133,2,0,B|160:56|160:56|208:88,1,80,8|0,0:0|0:0,0:0:0:0:
392,56,71594,2,0,B|352:56|352:56|304:88,1,80,2|0,0:0|0:0,0:0:0:0:
256,128,72056,1,8,0:0:0:0:
188,172,72287,6,0,P|256:208|330:163,1,160,4|0,0:0|0:0,0:0:0:0:
320,92,72979,1,8,0:0:0:0:
320,92,73094,1,0,0:0:0:0:
320,92,73210,2,0,P|340:92|396:132,1,80,0|2,0:0|0:0,0:0:0:0:
428,192,73671,1,0,0:0:0:0:
390,261,73902,2,0,P|360:286|320:292,1,80,0|4,0:0|0:0,0:0:0:0:
256,192,74594,12,2,76902,0:0:0:0:
