osu file format v12

[General]
AudioFilename: 7. -nagi-.mp3
AudioLeadIn: 0
PreviewTime: 63274
Countdown: 0
SampleSet: Soft
StackLeniency: 0.7
Mode: 0
LetterboxInBreaks: 1

[Editor]
DistanceSpacing: 1.5
BeatDivisor: 4
GridSize: 4

[Metadata]
Title:Nagi -Nagi-
TitleUnicode:Nagi -Nagi-
Artist:Ray
ArtistUnicode:Ray
Creator:RealCuT
Version:Insane
Source:Nagi no asu kara
Tags:
BeatmapID:264044
BeatmapSetID:99210

[Difficulty]
HPDrainRate:7
CircleSize:4
OverallDifficulty:7
ApproachRate:8
SliderMultiplier:1.8
SliderTickRate:1

[Events]
//Background and Video events
0,0,"1.jpg",0,0
//Break Periods
2,97427,105780
2,205334,209966
//Storyboard Layer 0 (Background)
//Storyboard Layer 1 (Fail)
//Storyboard Layer 2 (Pass)
//Storyboard Layer 3 (Foreground)
//Storyboard Sound Samples
//Background Colour Transformations
3,100,163,162,255

[TimingPoints]
13507,465.116279069767,4,2,0,5,1,0
15134,-100,4,2,2,25,0,0
30251,-100,4,2,0,25,0,0
30483,-100,4,2,2,25,0,0
43274,-100,4,3,0,25,0,0
45367,-100,4,2,1,40,0,0
48158,-50,4,2,1,40,0,0
48390,-100,4,2,1,40,0,0
55600,-50,4,2,1,40,0,0
55832,-100,4,2,1,40,0,0
63739,-100,4,2,1,50,0,1
82344,-100,4,2,1,50,0,1
82693,-100,4,2,1,50,0,1
85832,-100,4,2,1,50,0,1
85948,-100,4,2,1,50,0,1
93506,-100,4,2,2,40,0,0
106530,-100,4,3,0,40,0,0
106995,-100,4,2,1,40,0,0
107111,-100,4,3,0,40,0,0
107925,-100,4,2,1,40,0,0
108041,-100,4,3,0,40,0,0
108390,-100,4,3,1,40,0,0
128158,-50,4,2,2,40,0,0
128390,-100,4,3,1,40,0,0
131879,-50,4,2,2,40,0,0
132111,-100,4,3,1,40,0,0
137227,-100,4,2,1,40,0,0
137576,-100,4,3,1,40,0,0
141879,-100,4,3,1,50,0,1
171646,-100,4,3,1,40,0,0
210716,-100,4,3,1,50,0,1
266530,-100,4,2,2,40,0,0

[Colours]
Combo1 : 149,255,149
Combo2 : 194,194,194
Combo3 : 255,172,255
Combo4 : 128,255,255

[HitObjects]
256,192,13507,12,0,14902,0:0:0:0:
256,192,15367,2,0,P|328:144|400:192,1,180,0|2,0:0|0:0,0:0:0:0:
328,272,16065,2,0,P|256:320|184:272,1,180
80,280,16762,2,0,L|64:192,1,90,2|0,0:0|0:0,0:0:0:0:
128,104,17227,1,0,0:0:0:0:
224,48,17460,1,0,0:0:0:0:
328,88,17693,1,2,0:0:0:0:
240,144,17925,5,0,0:0:0:0:
240,144,18041,1,0,0:0:0:0:
240,144,18158,2,0,P|256:184|288:224,1,90
392,200,18623,2,0,P|384:248|368:288,1,90,2|0,0:0|0:0,0:0:0:0:
272,336,19088,6,0,B|211:264|175:326|119:248,1,180,0|2,0:0|0:0,0:0:0:0:
208,192,19786,1,0,0:0:0:0:
56,144,20018,1,0,0:0:0:0:
152,96,20251,1,0,0:0:0:0:
248,56,20483,1,2,0:0:0:0:
352,88,20716,2,0,L|408:168,1,90
403,161,21065,1,0,0:0:0:0:
403,161,21181,1,0,0:0:0:0:
296,192,21413,6,0,P|304:240|320:280,1,90,2|0,0:0|0:0,0:0:0:0:
447,342,21879,2,0,P|439:294|424:256,1,90
403,161,22344,1,2,0:0:0:0:
104,80,22809,6,0,P|144:160|128:248,1,180,0|2,0:0|0:0,0:0:0:0:
48,176,23506,1,0,0:0:0:0:
128,248,23739,1,0,0:0:0:0:
232,224,23972,1,0,0:0:0:0:
248,120,24204,2,0,L|336:72,1,90,2|0,0:0|0:0,0:0:0:0:
327,77,24901,1,0,0:0:0:0:
336,112,25018,1,0,0:0:0:0:
344,144,25134,2,0,L|348:240,1,90,2|0,0:0|0:0,0:0:0:0:
272,312,25600,5,0,0:0:0:0:
96,288,25832,1,0,0:0:0:0:
224,216,26065,1,2,0:0:0:0:
48,192,26297,1,0,0:0:0:0:
144,136,26530,2,0,B|176:88|272:88|304:136,1,180,0|2,0:0|0:0,0:0:0:0:
392,72,27227,2,0,B|376:144|376:144|376:176|376:176|392:248,1,180
304,312,27925,2,0,L|208:312,1,90,2|0,0:0|0:0,0:0:0:0:
184,208,28390,6,0,L|280:208,1,90
232,104,28855,1,2,0:0:0:0:
344,104,29088,1,0,0:0:0:0:
272,24,29320,2,0,L|232:104,1,90
136,56,29786,1,4,0:0:0:0:
128,160,30018,1,0,0:0:0:0:
128,160,30251,6,0,L|168:240,1,90,4|0,0:0|0:0,0:0:0:0:
192,264,30600,1,0,0:0:0:0:
224,272,30716,2,0,P|272:272|312:248,1,90,2|0,0:0|0:0,0:0:0:0:
308,252,31414,1,0,0:0:0:0:
256,160,31646,1,2,0:0:0:0:
328,80,31879,1,0,0:0:0:0:
224,48,32111,6,0,P|176:56|136:80,1,90
400,160,32576,2,0,P|392:112|371:76,1,90,2|0,0:0|0:0,0:0:0:0:
112,224,33041,2,0,P|120:272|144:312,1,90
371,307,33506,2,0,P|336:328|288:336,1,90,2|0,0:0|0:0,0:0:0:0:
287,336,33972,2,0,P|248:256|248:168,1,180,0|2,0:0|0:0,0:0:0:0:
344,208,34669,1,0,0:0:0:0:
248,256,34902,1,0,0:0:0:0:
344,208,35134,1,0,0:0:0:0:
344,208,35367,6,0,L|320:120,1,90,2|0,0:0|0:0,0:0:0:0:
424,136,35832,2,0,P|352:88|256:88,1,180,0|2,0:0|0:0,0:0:0:0:
152,128,36530,1,0,0:0:0:0:
152,128,36646,1,0,0:0:0:0:
152,128,36762,2,0,P|160:176|176:216,1,90
256,136,37227,1,2,0:0:0:0:
256,136,37693,6,0,B|296:160|296:160|376:140|400:216,1,180,0|2,0:0|0:0,0:0:0:0:
296,240,38390,1,0,0:0:0:0:
192,224,38623,1,0,0:0:0:0:
136,128,38855,1,0,0:0:0:0:
152,96,38972,1,0,0:0:0:0:
176,72,39088,1,2,0:0:0:0:
136,128,39320,2,0,B|112:192|168:240|168:240|168:304,1,190,0|0,0:0|0:0,0:0:0:0:
272,312,40018,2,0,P|328:240|424:240,1,190,2|0,0:0|0:0,0:0:0:0:
432,144,40716,5,0,0:0:0:0:
328,120,40948,1,2,0:0:0:0:
240,184,41181,1,0,0:0:0:0:
232,288,41413,2,0,L|136:288,1,90
240,184,41879,2,0,L|156:136,1,90,2|0,0:0|0:0,0:0:0:0:
328,120,42344,2,0,L|280:36,1,90,0|0,0:0|0:0,0:0:0:0:
432,144,42809,2,0,L|432:52,1,90,2|0,0:0|0:0,0:0:0:0:
424,52,43274,6,0,B|200:36|336:300|464:36|248:52,1,360,4|4,0:0|0:0,0:0:0:0:
232,52,44669,5,4,0:0:0:0:
216,52,44902,1,4,0:0:0:0:
208,52,45018,1,4,0:0:0:0:
200,52,45134,2,4,P|152:60|120:92,1,90,0|0,0:0|0:0,0:0:0:0:
208,200,45600,2,0,P|256:192|285:164,1,90
128,128,46065,1,0,0:0:0:0:
232,128,46297,1,0,0:0:0:0:
184,304,46530,5,8,0:0:0:0:
152,128,46762,5,0,0:0:0:0:
264,128,46995,1,0,0:0:0:0:
216,224,47227,1,0,0:0:0:0:
176,120,47460,1,0,0:0:0:0:
280,152,47693,1,0,0:0:0:0:
192,216,47925,1,0,0:0:0:0:
392,288,48158,6,0,B|416:224|416:224|456:240|456:240|480:168,1,180,0|8,0:0|0:0,0:0:0:0:
416,88,48623,5,0,0:0:0:0:
312,56,48855,2,0,P|272:48|224:56,1,90
264,152,49320,1,0,0:0:0:0:
328,240,49553,2,0,P|296:265|271:307,1,90
192,232,50018,1,0,0:0:0:0:
80,88,50251,5,8,0:0:0:0:
192,232,50483,5,0,0:0:0:0:
144,328,50716,2,0,P|192:336|240:328,1,90
293,242,51181,2,0,P|318:274|336:320,1,90
400,232,51646,1,0,0:0:0:0:
344,144,51879,1,0,0:0:0:0:
336,320,52111,5,8,0:0:0:0:
184,224,52344,5,0,0:0:0:0:
88,176,52576,1,0,0:0:0:0:
152,88,52809,1,0,0:0:0:0:
88,176,53041,2,0,L|176:152,1,90
253,275,53506,2,0,P|224:240|184:224,1,90
328,112,53972,5,8,0:0:0:0:
328,112,54437,5,0,0:0:0:0:
388,200,54669,1,0,0:0:0:0:
388,236,54786,1,0,0:0:0:0:
372,268,54902,2,0,L|300:324,1,90
196,296,55367,1,0,0:0:0:0:
88,152,55600,6,0,B|136:56|240:144|96:112|184:32,1,180,0|8,0:0|0:0,0:0:0:0:
336,104,56065,5,0,0:0:0:0:
336,104,56181,1,0,0:0:0:0:
336,104,56297,2,0,L|288:104,1,45
264,112,56530,2,0,L|216:128,1,45
192,136,56762,2,0,P|152:160|136:200,1,90
224,264,57227,1,0,0:0:0:0:
328,288,57460,2,0,L|400:232,1,90,0|8,0:0|0:0,0:0:0:0:
336,112,57925,5,0,0:0:0:0:
184,72,58158,1,0,0:0:0:0:
264,232,58390,1,0,0:0:0:0:
96,304,58623,1,0,0:0:0:0:
96,304,59088,5,4,0:0:0:0:
104,144,59437,1,0,0:0:0:0:
272,192,59786,1,0,0:0:0:0:
352,120,60018,1,0,0:0:0:0:
376,224,60251,1,0,0:0:0:0:
272,192,60483,1,4,0:0:0:0:
224,96,60716,5,0,0:0:0:0:
192,80,60832,1,0,0:0:0:0:
160,88,60948,1,0,0:0:0:0:
136,112,61065,1,0,0:0:0:0:
144,144,61181,1,0,0:0:0:0:
136,176,61297,1,0,0:0:0:0:
144,208,61413,1,0,0:0:0:0:
184,312,61646,2,2,P|248:336|312:312,1,135
328,296,62111,1,0,0:0:0:0:
256,192,62344,1,0,0:0:0:0:
352,96,62576,5,0,0:0:0:0:
368,128,62693,2,0,P|376:168|368:224,1,90
364,232,62983,2,0,L|356:248,10,11.25,0|0|0|0|0|0|0|0|0|0|8,0:0|0:0|0:0|0:0|0:0|0:0|0:0|0:0|0:0|0:0|0:0,0:0:0:0:
184,288,63506,5,0,0:0:0:0:
184,288,63623,1,0,0:0:0:0:
184,288,63739,2,0,P|152:256|136:208,1,90
240,176,64204,2,0,P|296:176|336:160,1,90,8|0,0:0|0:0,0:0:0:0:
264,80,64669,2,0,P|208:80|168:96,1,90,0|0,0:0|0:0,0:0:0:0:
88,152,65134,1,10,0:0:0:0:
136,248,65367,2,0,B|176:272|176:272|216:244|256:276|256:276|300:252,1,180,0|0,0:0|0:0,0:0:0:0:
352,344,66065,5,10,0:0:0:0:
392,244,66297,1,0,0:0:0:0:
356,144,66530,1,0,0:0:0:0:
396,44,66762,1,0,0:0:0:0:
288,48,66995,2,0,L|192:80,1,90,10|0,0:0|0:0,0:0:0:0:
131,257,67460,2,0,P|224:240|256:168,1,180,0|10,0:0|0:0,0:0:0:0:
384,112,68158,2,0,P|412:185|359:263,1,180
304,168,68855,1,10,0:0:0:0:
200,176,69088,1,0,0:0:0:0:
152,80,69320,6,0,L|56:88,1,90,0|0,0:0|0:0,0:0:0:0:
88,192,69786,2,0,L|24:264,1,90,10|0,0:0|0:0,0:0:0:0:
136,272,70251,2,0,L|216:328,1,90,0|0,0:0|0:0,0:0:0:0:
244,332,70600,1,0,0:0:0:0:
280,328,70716,1,10,0:0:0:0:
376,276,70948,5,0,0:0:0:0:
376,276,71065,1,0,0:0:0:0:
376,276,71181,1,0,0:0:0:0:
416,176,71413,2,0,P|432:128|424:88,1,90,0|10,0:0|0:0,0:0:0:0:
316,84,71879,2,0,P|260:92|196:140,1,135
188,172,72344,1,0,0:0:0:0:
92,220,72576,1,10,0:0:0:0:
188,268,72809,1,0,0:0:0:0:
100,328,73041,1,0,0:0:0:0:
92,220,73274,1,0,0:0:0:0:
108,112,73506,6,0,P|140:72|180:48,1,90,10|0,0:0|0:0,0:0:0:0:
280,68,73972,2,0,P|328:84|368:116,1,90
272,168,74437,1,10,0:0:0:0:
408,288,74669,1,0,0:0:0:0:
408,288,74786,1,0,0:0:0:0:
408,288,74902,2,0,P|368:320|328:328,1,90,0|4,0:0|0:0,0:0:0:0:
328,216,75367,2,0,P|360:176|400:152,1,90,10|0,0:0|0:0,0:0:0:0:
320,80,75832,2,0,P|272:64|216:64,1,90,0|0,0:0|0:0,0:0:0:0:
168,152,76297,5,10,0:0:0:0:
168,152,76530,2,0,P|168:216|216:264,1,135
252,272,76995,1,0,0:0:0:0:
360,272,77227,2,0,P|408:196|380:116,1,180,10|0,0:0|0:0,0:0:0:0:
352,92,77809,1,0,0:0:0:0:
320,76,77925,1,0,0:0:0:0:
284,68,78041,1,0,0:0:0:0:
248,72,78158,1,10,0:0:0:0:
216,88,78274,1,0,0:0:0:0:
188,108,78390,1,10,0:0:0:0:
172,140,78506,1,0,0:0:0:0:
168,176,78623,6,0,P|144:232|80:272,1,135,4|0,0:0|0:0,0:0:0:0:
52,252,79088,1,10,0:0:0:0:
124,332,79320,1,0,0:0:0:0:
84,148,79553,2,0,P|104:108|140:80,1,90
212,364,80018,2,0,P|172:344|144:308,1,90,10|0,0:0|0:0,0:0:0:0:
316,332,80483,2,0,P|336:292|371:264,1,90
384,72,80948,2,0,L|400:160,1,90,10|0,0:0|0:0,0:0:0:0:
316,92,81413,5,0,0:0:0:0:
208,100,81646,1,0,0:0:0:0:
224,208,81879,1,10,0:0:0:0:
140,276,82111,1,0,0:0:0:0:
208,100,82344,2,0,P|248:144|220:212,1,135,4|0,0:0|0:0,0:0:0:0:
252,232,82809,1,10,0:0:0:0:
356,200,83041,2,0,P|366:265|422:297,1,135
428,332,83506,1,0,0:0:0:0:
320,332,83739,5,10,0:0:0:0:
220,292,83972,1,0,0:0:0:0:
120,332,84204,1,0,0:0:0:0:
92,228,84437,1,0,0:0:0:0:
72,200,84553,1,0,0:0:0:0:
76,164,84669,2,0,P|88:120|76:76,1,90,10|0,0:0|0:0,0:0:0:0:
184,100,85134,5,0,0:0:0:0:
220,88,85251,1,0,0:0:0:0:
256,76,85367,1,2,0:0:0:0:
288,88,85483,1,0,0:0:0:0:
320,100,85600,1,8,0:0:0:0:
256,308,85832,1,4,0:0:0:0:
256,308,86297,6,0,P|255:261|279:219,1,90,0|10,0:0|0:0,0:0:0:0:
380,196,86762,1,0,0:0:0:0:
380,196,86995,2,0,P|340:128|288:116,1,135
252,116,87460,1,10,0:0:0:0:
168,48,87693,1,0,0:0:0:0:
124,148,87925,1,0,0:0:0:0:
168,248,88158,1,2,0:0:0:0:
168,248,88274,1,0,0:0:0:0:
168,248,88390,2,0,L|212:328,1,90,10|0,0:0|0:0,0:0:0:0:
316,300,88855,6,0,P|308:228|344:172,1,135
377,168,89320,1,10,0:0:0:0:
270,69,89553,1,0,0:0:0:0:
143,139,89786,1,0,0:0:0:0:
143,139,90251,5,8,0:0:0:0:
171,282,90483,1,0,0:3:0:0:
171,282,90600,1,0,0:0:0:0:
171,282,90716,2,0,L|260:300,1,90
348,236,91181,2,0,P|336:192|344:144,1,90,8|0,0:0|0:0,0:0:0:0:
276,64,91646,1,0,0:0:0:0:
156,200,91879,1,0,0:0:0:0:
276,336,92111,1,8,0:0:0:0:
276,320,92576,5,0,0:0:0:0:
276,304,93041,1,8,0:0:0:0:
276,296,93274,1,0,0:0:0:0:
276,288,93390,1,0,0:0:0:0:
276,280,93506,2,0,P|304:212|288:152,1,135
264,128,93972,1,8,0:0:0:0:
196,212,94204,1,0,0:0:0:0:
256,192,94320,12,0,97227,0:0:0:0:
132,108,106530,5,4,0:0:0:0:
132,108,106762,1,4,0:0:0:0:
132,108,106995,1,8,0:0:0:0:
132,108,107227,1,4,0:0:0:0:
132,108,107460,1,4,0:0:0:0:
220,168,107693,1,4,0:0:0:0:
160,288,107925,1,8,0:0:0:0:
336,332,108158,1,4,0:0:0:0:
404,168,108390,6,0,P|332:112|248:128,1,180,4|4,0:0|0:0,0:0:0:0:
320,244,109088,1,0,0:0:0:0:
208,316,109320,1,4,0:0:0:0:
88,256,109553,1,0,0:0:0:0:
200,184,109786,2,0,L|117:148,1,90,4|0,0:0|0:0,0:0:0:0:
356,344,110251,2,0,P|420:280|412:192,1,180,4|4,0:0|0:0,0:0:0:0:
364,72,110948,1,0,0:0:0:0:
288,184,111181,1,4,0:0:0:0:
276,48,111413,1,0,0:0:0:0:
152,104,111646,5,4,0:0:0:0:
100,228,111879,1,0,0:0:0:0:
152,104,112111,2,0,B|229:165|149:202|224:259,1,180,4|4,0:0|0:0,3:0:0:0:
152,104,112809,1,0,0:0:0:0:
276,152,113041,1,4,0:0:0:0:
400,104,113274,1,0,0:0:0:0:
424,236,113506,2,0,L|356:300,1,90
224,308,113972,2,0,P|152:308|104:264,1,135,4|0,0:0|0:0,0:0:0:0:
96,236,114437,1,4,0:0:0:0:
220,184,114669,5,0,0:0:0:0:
304,76,114902,1,4,0:0:0:0:
380,188,115134,1,0,0:0:0:0:
456,76,115367,1,4,0:0:0:0:
56,308,115832,5,4,0:0:0:0:
188,332,116065,1,0,0:0:0:0:
188,332,116181,1,0,0:0:0:0:
188,332,116297,2,0,P|232:328|272:304,1,90,4|0,0:0|0:0,0:0:0:0:
404,320,116762,2,0,L|432:232,2,90,4|0|4,0:0|0:0|0:0,0:0:0:0:
328,208,117460,2,0,P|256:152|248:68,1,180
164,176,118158,2,0,P|156:260|84:316,2,180,4|4|4,0:0|0:0|0:0,0:0:0:0:
68,84,119320,5,0,0:0:0:0:
200,52,119553,2,0,L|288:32,1,90,4|0,0:0|0:0,0:0:0:0:
280,168,120018,2,0,L|366:194,1,90,4|0,0:0|0:0,0:0:0:0:
292,308,120483,2,0,L|353:374,1,90,4|0,0:0|0:0,0:0:0:0:
156,316,120948,2,0,L|182:229,1,90,4|0,0:0|0:0,0:0:0:0:
60,172,121413,5,4,0:0:0:0:
72,140,121530,1,0,0:0:0:0:
96,112,121646,1,0,0:0:0:0:
124,92,121762,1,0,0:0:0:0:
160,80,121879,1,4,0:0:0:0:
196,80,121995,1,0,0:0:0:0:
228,68,122111,1,0,0:0:0:0:
256,44,122227,1,0,0:0:0:0:
292,32,122344,5,4,0:0:0:0:
324,48,122460,1,0,0:0:0:0:
360,60,122576,1,0,0:0:0:0:
396,60,122693,1,0,0:0:0:0:
432,60,122809,1,4,0:0:0:0:
464,80,122925,1,0,0:0:0:0:
480,112,123041,1,4,0:0:0:0:
484,148,123158,1,0,0:0:0:0:
472,184,123274,6,0,P|428:180|384:196,1,90,4|0,0:0|0:0,0:0:0:0:
424,324,123739,2,0,P|381:339|337:335,1,90,4|0,0:0|0:0,0:0:0:0:
284,212,124204,2,0,P|232:160|172:156,1,135,4|0,0:0|0:0,0:0:0:0:
204,232,124669,1,12,0:0:0:0:
76,276,124902,1,0,0:0:0:0:
44,144,125134,1,4,0:0:0:0:
160,76,125367,1,0,0:0:0:0:
292,108,125600,1,4,0:0:0:0:
420,68,125832,1,0,0:0:0:0:
416,204,126065,2,0,L|400:292,1,90,4|0,0:0|0:0,0:0:0:0:
112,92,126530,5,12,0:0:0:0:
400,292,126762,5,0,0:0:0:0:
272,248,126995,1,4,0:0:0:0:
168,332,127227,1,0,0:0:0:0:
84,228,127460,2,0,L|56:140,2,90,4|0|4,0:0|0:0|0:0,0:0:0:0:
192,148,128158,6,0,B|212:100|212:100|256:92|256:92|304:128|344:80,1,180,0|12,0:0|0:0,0:0:0:0:
192,148,128623,1,0,0:0:0:0:
320,188,128855,1,4,0:0:0:0:
192,224,129088,1,0,0:0:0:0:
320,260,129320,1,4,0:0:0:0:
264,136,129553,1,0,0:0:0:0:
212,260,129786,1,4,0:0:0:0:
264,136,130018,1,0,0:0:0:0:
264,316,130251,5,12,0:0:0:0:
264,136,130483,5,0,0:0:0:0:
264,136,130716,2,0,P|208:104|144:128,1,135,4|0,0:0|0:0,0:0:0:0:
200,180,131181,1,4,0:0:0:0:
336,180,131413,1,0,0:0:0:0:
200,180,131646,1,4,0:0:0:0:
200,316,131879,6,0,B|244:316|280:352|280:352|316:316|360:316,1,180,0|8,0:0|0:0,0:0:0:0:
88,248,132344,5,0,0:0:0:0:
140,124,132576,2,0,L|204:60,1,90,4|0,0:0|0:0,0:0:0:0:
256,184,133041,2,0,L|344:168,1,90,4|0,0:0|0:0,0:0:0:0:
324,300,133506,2,0,L|416:312,1,90,4|0,0:0|0:0,0:0:0:0:
140,124,133972,5,12,0:0:0:0:
324,300,134204,5,0,0:0:0:0:
324,300,134320,1,0,0:0:0:0:
324,300,134437,2,0,P|344:256|340:212,1,90,4|0,0:0|0:0,0:0:0:0:
212,248,134902,1,4,0:0:0:0:
212,248,135134,2,0,P|184:184|200:124,1,135
232,104,135600,1,0,0:0:0:0:
360,60,135832,1,12,0:0:0:0:
448,164,136065,2,0,P|440:216|420:256,1,90,0|4,0:0|0:0,0:0:0:0:
252,304,136530,1,4,0:0:0:0:
108,200,136762,1,4,0:0:0:0:
108,200,137227,6,0,P|112:128|160:96,2,135,4|4|4,0:0|0:0|0:0,0:0:0:0:
240,232,138158,1,4,0:0:0:0:
372,208,138390,1,4,0:0:0:0:
240,232,138623,1,4,0:0:0:0:
124,168,138855,2,0,L|172:168,1,45
228,80,139087,2,4,L|183:80,1,45
92,80,139320,2,4,L|128:116,1,45
196,168,139552,2,0,L|164:136,1,45,0|0,0:0|0:0,0:0:0:0:
312,100,139786,5,4,0:0:0:0:
312,100,140251,2,0,L|320:144,1,45,4|0,0:0|0:0,0:0:0:0:
328,180,140483,1,4,0:0:0:0:
324,216,140600,1,0,0:0:0:0:
312,248,140716,1,4,0:0:0:0:
292,276,140832,1,4,0:0:0:0:
260,296,140948,1,0,0:0:0:0:
224,304,141065,1,0,0:0:0:0:
188,304,141181,2,0,L|180:320,8,11.25,0|0|0|0|0|0|0|0|8,0:0|0:0|0:0|0:0|0:0|0:0|0:0|0:0|0:0,0:0:0:0:
200,168,141646,6,0,L|208:124,1,45,4|4,0:0|0:0,0:0:0:0:
220,88,141879,2,0,P|300:56|364:112,1,180,4|12,0:0|0:0,0:0:0:0:
220,88,142576,1,0,0:0:0:0:
220,88,142809,2,0,P|152:100|120:156,1,135,4|0,0:0|0:0,0:0:0:0:
200,168,143274,1,12,0:0:0:0:
252,304,143506,1,0,0:0:0:0:
124,256,143739,1,4,0:0:0:0:
388,348,143972,1,0,0:0:0:0:
376,212,144204,6,0,L|376:168,1,45,12|0,0:0|0:0,0:0:0:0:
372,132,144437,2,0,P|304:76|228:108,1,180
116,32,145134,1,12,0:0:0:0:
68,160,145367,1,0,0:0:0:0:
196,204,145600,6,0,P|248:244|264:312,1,135,4|0,0:0|0:0,0:0:0:0:
208,360,146065,1,12,0:0:0:0:
328,296,146297,1,0,0:0:0:0:
460,272,146530,1,0,0:0:0:0:
372,168,146762,1,0,0:0:0:0:
328,296,146995,1,8,0:0:0:0:
372,168,147227,1,0,0:0:0:0:
476,80,147460,2,0,P|400:40|312:68,1,180,4|12,0:0|0:0,0:0:0:0:
180,40,148158,2,0,P|224:120|184:196,1,180
80,116,148855,5,12,0:0:0:0:
432,116,149088,1,0,0:0:0:0:
432,116,149204,1,0,0:0:0:0:
432,116,149320,2,0,L|432:208,1,90,4|0,0:0|0:0,0:0:0:0:
304,156,149786,1,12,0:0:0:0:
176,116,150018,2,0,P|132:168|132:236,1,135
172,292,150483,1,0,0:0:0:0:
264,180,150716,1,12,0:0:0:0:
360,288,150948,2,0,P|404:208|396:120,1,180
260,76,151646,5,12,0:0:0:0:
128,132,151879,1,0,0:0:0:0:
264,180,152111,1,4,0:0:0:0:
176,296,152344,1,0,0:0:0:0:
176,296,152460,1,0,0:0:0:0:
176,296,152576,1,12,0:0:0:0:
320,308,152809,1,0,0:0:0:0:
352,292,152925,1,0,0:0:0:0:
372,264,153041,1,4,0:0:0:0:
408,136,153274,5,0,0:0:0:0:
292,64,153506,2,0,P|252:52|208:68,1,90,12|0,0:0|0:0,0:0:0:0:
256,196,153972,2,0,P|236:240|244:284,1,90,4|0,0:0|0:0,0:0:0:0:
148,136,154437,1,12,0:0:0:0:
120,268,154669,1,0,0:0:0:0:
120,268,155134,5,0,0:0:0:0:
236,340,155367,1,8,0:0:0:0:
260,312,155483,1,0,0:0:0:0:
292,292,155600,1,0,0:0:0:0:
320,272,155716,1,0,0:0:0:0:
340,240,155832,1,0,0:0:0:0:
316,212,155948,1,0,0:0:0:0:
292,184,156065,1,0,0:0:0:0:
272,156,156181,5,0,0:0:0:0:
288,124,156297,1,0,0:0:0:0:
304,92,156413,1,0,0:0:0:0:
284,60,156530,1,0,0:0:0:0:
252,48,156646,1,0,0:0:0:0:
216,44,156762,6,0,P|156:52|108:108,1,135,4|0,0:0|0:0,0:0:0:0:
144,172,157227,1,12,0:0:0:0:
144,172,157693,2,0,L|144:268,2,90,4|0|12,0:0|0:0|0:0,0:0:0:0:
272,216,158390,2,0,P|344:260|432:228,1,180
420,100,159088,2,0,P|376:80|328:80,1,90,12|0,0:0|0:0,0:0:0:0:
177,78,159553,2,0,P|136:80|92:100,1,90,4|0,0:0|0:0,0:0:0:0:
172,208,160018,2,0,P|192:252|184:300,1,90,12|0,0:0|0:0,0:0:0:0:
324,308,160483,6,0,P|368:244|368:188,1,135,4|0,0:0|0:0,0:0:0:0:
296,184,160948,1,12,0:0:0:0:
188,268,161181,2,0,P|152:224|156:144,1,135
224,136,161646,1,0,0:0:0:0:
104,76,161879,1,12,0:0:0:0:
344,76,162111,1,0,0:0:0:0:
224,16,162344,1,4,0:0:0:0:
344,212,162576,1,0,0:0:0:0:
344,76,162809,1,12,0:0:0:0:
224,276,163041,1,0,0:0:0:0:
104,76,163274,5,4,0:0:0:0:
224,276,163506,1,0,0:0:0:0:
344,76,163739,1,12,0:0:0:0:
224,276,163972,2,0,B|288:308|288:308|360:200|360:360|456:280,1,270,4|8,0:0|0:0,0:0:0:0:
388,164,164902,1,0,0:0:0:0:
280,84,165134,2,0,P|240:64|184:64,1,90,4|0,0:0|0:0,0:0:0:0:
220,196,165600,1,12,0:0:0:0:
220,196,165832,2,0,P|160:240|100:236,1,135
120,168,166297,1,0,0:0:0:0:
208,64,166530,5,12,0:0:0:0:
208,64,166762,2,0,P|296:52|368:108,1,180
344,236,167460,1,12,0:0:0:0:
204,172,167693,1,0,0:0:0:0:
104,324,167925,1,4,0:0:0:0:
408,60,168390,5,12,0:0:0:0:
284,116,168623,1,0,0:0:0:0:
160,60,168855,1,4,0:0:0:0:
112,188,169088,1,0,0:0:0:0:
112,188,169204,1,0,0:0:0:0:
112,188,169320,2,0,P|120:228|152:268,1,90,4|0,0:0|0:0,0:0:0:0:
276,316,169786,1,4,0:0:0:0:
380,172,170018,1,4,0:0:0:0:
236,64,170251,1,12,0:0:0:0:
236,64,170716,5,4,0:0:0:0:
196,307,170948,1,0,0:0:0:0:
371,133,171181,1,4,0:0:0:0:
128,171,171413,1,4,0:0:0:0:
347,283,171646,1,0,0:0:0:0:
332,292,172111,5,4,0:0:0:0:
316,296,172576,1,4,0:0:0:0:
296,296,173041,1,4,0:0:0:0:
280,296,173506,1,4,0:0:0:0:
264,292,173972,5,4,0:0:0:0:
248,292,174437,1,4,0:0:0:0:
232,296,174902,1,4,0:0:0:0:
100,268,175134,1,0,0:0:0:0:
124,136,175367,1,4,0:0:0:0:
140,128,175832,5,4,0:0:0:0:
156,120,176297,1,4,0:0:0:0:
172,112,176762,1,4,0:0:0:0:
188,104,177227,1,4,0:0:0:0:
204,96,177693,5,4,0:0:0:0:
220,88,178158,1,4,0:0:0:0:
236,80,178623,1,4,0:0:0:0:
364,116,178855,1,0,0:0:0:0:
416,240,179088,1,4,0:0:0:0:
400,252,179553,5,4,0:0:0:0:
384,260,180018,1,4,0:0:0:0:
368,268,180483,1,4,0:0:0:0:
352,272,180948,1,4,0:0:0:0:
336,272,181413,5,4,0:0:0:0:
320,268,181879,1,4,0:0:0:0:
304,264,182344,1,4,0:0:0:0:
108,80,182809,5,4,0:0:0:0:
100,104,182925,1,0,0:0:0:0:
96,132,183041,1,0,0:0:0:0:
96,160,183158,1,0,0:0:0:0:
104,184,183274,1,4,0:0:0:0:
116,208,183390,1,0,0:0:0:0:
132,228,183506,1,0,0:0:0:0:
152,244,183623,1,0,0:0:0:0:
176,256,183739,5,4,0:0:0:0:
212,264,183855,1,0,0:0:0:0:
248,268,183972,1,0,0:0:0:0:
284,264,184088,1,0,0:0:0:0:
316,248,184204,1,4,0:0:0:0:
344,228,184320,1,0,0:0:0:0:
368,200,184437,2,0,P|320:136|232:160,1,180,4|0,0:0|0:0,0:0:0:0:
188,152,185018,1,4,0:0:0:0:
156,124,185134,1,4,0:0:0:0:
112,300,185367,5,4,0:0:0:0:
152,316,185483,1,4,0:0:0:0:
376,304,185716,1,4,0:0:0:0:
332,320,185832,1,4,0:0:0:0:
396,124,186065,5,4,0:0:0:0:
356,140,186181,1,4,0:0:0:0:
308,124,186297,1,4,0:0:0:0:
268,140,186413,1,4,0:0:0:0:
224,124,186530,2,0,P|148:116|112:156,1,135,4|0,0:0|0:0,0:0:0:0:
184,192,186995,1,8,0:0:0:0:
132,40,187227,5,0,0:0:0:0:
184,192,187460,1,4,0:0:0:0:
84,280,187693,1,0,0:0:0:0:
84,280,187809,1,0,0:0:0:0:
84,280,187925,2,0,P|120:296|176:296,1,90,0|0,0:0|0:0,0:0:0:0:
292,352,188390,1,4,0:0:0:0:
220,236,188623,1,0,0:0:0:0:
420,60,188855,5,12,0:0:0:0:
220,236,189088,5,0,0:0:0:0:
120,144,189320,1,4,0:0:0:0:
336,304,189553,1,0,0:0:0:0:
336,304,189669,1,0,0:0:0:0:
336,304,189786,1,12,0:0:0:0:
120,144,190018,1,0,0:0:0:0:
236,76,190251,2,0,P|296:52|360:92,1,135,4|0,0:0|0:0,0:0:0:0:
292,128,190716,5,12,0:0:0:0:
292,128,190948,1,0,0:0:0:0:
292,128,191181,2,0,P|248:184|264:248,1,135,4|0,0:0|0:0,0:0:0:0:
324,200,191646,1,12,0:0:0:0:
176,164,191879,1,0,0:0:0:0:
60,264,192111,6,0,P|92:292|140:304,1,90,4|0,0:0|0:0,0:0:0:0:
184,300,192460,1,0,0:0:0:0:
220,276,192576,1,12,0:0:0:0:
260,148,192809,1,0,0:0:0:0:
380,84,193041,5,4,0:0:0:0:
400,124,193158,1,0,0:0:0:0:
404,168,193274,1,0,0:0:0:0:
400,212,193390,1,0,0:0:0:0:
384,252,193506,1,12,0:0:0:0:
384,252,193739,1,0,0:0:0:0:
384,252,193972,6,0,P|336:296|264:296,1,135,4|0,0:0|0:0,0:0:0:0:
212,256,194437,1,12,0:0:0:0:
212,256,194669,1,0,0:0:0:0:
132,148,194902,1,4,0:0:0:0:
220,44,195134,1,0,0:0:0:0:
220,44,195251,1,0,0:0:0:0:
220,44,195367,1,12,0:0:0:0:
332,120,195600,6,0,P|352:156|356:204,1,90,0|4,0:0|0:0,0:0:0:0:
204,304,196065,1,0,0:0:0:0:
204,304,196181,1,0,0:0:0:0:
204,304,196297,1,12,0:0:0:0:
356,204,196530,5,0,0:0:0:0:
244,128,196762,1,4,0:0:0:0:
328,336,196995,1,0,0:0:0:0:
144,220,197227,1,12,0:0:0:0:
356,204,197460,1,0,0:0:0:0:
192,340,197693,1,4,0:0:0:0:
256,192,197809,12,0,199553,0:0:0:0:
256,148,199786,5,0,0:0:0:0:
372,80,200018,1,12,0:0:0:0:
436,200,200251,1,4,0:0:0:0:
276,284,200483,5,4,0:0:0:0:
200,120,200716,1,4,0:0:0:0:
88,260,200948,1,12,0:0:0:0:
380,136,201181,1,4,0:0:0:0:
200,120,201413,1,4,0:0:0:0:
256,192,201530,12,0,205134,0:0:0:0:
380,96,210716,5,4,0:0:0:0:
380,96,211181,2,0,L|288:96,1,90,12|0,0:0|0:0,0:0:0:0:
196,196,211646,2,0,L|288:196,1,90,4|0,0:0|0:0,0:0:0:0:
380,296,212111,2,0,L|288:296,1,90,12|0,0:0|0:0,0:0:0:0:
160,336,212576,2,0,P|96:332|52:276,1,135,4|0,0:0|0:0,0:0:0:0:
68,208,213041,1,12,0:0:0:0:
212,208,213274,1,0,0:0:0:0:
212,164,213390,1,0,0:0:0:0:
212,120,213506,1,4,0:0:0:0:
336,60,213739,5,0,0:0:0:0:
336,104,213855,1,0,0:0:0:0:
336,148,213972,1,12,0:0:0:0:
392,272,214204,1,0,0:0:0:0:
392,272,214320,1,0,0:0:0:0:
392,272,214437,2,0,P|328:308|268:308,1,135,4|0,0:0|0:0,0:0:0:0:
196,304,214902,5,12,0:0:0:0:
308,232,215134,1,0,0:0:0:0:
200,152,215367,1,4,0:0:0:0:
308,232,215600,1,0,0:0:0:0:
332,100,215832,2,0,L|252:60,1,90,12|0,0:0|0:0,0:0:0:0:
132,0,216297,1,4,0:0:0:0:
68,120,216530,1,0,0:0:0:0:
144,232,216762,1,12,0:0:0:0:
76,348,216995,1,0,0:0:0:0:
144,232,217227,5,4,0:0:0:0:
276,252,217460,1,0,0:0:0:0:
340,132,217693,2,0,L|272:72,1,90,12|0,0:0|0:0,0:0:0:0:
228,64,218041,1,0,0:0:0:0:
184,64,218158,1,4,0:0:0:0:
80,148,218390,2,0,L|168:176,2,90,0|12|0,0:0|0:0|0:0,0:0:0:0:
221,299,219088,2,0,L|136:272,2,90,4|0|12,0:0|0:0|0:0,0:0:0:0:
348,352,219786,2,0,P|376:264|340:188,1,180
208,168,220483,5,8,0:0:0:0:
208,168,220716,1,0,0:0:0:0:
236,132,220832,1,0,0:0:0:0:
276,112,220948,1,4,0:0:0:0:
320,96,221065,1,0,0:0:0:0:
360,112,221181,1,0,0:0:0:0:
400,132,221297,1,0,0:0:0:0:
428,180,221413,2,0,L|420:224,3,45,4|0|4|0,0:0|0:0|0:0|0:0,0:0:0:0:
380,192,221879,6,0,P|296:200|240:272,1,180,4|12,0:0|0:0,0:0:0:0:
240,271,222576,1,0,0:0:0:0:
240,271,222809,2,0,L|148:272,1,90,4|0,0:0|0:0,0:0:0:0:
84,152,223274,2,0,L|156:96,1,90,12|0,0:0|0:0,0:0:0:0:
288,128,223739,2,0,L|344:200,1,90,4|0,0:0|0:0,0:0:0:0:
212,232,224204,1,12,0:0:0:0:
124,132,224437,1,0,0:0:0:0:
256,100,224669,1,4,0:0:0:0:
140,88,224902,1,0,0:0:0:0:
184,216,225134,1,12,0:0:0:0:
268,132,225367,1,0,0:0:0:0:
404,116,225600,6,0,P|420:196|396:244,1,135,4|0,0:0|0:0,0:0:0:0:
344,192,226065,1,12,0:0:0:0:
244,104,226297,2,0,P|208:128|184:176,1,90,0|4,0:0|0:0,0:0:0:0:
260,292,226762,2,0,P|220:268|172:276,1,90,0|12,0:0|0:0,0:0:0:0:
56,192,227227,1,0,0:0:0:0:
200,192,227460,1,4,0:0:0:0:
344,192,227693,1,0,0:0:0:0:
344,192,227809,1,0,0:0:0:0:
344,192,227925,2,0,L|344:100,1,90,12|0,0:0|0:0,0:0:0:0:
204,60,228390,6,0,L|153:134,1,90,4|0,0:0|0:0,0:0:0:0:
348,60,228855,1,12,0:0:0:0:
408,232,229088,1,0,0:0:0:0:
408,232,229553,2,0,L|360:232,1,45
324,208,229786,2,0,P|248:160|160:176,1,180,12|0,0:0|0:0,0:0:0:0:
224,288,230483,1,0,0:0:0:0:
244,156,230716,1,12,0:0:0:0:
224,288,230948,2,0,P|144:288|108:244,1,135
184,216,231413,1,0,0:0:0:0:
132,92,231646,5,12,0:0:0:0:
132,92,231879,2,0,P|200:148|264:88,1,180
384,40,232576,1,12,0:0:0:0:
428,168,232809,1,0,0:0:0:0:
392,300,233041,1,4,0:0:0:0:
260,296,233274,2,0,P|220:304|172:296,2,90,0|12|0,0:0|0:0|0:0,0:0:0:0:
284,164,233972,2,0,B|296:120|252:80|212:100|212:100|168:52,1,180,4|12,0:0|0:0,0:0:0:0:
60,132,234669,6,0,L|72:224,1,90,4|4,0:0|0:0,0:0:0:0:
204,256,235134,2,0,L|288:288,1,90,4|8,0:0|0:0,0:0:0:0:
416,328,235600,2,0,L|469:255,1,90,0|4,0:0|0:0,0:0:0:0:
304,256,236065,1,0,0:0:0:0:
304,256,236181,1,0,0:0:0:0:
304,256,236297,1,12,0:0:0:0:
180,308,236530,1,0,0:0:0:0:
256,192,236646,12,0,237925,0:0:0:0:
256,192,238158,5,8,0:0:0:0:
256,192,238390,12,0,242344,0:0:0:0:
88,124,244204,6,0,L|172:84,1,90,4|0,0:0|0:0,0:0:0:0:
268,176,244669,1,12,0:0:0:0:
364,80,244902,1,0,0:0:0:0:
364,80,245367,1,0,0:0:0:0:
268,176,245600,1,12,0:0:0:0:
168,88,245832,1,0,0:0:0:0:
80,176,246065,1,4,0:0:0:0:
160,284,246297,1,0,0:0:0:0:
292,252,246530,1,12,0:0:0:0:
412,308,246762,1,0,0:0:0:0:
412,172,246995,5,4,0:0:0:0:
292,108,247227,1,0,0:0:0:0:
292,108,247344,1,0,0:0:0:0:
292,108,247460,1,12,0:0:0:0:
184,188,247693,1,0,0:0:0:0:
184,188,247809,1,0,0:0:0:0:
184,188,247925,2,0,P|124:220|112:284,1,135,4|0,0:0|0:0,0:0:0:0:
172,324,248390,1,12,0:0:0:0:
300,252,248623,2,0,P|352:176|304:116,1,180
172,60,249320,1,12,0:0:0:0:
108,188,249553,1,0,0:0:0:0:
392,132,250018,5,0,0:0:0:0:
360,272,250251,1,12,0:0:0:0:
272,156,250483,1,0,0:0:0:0:
240,288,250716,5,0,0:0:0:0:
100,140,251065,1,0,0:0:0:0:
284,52,251413,1,0,0:0:0:0:
356,164,251646,2,0,L|264:172,1,90,4|0,0:0|0:0,0:0:0:0:
156,248,252111,1,12,0:0:0:0:
144,112,252344,1,0,0:0:0:0:
144,112,252460,1,0,0:0:0:0:
144,112,252576,1,4,0:0:0:0:
156,248,252809,5,0,0:0:0:0:
276,308,253041,1,12,0:0:0:0:
396,248,253274,1,0,0:0:0:0:
404,112,253506,1,4,0:0:0:0:
396,248,253739,1,0,0:0:0:0:
396,248,253855,1,0,0:0:0:0:
396,248,253972,1,12,0:0:0:0:
288,164,254204,5,0,0:0:0:0:
288,164,254437,2,0,P|248:108|184:108,1,135,4|0,0:0|0:0,0:0:0:0:
148,48,254902,1,8,0:0:0:0:
216,176,255134,1,0,0:0:0:0:
116,280,255367,1,4,0:0:0:0:
260,304,255600,5,0,0:0:0:0:
260,304,255716,1,0,0:0:0:0:
260,304,255832,1,12,0:0:0:0:
368,208,256065,1,0,0:0:0:0:
364,164,256181,1,0,0:0:0:0:
352,120,256297,1,4,0:0:0:0:
224,76,256530,5,0,0:0:0:0:
180,88,256646,1,0,0:0:0:0:
144,116,256762,1,12,0:0:0:0:
124,156,256879,1,0,0:0:0:0:
116,200,256995,2,0,P|116:240|136:284,1,90,0|4,0:0|0:0,0:0:0:0:
264,332,257460,1,0,0:0:0:0:
224,204,257693,1,12,0:0:0:0:
268,76,257925,1,0,0:0:0:0:
400,100,258158,6,0,L|380:187,1,90,4|0,0:0|0:0,0:0:0:0:
228,48,258623,1,12,0:0:0:0:
108,184,258855,2,0,B|212:184|152:272|260:272,1,180
388,264,259553,1,8,0:0:0:0:
300,160,259786,2,0,P|280:120|280:72,2,90,0|4|0,0:0|0:0|0:0,0:0:0:0:
388,264,260483,1,12,0:0:0:0:
256,296,260716,1,0,0:0:0:0:
212,296,260832,1,0,0:0:0:0:
168,296,260948,1,4,0:0:0:0:
80,192,261181,5,0,0:0:0:0:
124,192,261297,1,0,0:0:0:0:
168,192,261413,1,12,0:0:0:0:
128,64,261646,2,0,L|220:64,1,90,0|4,0:0|0:0,0:0:0:0:
352,60,262111,1,0,0:0:0:0:
252,152,262344,2,0,P|296:168|324:200,1,90,12|0,0:0|0:0,0:0:0:0:
456,220,262809,2,0,P|444:268|412:296,1,90,4|0,0:0|0:0,0:0:0:0:
280,296,263274,2,0,P|240:276|188:280,1,90,12|0,0:0|0:0,0:0:0:0:
68,236,263739,2,0,P|56:184|60:144,1,90,4|0,0:0|0:0,0:0:0:0:
200,136,264204,5,12,0:0:0:0:
212,148,264437,1,0,0:0:0:0:
224,160,264669,1,4,0:0:0:0:
236,172,264902,1,0,0:0:0:0:
248,184,265134,1,12,0:0:0:0:
256,192,265251,12,0,266297,0:0:0:0:
256,192,266530,5,0,0:0:0:0:
