osu file format v14

[General]
AudioFilename: Kisetsu no shatta.mp3
AudioLeadIn: 0
PreviewTime: 78474
Countdown: 0
SampleSet: Soft
StackLeniency: 0.7
Mode: 0
LetterboxInBreaks: 0
WidescreenStoryboard: 0

[Editor]
DistanceSpacing: 0.5
BeatDivisor: 4
GridSize: 16
TimelineZoom: 1

[Metadata]
Title:Kisetsu no Shutter
TitleUnicode:季節のシャッター
Artist:Ray
ArtistUnicode:Ray
Creator:Knotts
Version:Insane
Source:あの夏で待ってる 特別編
Tags:僕達は高校最後の夏を過ごしながら bokutachi wa ha koukou saigo no natsu wo sugoshi nagara ova opening
BeatmapID:667993
BeatmapSetID:297581

[Difficulty]
HPDrainRate:6
CircleSize:4.3
OverallDifficulty:7
ApproachRate:8
SliderMultiplier:1.6
SliderTickRate:1

[Events]
//Background and Video events
0,0,"68747470733a2f2f646c2e64726f70626f7875736572636f6e74656e742e636f6d2f752f36343330393535332f6f73752f496d70726f76656420496d616765732f4b6e6f7474732f766563632e706e67.png",0,0
//Break Periods
//Storyboard Layer 0 (Background)
//Storyboard Layer 1 (Fail)
//Storyboard Layer 2 (Pass)
//Storyboard Layer 3 (Foreground)
//Storyboard Sound Samples

[TimingPoints]
1068,468.75,4,2,1,20,1,0
1068,-133.333333333333,4,2,1,20,0,0
13372,-133.333333333333,4,2,1,5,0,0
13489,-133.333333333333,4,2,1,20,0,0
13841,-133.333333333333,4,2,1,5,0,0
13958,-133.333333333333,4,2,1,20,0,0
14310,-133.333333333333,4,2,1,5,0,0
14427,-133.333333333333,4,2,1,20,0,0
15130,-100,4,2,2,40,0,0
16068,-100,4,2,1,50,0,0
25208,-100,4,2,1,50,0,0
29896,-133.333333333333,4,2,2,40,0,0
31068,-100,4,2,2,50,0,0
37864,-100,4,2,2,30,0,0
38099,-100,4,2,2,50,0,0
61068,-125,4,2,2,40,0,0
68568,-100,4,2,2,50,0,0
79818,-100,4,2,1,60,0,1
88958,-100,4,2,1,40,0,1
89193,-100,4,2,1,60,0,1
106068,-90.9090909090909,4,2,1,60,0,1
106771,-83.3333333333333,4,2,1,60,0,1
107943,-100,4,2,1,60,0,1
109818,-100,4,2,1,50,0,0
122943,-100,4,2,1,40,0,0
123646,-133.333333333333,4,2,1,40,0,0
124818,-100,4,2,2,50,0,0
131614,-100,4,2,2,30,0,0
131849,-100,4,2,2,50,0,0
145208,-100,4,2,2,30,0,0
145443,-100,4,2,2,50,0,0
154818,-125,4,2,2,40,0,0
162318,-100,4,2,2,50,0,0
173568,-100,4,2,1,60,0,1
199818,-90.9090909090909,4,2,1,60,0,1
200521,-83.3333333333333,4,2,1,60,0,1
201693,-100,4,2,1,60,0,1
203568,-133.333333333333,4,2,1,40,0,0
208021,-133.333333333333,4,2,1,20,0,0
208489,-133.333333333333,4,2,1,40,0,0
211771,-133.333333333333,4,2,1,20,0,0
212239,-133.333333333333,4,2,1,40,0,0
218568,-100,4,2,1,50,0,0
233568,-125,4,2,1,40,0,0
247044,-125,4,2,1,15,0,0
247161,-200,4,2,1,40,0,0
248568,-100,4,2,1,60,0,1
259818,-90.9090909090909,4,2,1,60,0,1
260521,-83.3333333333333,4,2,1,60,0,1
261693,-100,4,2,1,60,0,1
263568,-100,4,2,1,50,0,0
290052,-133.333333333333,4,2,1,50,0,0
292418,560.747663551402,4,2,1,50,1,0
292418,-133.333333333333,4,2,1,30,0,0
293239,666.666666666667,4,2,1,30,1,0
293933,666.666666666667,4,2,1,50,1,0
293933,-300,4,2,1,50,0,0
295266,-300,4,2,1,30,0,0
296599,-300,4,2,1,20,0,0
298599,-300,4,2,1,10,0,0
301266,-300,4,2,1,5,0,0

[Colours]
Combo1 : 63,99,136
Combo2 : 107,201,162
Combo3 : 165,236,224
Combo4 : 150,152,151

[HitObjects]
116,52,1068,6,0,P|112:100|113:179,1,120.000004577637,2|0,0:0|0:0,0:0:0:0:
197,154,1771,1,2,0:0:0:0:
39,206,2239,2,0,P|49:240|55:278,1,60.0000022888184,2|0,0:0|0:0,0:0:0:0:
185,235,2708,6,0,P|243:219|321:204,1,120.000004577637,2|2,0:0|0:0,0:0:0:0:
160,354,3646,2,0,P|101:337|24:323,1,120.000004577637,2|2,0:0|0:0,0:0:0:0:
279,243,4583,1,0,0:0:0:0:
216,199,4818,6,0,B|247:153|300:160|330:184|330:184|339:153|339:153|366:183|413:187,1,240.000009155274,2|0,0:0|0:0,0:0:0:0:
467,255,5989,1,0,0:0:0:0:
402,105,6224,1,0,0:0:0:0:
280,213,6458,1,2,0:0:0:0:
490,156,6927,5,2,0:0:0:0:
366,281,7396,1,2,0:0:0:0:
288,79,7864,2,0,L|307:135,1,60.0000022888184,2|0,0:0|0:0,0:0:0:0:
280,213,8216,2,0,L|277:242,2,30.0000011444092
194,158,8568,6,0,B|163:151|136:165|136:165|72:271|182:324,1,240.000009155274,2|0,0:0|0:0,0:0:0:0:
198,235,9739,1,2,0:0:0:0:
277,136,9974,1,2,0:0:0:0:
277,136,10208,6,0,P|271:72|255:0,2,120.000004577637,2|2|2,0:0|0:0|0:0,0:0:0:0:
182,151,11614,2,0,L|114:139,1,60.0000022888184,2|0,0:0|0:0,0:0:0:0:
277,136,12083,1,2,0:0:0:0:
277,136,12318,6,0,L|414:118,1,120.000004577637
238,208,13021,6,0,P|200:171|195:119,1,90.0000034332277,2|0,0:0|0:0,0:0:0:0:
217,60,13489,2,0,P|267:42|314:58,1,90.0000034332277,2|0,0:0|0:0,0:0:0:0:
351,109,13958,2,0,P|352:162|324:204,1,90.0000034332277,2|0,0:0|0:0,0:0:0:0:
269,137,14427,5,0,0:0:0:0:
266,149,14896,1,0,0:0:0:0:
263,164,15130,6,0,L|269:203,1,40
187,318,15364,2,0,L|192:278,1,40
132,206,15599,2,0,L|72:197,1,40,8|0,0:0|0:0,0:0:0:0:
193,278,15833,2,0,P|206:277|238:269,1,40
316,257,16068,6,0,P|345:285|378:308,1,80,4|0,0:0|0:0,0:0:0:0:
446,231,16536,2,0,P|415:204|382:182,1,80,8|0,0:0|0:0,0:0:0:0:
350,51,17005,1,2,0:0:0:0:
274,110,17239,1,8,0:0:0:0:
201,47,17474,1,8,0:0:0:0:
201,47,17591,1,0,0:0:0:0:
201,47,17708,1,0,0:0:0:0:
281,249,17943,5,2,0:0:0:0:
343,176,18177,1,8,0:0:0:0:
274,110,18411,1,8,0:0:0:0:
274,110,18528,1,0,0:0:0:0:
274,110,18646,1,0,0:0:0:0:
386,258,18880,2,0,P|415:226|434:170,1,80,2|8,0:0|0:0,0:0:0:0:
333,35,19349,1,8,0:0:0:0:
211,184,19583,1,8,0:0:0:0:
373,142,19818,5,2,0:0:0:0:
296,216,20052,1,0,0:0:0:0:
386,257,20286,2,0,P|428:240|478:225,1,80,8|0,0:0|0:0,0:0:0:0:
473,145,20638,1,0,0:0:0:0:
473,145,20755,2,0,P|477:105|484:65,2,80,2|8|10,0:0|0:0|0:0,0:0:0:0:
492,296,21458,1,0,0:0:0:0:
409,348,21693,5,2,0:0:0:0:
409,348,21810,1,0,0:0:0:0:
409,348,21927,1,8,0:0:0:0:
274,260,22161,1,10,0:0:0:0:
206,343,22396,2,0,L|284:359,1,80,0|2,0:0|0:0,0:0:0:0:
167,234,22864,1,8,0:0:0:0:
80,350,23099,1,8,0:0:0:0:
80,350,23568,6,0,L|55:257,2,80,4|0|8,0:0|0:0|0:0,0:0:0:0:
207,343,24271,1,4,0:0:0:0:
219,309,24739,1,8,0:0:0:0:
290,104,24974,1,4,0:0:0:0:
363,171,25208,2,0,P|369:255|379:345,1,160
285,340,25911,5,2,0:0:0:0:
462,279,26146,1,8,0:0:0:0:
369,114,26380,1,2,0:0:0:0:
367,141,26497,1,0,0:0:0:0:
363,170,26614,1,8,0:0:0:0:
360,199,26732,1,0,0:0:0:0:
356,226,26849,1,2,0:0:0:0:
353,254,26966,1,0,0:0:0:0:
349,281,27083,5,4,0:0:0:0:
256,192,27200,12,2,29193,0:0:0:0:
96,125,29896,6,0,P|84:90|69:53,2,60.0000022888184
58,279,30599,2,0,P|75:254|93:230,1,60.0000022888184
182,181,31068,6,0,L|291:182,1,80,4|0,0:0|0:0,0:0:0:0:
374,229,31536,1,8,0:0:0:0:
315,98,31771,2,0,L|327:16,1,80,0|2,0:0|0:0,0:0:0:0:
262,182,32239,1,0,0:0:0:0:
407,131,32474,1,8,0:0:0:0:
342,15,32708,6,0,P|242:50|235:131,1,160
148,130,33294,1,2,0:0:0:0:
148,130,33411,2,0,P|137:84|119:32,1,80,8|0,0:0|0:0,0:0:0:0:
54,118,33880,1,2,0:0:0:0:
88,208,34114,1,0,0:0:0:0:
20,276,34349,1,8,0:0:0:0:
54,118,34583,1,0,0:0:0:0:
196,203,34818,6,0,L|273:182,1,80,2|0,0:0|0:0,0:0:0:0:
268,356,35286,2,0,L|233:263,1,80,8|0,0:0|0:0,0:0:0:0:
275,102,35755,1,2,0:0:0:0:
275,102,35989,2,0,L|273:182,1,80,0|8,0:0|0:0,0:0:0:0:
342,251,36458,6,0,P|421:238|486:229,1,120
467,344,36927,2,0,P|431:337|401:328,1,40
346,339,37161,2,0,P|297:348|244:363,1,80,8|0,0:0|0:0,0:0:0:0:
220,229,37630,1,0,0:0:0:0:
159,303,37864,1,4,0:0:0:0:
268,355,38099,1,8,0:0:0:0:
159,303,38333,1,2,0:0:0:0:
281,158,38568,6,0,P|357:177|361:277,1,160,4|8,0:0|0:0,0:0:0:0:
296,235,39271,1,0,0:0:0:0:
394,74,39505,2,0,P|386:113|377:152,1,80,2|0,0:0|0:0,0:0:0:0:
196,156,39974,1,8,0:0:0:0:
177,252,40208,6,0,L|295:235,1,120
373,275,40677,1,0,0:0:0:0:
429,162,40911,1,8,0:0:0:0:
320,52,41146,1,0,0:0:0:0:
335,161,41380,1,0,0:0:0:0:
463,248,41614,1,2,0:0:0:0:
335,162,41849,1,8,0:0:0:0:
287,274,42083,1,2,0:0:0:0:
169,183,42318,6,0,P|151:107|123:11,1,160,4|8,0:0|0:0,0:0:0:0:
249,54,43021,2,0,P|291:45|351:37,1,80,2|0,0:0|0:0,0:0:0:0:
269,240,43489,1,0,0:0:0:0:
336,161,43724,1,8,0:0:0:0:
145,99,43958,6,0,P|89:166|122:260,1,160,2|0,0:0|0:0,0:0:0:0:
180,286,44661,1,8,0:0:0:0:
180,286,44896,1,0,0:0:0:0:
171,185,45130,1,2,0:0:0:0:
290,317,45364,1,0,0:0:0:0:
208,261,45599,1,8,0:0:0:0:
267,164,45833,1,0,1:0:0:0:
267,164,45950,1,0,1:0:0:0:
267,164,46068,6,0,P|265:118|257:64,1,80,4|0,1:0|0:0,0:0:0:0:
369,225,46536,1,8,0:0:0:0:
369,225,46771,2,0,P|375:175|390:116,1,80,0|2,0:0|0:0,0:0:0:0:
464,96,47239,1,0,0:0:0:0:
434,294,47474,1,8,0:0:0:0:
369,224,47708,1,0,0:0:0:0:
466,203,47943,5,2,0:0:0:0:
365,60,48177,2,0,L|374:164,1,80,0|8,0:0|0:0,0:0:0:0:
189,102,48646,2,0,L|268:108,1,80,0|2,0:0|0:0,0:0:0:0:
238,27,49114,1,0,0:0:0:0:
244,184,49349,1,8,0:0:0:0:
61,97,49583,1,0,0:0:0:0:
134,23,49818,6,0,P|151:97|168:202,1,160,4|8,0:0|0:0,0:0:0:0:
109,257,50521,2,0,P|63:277|35:296,1,80,0|2,0:0|0:0,0:0:0:0:
146,115,50989,1,0,0:0:0:0:
201,278,51224,1,8,0:0:0:0:
244,184,51458,6,0,L|361:158,1,120,4|0,0:0|0:0,0:0:0:0:
447,136,51927,1,0,0:0:0:0:
382,66,52161,1,8,0:0:0:0:
361,158,52396,2,0,L|388:250,1,80,0|2,0:0|0:0,0:0:0:0:
319,350,52864,2,0,P|291:345|247:338,1,40
183,272,53099,2,0,P|211:267|255:260,1,40,8|0,0:0|0:0,0:0:0:0:
275,202,53333,1,2,0:0:0:0:
275,202,53450,1,0,0:0:0:0:
275,202,53568,6,0,B|266:155|266:126|262:89,2,80,4|0|8,0:0|0:0|0:0,0:0:0:0:
174,37,54271,2,0,B|173:40|173:69|164:116,1,80,0|2,0:0|0:0,0:0:0:0:
84,161,54739,2,0,L|-2:141,1,80,0|8,0:0|0:0,0:0:0:0:
164,116,55208,6,0,P|173:174|147:226,1,120,2|0,0:0|0:0,0:0:0:0:
57,248,55677,1,0,0:0:0:0:
171,322,55911,1,8,0:0:0:0:
147,227,56146,1,0,0:0:0:0:
77,340,56380,1,2,0:0:0:0:
235,261,56614,2,0,P|279:284|324:313,1,80,0|8,0:0|0:0,0:0:0:0:
171,322,57083,1,0,0:0:0:0:
171,322,57200,1,0,0:0:0:0:
171,322,57318,5,4,0:0:0:0:
264,173,57552,2,0,P|313:164|367:159,1,80,0|8,0:0|0:0,0:0:0:0:
392,247,58021,1,0,0:0:0:0:
403,80,58255,1,2,0:0:0:0:
476,192,58489,1,0,0:0:0:0:
343,162,58724,1,8,0:0:0:0:
367,337,58958,5,4,0:0:0:0:
177,234,59427,1,8,0:0:0:0:
177,234,59661,1,8,0:0:0:0:
118,135,60599,2,0,L|122:113,7,20
115,156,61068,6,0,L|229:138,1,96,4|8,0:0|0:0,0:0:0:0:
274,191,61536,1,0,0:0:0:0:
335,59,61771,2,0,P|394:75|424:123,1,96,4|0,0:0|1:0,0:0:0:0:
394,178,62239,2,0,P|358:159|331:113,1,64,2|0,0:0|1:0,0:0:0:0:
335,59,62943,6,0,B|293:63|260:42|260:42|228:65|233:107,1,128,4|0,0:0|0:0,0:0:0:0:
278,157,63646,2,0,P|290:222|266:268,1,96,2|0,0:0|1:0,0:0:0:0:
220,207,64114,1,0,0:0:0:0:
118,279,64349,1,0,1:0:0:0:
60,205,64583,1,2,0:0:0:0:
60,205,64700,1,2,0:0:0:0:
60,205,64818,6,0,L|75:123,1,64,4|0,0:0|0:0,0:0:0:0:
101,40,65169,2,0,L|117:83,1,32,8|0,0:0|0:0,0:0:0:0:
209,96,65521,2,0,L|317:84,1,96,4|8,0:0|0:0,0:0:0:0:
392,111,65989,2,0,L|335:83,1,64,2|8,0:0|0:0,0:0:0:0:
457,50,66458,1,2,0:0:0:0:
457,50,66575,1,0,0:0:0:0:
457,50,66693,6,0,P|476:104|457:165,1,96,4|8,0:0|0:0,0:0:0:0:
391,191,67161,1,0,0:0:0:0:
354,278,67396,1,2,0:0:0:0:
464,258,67630,1,2,0:0:0:0:
464,258,67747,1,8,0:0:0:0:
464,258,67864,1,2,0:0:0:0:
295,133,68099,2,0,L|243:157,1,32,2|0,0:0|0:0,0:0:0:0:
181,220,68333,2,0,L|234:245,1,32,0|2,0:0|0:0,0:0:0:0:
261,319,68568,5,4,0:0:0:0:
132,340,68802,2,0,L|57:374,2,80,0|8|0,0:0|0:0|0:0,0:0:0:0:
168,141,69505,2,0,P|172:174|185:236,1,80,2|0,0:0|0:0,0:0:0:0:
281,209,69974,2,0,P|279:169|275:129,1,80,8|0,0:0|0:0,0:0:0:0:
366,43,70443,6,0,P|455:63|466:144,1,160,2|8,0:0|0:0,0:0:0:0:
405,197,71146,2,0,L|413:264,2,40,0|0|2,0:0|0:0|0:0,0:0:0:0:
292,111,71614,1,0,0:0:0:0:
209,158,71849,2,0,P|174:150|124:146,1,80,8|0,0:0|0:0,0:0:0:0:
249,233,72200,1,0,0:0:0:0:
249,233,72318,6,0,P|310:221|411:195,1,160,4|8,0:0|0:0,0:0:0:0:
201,313,73021,1,0,0:0:0:0:
209,158,73255,2,0,P|131:137|53:122,2,160,2|8|6,0:0|0:0|0:0,0:0:0:0:
209,158,74661,5,8,0:0:0:0:
47,230,74896,1,0,0:0:0:0:
124,108,75130,2,0,P|123:150|129:208,1,80,2|0,0:0|0:0,0:0:0:0:
291,209,75599,1,8,0:0:0:0:
209,159,75833,1,2,0:0:0:0:
143,234,76068,6,0,P|161:291|183:365,1,120,4|0,0:0|0:0,0:0:0:0:
90,345,76536,1,8,0:0:0:0:
251,294,76771,1,2,0:0:0:0:
311,365,77005,1,2,0:0:0:0:
291,209,77239,2,0,L|305:172,1,40,0|0,1:0|0:0,0:0:0:0:
256,45,77474,2,0,L|265:104,1,40,0|0,1:0|0:0,0:0:0:0:
361,99,77708,5,0,1:0:0:0:
291,210,78177,1,0,1:0:0:0:
291,210,78411,1,0,1:0:0:0:
291,210,79349,2,0,L|297:237,7,20
280,172,79818,6,0,L|200:193,1,80,4|0,0:0|0:0,0:0:0:0:
338,277,80286,1,8,0:0:0:0:
338,103,80521,2,0,L|428:120,1,80,0|2,0:0|0:0,0:0:0:0:
468,200,80989,1,0,0:0:0:0:
338,277,81224,1,8,0:0:0:0:
338,277,81341,1,0,0:0:0:0:
338,277,81458,1,0,0:0:0:0:
384,182,81693,5,2,0:0:0:0:
413,351,81927,1,0,0:0:0:0:
243,285,82161,1,8,0:0:0:0:
243,285,82278,1,0,0:0:0:0:
243,285,82396,2,0,L|164:298,1,80,0|2,0:0|0:0,0:0:0:0:
82,191,82864,2,0,L|181:175,1,80,0|8,0:0|0:0,0:0:0:0:
282,62,83333,1,0,0:0:0:0:
185,61,83568,6,0,P|170:119|161:179,1,120,2|0,0:0|0:0,0:0:0:0:
209,244,84036,1,8,0:0:0:0:
347,208,84271,2,0,P|325:174|297:145,1,80,0|2,0:0|0:0,0:0:0:0:
408,287,84739,2,0,P|447:281|486:271,1,80,0|8,0:0|0:0,0:0:0:0:
291,291,85208,2,0,P|275:327|263:366,1,80,0|2,0:0|0:0,0:0:0:0:
354,175,85677,5,0,0:0:0:0:
425,316,85911,1,8,0:0:0:0:
274,312,86146,1,0,0:0:0:0:
282,119,86380,1,2,0:0:0:0:
274,312,86614,1,0,0:0:0:0:
207,174,86849,1,8,0:0:0:0:
352,263,87083,1,0,0:0:0:0:
183,264,87318,6,0,P|101:305|102:393,1,160,4|8,0:0|0:0,0:0:0:0:
101,197,88021,2,0,P|91:159|79:121,1,80,0|2,0:0|0:0,0:0:0:0:
10,188,88489,1,0,0:0:0:0:
169,96,88724,1,8,0:0:0:0:
101,197,88958,1,4,0:0:0:0:
94,32,89193,5,2,0:0:0:0:
234,158,89427,2,0,P|279:147|348:139,1,80,0|8,0:0|0:0,0:0:0:0:
463,84,89896,2,0,P|423:77|385:67,1,80,0|2,0:0|0:0,0:0:0:0:
311,17,90364,1,0,0:0:0:0:
385,146,90599,2,0,L|371:247,1,80,8|2,0:0|0:0,0:0:0:0:
296,253,90950,1,0,0:0:0:0:
296,253,91068,6,0,L|315:381,1,120,4|0,0:0|0:0,0:0:0:0:
397,352,91536,1,8,0:0:0:0:
207,320,91771,1,2,0:0:0:0:
207,320,91888,1,0,0:0:0:0:
207,320,92005,1,0,0:0:0:0:
240,168,92239,1,2,0:0:0:0:
296,253,92474,1,0,0:0:0:0:
294,61,92708,5,8,0:0:0:0:
372,41,93177,1,8,0:0:0:0:
450,17,93646,1,8,0:0:0:0:
349,50,93880,5,8,0:0:0:0:
271,70,94114,1,8,0:0:0:0:
427,27,94349,1,8,0:0:0:0:
427,27,94466,1,8,0:0:0:0:
427,27,94583,1,8,0:0:0:0:
418,136,94818,6,0,L|305:178,1,120,4|0,0:0|0:0,0:0:0:0:
306,178,95286,2,0,P|301:235|302:270,1,80,8|0,0:0|0:0,0:0:0:0:
427,277,95755,2,0,P|431:316|431:356,1,80,2|0,0:0|0:0,0:0:0:0:
228,309,96224,1,8,0:0:0:0:
228,309,96341,1,0,0:0:0:0:
228,309,96458,1,2,0:0:0:0:
334,267,96693,5,2,0:0:0:0:
212,203,96927,1,0,0:0:0:0:
318,357,97161,1,8,0:0:0:0:
401,186,97396,2,0,L|476:142,1,80,0|2,0:0|0:0,0:0:0:0:
481,361,97864,2,0,L|407:321,1,80,0|8,0:0|0:0,0:0:0:0:
401,186,98333,1,0,0:0:0:0:
318,357,98568,6,0,P|227:351|200:285,1,160,4|8,0:0|0:0,0:0:0:0:
330,223,99271,2,0,P|298:262|282:287,1,80,0|2,0:0|0:0,0:0:0:0:
182,147,99739,2,0,P|197:183|208:222,1,80,0|8,0:0|0:0,0:0:0:0:
115,327,100208,1,4,0:0:0:0:
115,327,100325,1,0,0:0:0:0:
115,327,100443,5,2,0:0:0:0:
208,222,100677,1,0,0:0:0:0:
103,152,100911,1,8,0:0:0:0:
123,296,101146,1,0,0:0:0:0:
123,296,101263,1,0,0:0:0:0:
123,296,101380,1,2,0:0:0:0:
103,152,101614,1,0,0:0:0:0:
21,319,101849,1,8,0:0:0:0:
116,118,102083,1,0,0:0:0:0:
116,118,102200,1,0,0:0:0:0:
116,118,102318,6,0,L|101:23,2,80,4|0|8,0:0|0:0|0:0,0:0:0:0:
210,70,103021,2,0,P|265:51|296:41,1,80,0|2,0:0|0:0,0:0:0:0:
383,105,103489,2,0,P|340:123|296:137,1,80,0|8,0:0|0:0,0:0:0:0:
438,34,103958,1,0,0:0:0:0:
396,193,104193,6,0,L|416:341,1,120,2|0,0:0|0:0,0:0:0:0:
336,356,104661,1,8,0:0:0:0:
254,286,104896,2,0,L|149:309,1,80,0|2,0:0|0:0,0:0:0:0:
93,149,105364,1,0,0:0:0:0:
93,149,105482,1,0,0:0:0:0:
93,149,105599,1,8,0:0:0:0:
165,212,105833,1,0,0:0:0:0:
267,54,106068,6,0,P|335:64|363:153,1,132.00000402832,4|0,0:0|0:0,0:0:0:0:
288,134,106536,1,8,0:0:0:0:
446,103,106771,6,0,B|452:147|426:173|426:173|406:231|440:279,1,143.999995605469,4|0,0:0|0:0,0:0:0:0:
501,215,107239,1,8,0:0:0:0:
366,118,107474,1,2,0:0:0:0:
350,129,107591,1,0,1:0:0:0:
334,140,107708,1,0,1:0:0:0:
190,114,107943,6,0,L|211:289,1,160,4|0,0:0|0:0,0:0:0:0:
375,244,108646,2,0,L|266:230,1,80,2|0,0:0|0:0,0:0:0:0:
182,362,109114,1,8,0:0:0:0:
198,360,109232,1,8,0:0:0:0:
213,359,109349,1,8,0:0:0:0:
228,357,109466,1,8,0:0:0:0:
243,355,109583,1,8,0:0:0:0:
258,354,109700,1,8,0:0:0:0:
274,353,109818,6,0,P|294:311|318:248,1,80,4|0,0:0|0:0,0:0:0:0:
145,231,110286,2,0,P|179:251|214:270,1,80,8|0,0:0|0:0,0:0:0:0:
119,322,110755,1,2,0:0:0:0:
198,160,110989,2,0,L|191:69,1,80,0|8,0:0|0:0,0:0:0:0:
357,39,111458,1,0,0:0:0:0:
294,120,111693,5,2,0:0:0:0:
202,55,111927,2,0,L|131:15,2,80,0|8|0,0:0|0:0|0:0,0:0:0:0:
221,292,112630,1,2,0:0:0:0:
154,222,112864,2,0,L|231:175,1,80,0|8,0:0|0:0,0:0:0:0:
116,310,113333,2,0,L|33:288,1,80,0|2,0:0|0:0,0:0:0:0:
11,66,113802,5,0,0:0:0:0:
106,57,114036,2,0,P|97:114|83:168,1,80,8|0,0:0|0:0,0:0:0:0:
71,217,114388,1,0,0:0:0:0:
71,217,114505,1,2,0:0:0:0:
206,336,114739,1,0,0:0:0:0:
213,153,114974,1,8,0:0:0:0:
151,235,115208,6,0,L|230:250,1,80,0|2,0:0|0:0,0:0:0:0:
381,182,115677,2,0,L|276:202,1,80,0|8,0:0|0:0,0:0:0:0:
381,351,116146,2,0,L|352:251,1,80,0|2,0:0|0:0,0:0:0:0:
351,95,116614,1,0,0:0:0:0:
263,212,116849,1,8,0:0:0:0:
359,274,117083,1,0,0:0:0:0:
264,111,117318,5,2,0:0:0:0:
349,177,117552,1,0,0:0:0:0:
264,111,117786,1,8,0:0:0:0:
171,168,118021,2,0,L|182:256,1,80,2|0,0:0|0:0,0:0:0:0:
125,324,118489,1,0,0:0:0:0:
263,216,118724,1,8,0:0:0:0:
316,297,118958,1,0,0:0:0:0:
316,297,119427,5,0,0:0:0:0:
221,341,119661,1,8,0:0:0:0:
249,138,119896,2,0,P|257:177|265:233,1,80,0|2,0:0|0:0,0:0:0:0:
179,263,120364,1,8,0:0:0:0:
146,262,120482,1,8,0:0:0:0:
114,263,120599,1,8,0:0:0:0:
82,263,120716,1,8,0:0:0:0:
50,263,120833,1,10,0:0:0:0:
256,192,120950,12,0,122943,0:0:0:0:
165,103,123646,6,0,L|173:173,1,60.0000022888184
199,322,124114,2,0,L|215:259,1,60.0000022888184
103,240,124583,1,0,0:0:0:0:
260,129,124818,6,0,P|299:134|363:146,1,80,4|0,0:0|0:0,0:0:0:0:
351,283,125286,2,0,P|311:289|271:294,1,80,8|0,0:0|0:0,0:0:0:0:
201,222,125755,1,2,0:0:0:0:
126,163,125989,1,0,0:0:0:0:
72,243,126224,1,8,0:0:0:0:
149,298,126458,6,0,P|148:218|156:138,1,160
144,59,127044,1,2,0:0:0:0:
143,59,127161,2,0,P|150:98|156:138,1,80,8|0,0:0|0:0,0:0:0:0:
75,171,127630,1,2,0:0:0:0:
257,165,127864,2,0,L|245:256,1,80,0|8,0:0|0:0,0:0:0:0:
88,155,128333,1,0,0:0:0:0:
234,84,128568,6,0,P|316:106|330:199,1,160,2|8,0:0|0:0,0:0:0:0:
309,263,129271,2,0,L|343:341,1,80,0|2,0:0|0:0,0:0:0:0:
204,225,129739,2,0,L|257:165,1,80,0|8,0:0|0:0,0:0:0:0:
217,331,130208,6,0,L|97:344,1,120
45,263,130677,2,0,L|90:220,1,40
97,157,130911,2,0,P|89:110|63:68,1,80,8|0,0:0|0:0,0:0:0:0:
7,147,131380,1,0,0:0:0:0:
174,96,131614,1,4,0:0:0:0:
57,239,131849,1,8,0:0:0:0:
71,62,132083,1,2,0:0:0:0:
258,185,132318,6,0,P|252:250|189:302,1,120,4|0,0:0|0:0,0:0:0:0:
176,214,132786,1,8,0:0:0:0:
367,227,133021,1,0,0:0:0:0:
310,303,133255,1,2,0:0:0:0:
217,290,133489,2,0,P|178:275|116:257,1,80,0|8,0:0|0:0,0:0:0:0:
367,227,133958,6,0,P|455:248|459:328,1,160
454,122,134661,2,0,P|464:83|493:13,2,80,8|0|0,0:0|0:0|0:0,0:0:0:0:
501,206,135364,1,2,0:0:0:0:
460,327,135599,1,8,0:0:0:0:
501,206,135833,1,2,0:0:0:0:
363,138,136068,6,0,L|189:119,1,160,4|8,0:0|0:0,0:0:0:0:
316,34,136771,2,0,L|399:31,1,80,2|0,0:0|0:0,0:0:0:0:
473,91,137239,1,0,0:0:0:0:
380,224,137474,1,8,0:0:0:0:
475,188,137708,6,0,P|481:227|454:290,1,80,0|2,0:0|0:0,0:0:0:0:
385,311,138177,1,0,0:0:0:0:
226,324,138411,1,8,0:0:0:0:
144,285,138646,1,0,0:0:0:0:
307,362,138880,1,2,0:0:0:0:
298,191,139114,1,8,0:0:0:0:
232,306,139349,1,8,0:0:0:0:
121,160,139583,1,0,1:0:0:0:
121,160,139700,1,0,1:0:0:0:
121,160,139818,6,0,B|171:127|230:139|230:139|214:165|213:197,1,160,4|8,0:0|0:0,0:0:0:0:
376,176,140521,2,0,P|336:181|298:191,1,80,0|2,0:0|0:0,0:0:0:0:
158,276,140989,2,0,P|195:288|232:305,1,80,0|8,0:0|0:0,0:0:0:0:
333,366,141458,6,0,P|378:313|365:241,1,120
376,176,141927,2,0,L|456:147,1,80,0|8,0:0|0:0,0:0:0:0:
289,246,142396,2,0,L|190:232,1,80,2|0,0:0|0:0,0:0:0:0:
282,102,142864,1,0,0:0:0:0:
209,235,143099,1,8,0:0:0:0:
154,150,143333,1,0,0:0:0:0:
150,316,143568,6,0,P|44:333|12:277,1,160,4|8,0:0|0:0,0:0:0:0:
78,187,144271,2,0,P|85:231|90:274,1,80,0|2,0:0|0:0,0:0:0:0:
0,301,144739,1,0,0:0:0:0:
182,196,144974,2,0,P|186:156|193:116,1,80,8|4,0:0|0:0,0:0:0:0:
140,36,145443,5,0,0:0:0:0:
282,69,145677,1,0,0:0:0:0:
193,117,145911,1,8,0:0:0:0:
193,117,146146,1,0,0:0:0:0:
353,128,146380,1,2,0:0:0:0:
305,214,146614,2,0,L|312:270,1,40,0|0,1:0|0:0,0:0:0:0:
402,301,146849,2,0,L|394:340,1,40,8|0,0:0|0:0,0:0:0:0:
283,337,147083,1,2,0:0:0:0:
264,344,147200,1,0,0:0:0:0:
245,351,147318,6,0,L|219:267,2,80,4|0|8,0:0|0:0|0:0,0:0:0:0:
63,347,148021,2,0,P|104:338|167:320,1,80,0|2,0:0|0:0,0:0:0:0:
121,234,148489,2,0,P|82:245|44:258,1,80,0|8,0:0|0:0,0:0:0:0:
135,83,148958,6,0,P|195:87|234:153,1,120
281,201,149427,2,0,L|271:280,1,80,0|8,0:0|0:0,0:0:0:0:
368,84,149896,2,0,L|405:164,1,80,0|2,0:0|0:0,0:0:0:0:
231,130,150364,1,0,0:0:0:0:
296,26,150599,1,8,0:0:0:0:
368,84,150833,1,0,0:0:0:0:
159,61,151068,5,4,0:0:0:0:
159,61,151302,2,0,P|142:110|128:173,1,80,0|8,0:0|0:0,0:0:0:0:
187,218,151771,1,0,0:0:0:0:
46,180,152005,1,2,0:0:0:0:
177,239,152239,2,0,L|255:226,1,80,0|8,0:0|0:0,0:0:0:0:
133,154,152708,5,8,0:0:0:0:
408,191,153177,1,8,0:0:0:0:
408,191,153411,1,8,0:0:0:0:
378,88,154349,2,0,L|382:66,7,20
370,111,154818,6,8,L|274:84,1,96,12|8,0:0|0:0,0:0:0:0:
213,129,155286,1,0,0:0:0:0:
37,147,155521,2,0,B|31:112|31:112|54:55,1,96,4|0,0:0|1:0,0:0:0:0:
149,36,155989,2,0,L|124:118,1,64,2|0,0:0|1:0,0:0:0:0:
186,237,156458,1,0,0:0:0:0:
91,255,156693,6,0,L|103:192,1,64,4|0,0:0|0:0,0:0:0:0:
104,192,157044,1,0,1:0:0:0:
104,192,157161,1,0,0:0:0:0:
21,360,157396,2,0,P|73:348|142:343,1,96,2|0,0:0|1:0,0:0:0:0:
194,371,157864,1,0,0:0:0:0:
269,321,158099,1,0,1:0:0:0:
381,360,158333,1,0,0:0:0:0:
381,360,158450,1,0,0:0:0:0:
381,360,158568,6,0,L|418:295,1,64,4|0,0:0|0:0,0:0:0:0:
379,236,158919,1,8,0:0:0:0:
379,236,159036,2,0,L|372:153,1,64,0|4,0:0|0:0,0:0:0:0:
414,69,159622,2,0,L|405:121,1,32,0|2,0:0|0:0,0:0:0:0:
245,189,159974,1,8,0:0:0:0:
403,129,160208,1,0,0:0:0:0:
351,223,160443,6,0,P|360:260|364:285,1,64,4|0,0:0|0:0,0:0:0:0:
263,334,160794,1,0,1:0:0:0:
263,334,160911,2,0,P|268:302|276:271,1,64,0|2,0:0|0:0,0:0:0:0:
280,170,161380,1,0,0:0:0:0:
262,180,161497,1,0,0:0:0:0:
245,189,161614,2,0,L|197:176,1,32
139,239,161849,2,0,L|101:249,3,32,8|8|8|8,0:0|0:0|0:0|0:0,0:0:0:0:
178,316,162318,5,4,0:0:0:0:
107,87,162552,2,0,P|96:125|88:165,1,80,0|8,0:0|0:0,0:0:0:0:
219,109,163021,2,0,P|229:70|232:45,2,40,0|0|2,0:0|0:0|0:0,0:0:0:0:
353,89,163489,1,0,0:0:0:0:
219,109,163724,1,8,0:0:0:0:
282,10,163958,1,0,0:0:0:0:
130,178,164193,6,0,L|142:347,1,160,2|8,0:0|0:0,0:0:0:0:
38,271,164896,2,0,L|43:231,2,40,0|0|2,0:0|0:0|0:0,0:0:0:0:
230,321,165364,2,0,L|326:306,1,80,0|8,0:0|0:0,0:0:0:0:
388,199,165833,1,0,0:0:0:0:
388,199,165950,1,0,0:0:0:0:
388,199,166068,6,0,L|200:224,1,160,4|8,0:0|0:0,0:0:0:0:
148,181,166771,1,0,0:0:0:0:
67,130,167005,1,2,0:0:0:0:
12,211,167239,1,0,0:0:0:0:
96,271,167474,1,8,0:0:0:0:
245,195,167708,1,0,0:0:0:0:
168,51,167943,5,4,0:0:0:0:
150,158,168177,1,0,0:0:0:0:
266,110,168411,2,0,L|384:99,1,80,8|0,0:0|0:0,0:0:0:0:
371,274,168880,2,0,L|327:199,1,80,2|0,0:0|0:0,0:0:0:0:
199,205,169349,2,0,L|100:188,1,80,8|0,0:0|0:0,0:0:0:0:
266,110,169818,5,4,0:0:0:0:
199,205,170052,1,0,0:0:0:0:
279,345,170286,1,8,0:0:0:0:
371,274,170521,2,0,L|264:246,1,80,2|0,0:0|0:0,0:0:0:0:
188,75,170989,1,0,1:0:0:0:
191,108,171107,1,0,0:0:0:0:
193,140,171224,1,0,1:0:0:0:
196,172,171341,1,0,1:0:0:0:
199,205,171458,1,0,1:0:0:0:
123,340,171927,5,0,1:0:0:0:
123,340,172161,1,0,1:0:0:0:
127,321,173099,2,0,L|123:339,7,20
127,289,173568,6,0,P|122:240|115:195,1,80,4|0,0:0|0:0,0:0:0:0:
32,156,174036,2,0,P|25:192|20:244,1,80,8|0,0:0|0:0,0:0:0:0:
92,73,174505,1,2,0:0:0:0:
92,73,174739,2,0,P|57:52|25:28,1,80,0|8,0:0|0:0,0:0:0:0:
160,157,175208,6,0,P|197:142|236:133,1,80,0|2,0:0|0:0,0:0:0:0:
426,112,175677,1,0,0:0:0:0:
330,114,175911,1,8,0:0:0:0:
306,206,176146,2,0,L|375:269,1,80,0|2,0:0|0:0,0:0:0:0:
273,315,176614,2,0,L|215:259,1,80,0|8,0:0|0:0,0:0:0:0:
114,184,177083,1,0,0:0:0:0:
202,140,177318,6,0,P|210:200|215:260,1,120,2|0,0:0|0:0,0:0:0:0:
153,324,177786,2,0,L|53:315,1,80,8|0,0:0|0:0,0:0:0:0:
310,158,178255,1,2,0:0:0:0:
256,237,178489,2,0,P|261:270|282:335,2,80,0|8|0,0:0|0:0|0:0,0:0:0:0:
202,140,179193,5,2,0:0:0:0:
114,109,179427,1,0,0:0:0:0:
272,82,179661,1,8,0:0:0:0:
124,193,179896,1,0,0:0:0:0:
124,193,180013,1,0,0:0:0:0:
124,193,180130,1,2,0:0:0:0:
188,54,180364,1,0,0:0:0:0:
284,163,180599,1,8,0:0:0:0:
324,15,180833,1,0,0:0:0:0:
204,146,181068,6,0,P|209:194|272:247,1,120,4|0,0:0|0:0,0:0:0:0:
340,229,181536,1,8,0:0:0:0:
170,282,181771,2,0,P|157:303|135:354,1,80,0|2,0:0|0:0,0:0:0:0:
301,374,182239,2,0,L|196:344,1,80,0|8,0:0|0:0,0:0:0:0:
340,229,182708,5,4,0:0:0:0:
320,75,182943,1,2,0:0:0:0:
198,175,183177,2,0,L|293:152,1,80,0|8,0:0|0:0,0:0:0:0:
194,17,183646,2,0,P|182:52|171:109,1,80,0|2,0:0|0:0,0:0:0:0:
272,314,184114,2,0,P|264:275|251:238,1,80,0|8,0:0|0:0,0:0:0:0:
126,265,184583,2,0,L|193:238,1,40
251,238,184818,6,0,P|312:244|417:261,1,160,4|8,0:0|0:0,0:0:0:0:
401,360,185521,2,0,P|375:363|348:359,2,40,8|0|0,0:0|0:0|0:0,0:0:0:0:
180,323,185989,1,2,0:0:0:0:
262,382,186224,1,2,0:0:0:0:
252,238,186458,1,8,0:0:0:0:
247,137,186927,5,8,0:0:0:0:
164,233,187396,1,8,0:0:0:0:
335,231,187630,1,8,0:0:0:0:
244,104,187864,1,8,0:0:0:0:
368,124,188099,1,8,0:0:0:0:
377,153,188216,1,8,0:0:0:0:
374,184,188333,1,8,0:0:0:0:
360,212,188450,1,8,0:0:0:0:
335,230,188568,6,0,L|325:349,1,120,4|0,0:0|0:0,0:0:0:0:
244,358,189036,2,0,L|141:345,1,80,8|0,0:0|0:0,0:0:0:0:
246,199,189505,1,2,0:0:0:0:
335,230,189739,2,0,P|344:265|354:333,1,80,0|8,0:0|0:0,0:0:0:0:
244,357,190208,1,2,0:0:0:0:
177,278,190443,5,2,0:0:0:0:
335,230,190677,1,0,0:0:0:0:
226,104,190911,1,8,0:0:0:0:
111,211,191146,2,0,P|99:244|85:307,2,80,0|2|0,0:0|0:0|0:0,0:0:0:0:
144,109,191849,2,0,P|134:70|121:32,1,80,8|2,0:0|0:0,0:0:0:0:
236,178,192318,6,0,P|296:169|393:164,1,120,4|0,0:0|0:0,0:0:0:0:
429,203,192786,1,8,0:0:0:0:
382,79,193021,1,0,0:0:0:0:
309,140,193255,1,2,0:0:0:0:
352,224,193489,2,0,P|389:212|429:203,1,80,0|8,0:0|0:0,0:0:0:0:
421,302,193958,1,4,0:0:0:0:
421,302,194075,1,0,0:0:0:0:
421,302,194193,5,2,0:0:0:0:
265,337,194427,1,8,0:0:0:0:
352,225,194661,1,2,0:0:0:0:
214,153,194896,1,0,0:0:0:0:
214,153,195013,1,0,0:0:0:0:
214,153,195130,1,2,0:0:0:0:
172,296,195364,1,0,0:0:0:0:
263,243,195599,1,8,0:0:0:0:
122,168,195833,1,0,0:0:0:0:
122,168,195950,1,0,0:0:0:0:
122,168,196068,6,0,P|129:116|159:66,2,80,4|0|8,0:0|0:0|0:0,0:0:0:0:
172,296,196771,2,0,P|166:332|153:387,1,80,0|2,0:0|0:0,0:0:0:0:
34,290,197239,1,0,0:0:0:0:
122,169,197474,1,8,0:0:0:0:
154,258,197708,1,0,0:0:0:0:
34,138,197943,6,0,P|48:90|66:28,1,80,2|0,0:0|0:0,0:0:0:0:
247,137,198411,1,8,0:0:0:0:
273,41,198646,2,0,L|194:50,1,80,0|2,0:0|0:0,0:0:0:0:
362,89,199114,1,0,0:0:0:0:
362,89,199232,1,8,0:0:0:0:
362,89,199349,1,8,0:0:0:0:
451,40,199583,1,8,0:0:0:0:
444,258,199818,6,0,P|363:259|323:189,1,132.00000402832,4|0,0:0|0:0,0:0:0:0:
402,188,200286,1,8,0:0:0:0:
339,348,200521,6,0,B|292:340|292:340|244:353|244:353|188:346,1,143.999995605469,4|0,0:0|0:0,0:0:0:0:
232,272,200989,1,8,0:0:0:0:
120,188,201224,1,2,0:0:0:0:
124,206,201341,1,8,0:0:0:0:
127,225,201458,1,8,0:0:0:0:
295,86,201693,6,0,L|276:230,1,120,4|0,0:0|0:0,0:0:0:0:
232,272,202161,1,8,0:0:0:0:
374,186,202396,2,0,L|386:94,1,80,2|0,0:0|0:0,0:0:0:0:
189,57,202864,1,8,0:0:0:0:
190,72,202982,1,8,0:0:0:0:
191,87,203099,1,8,0:0:0:0:
193,102,203216,1,8,0:0:0:0:
194,117,203333,1,8,0:0:0:0:
195,132,203450,1,8,0:0:0:0:
197,147,203568,5,2,0:0:0:0:
320,292,204271,1,2,0:0:0:0:
360,212,204739,1,2,0:0:0:0:
189,28,205208,2,0,P|193:100|200:159,1,120.000004577637,2|2,0:0|0:0,0:0:0:0:
294,148,206146,2,0,P|300:88|303:28,1,120.000004577637,2|2,0:0|0:0,0:0:0:0:
109,216,207083,1,0,0:0:0:0:
29,162,207318,6,0,B|60:161|86:139|86:139|158:124|196:209,1,180.000006866455,0|0,1:0|0:0,0:0:0:0:
27,84,208489,2,0,P|35:56|51:10,2,60.0000022888184,0|0|2,0:0|0:0|0:0,0:0:0:0:
58,168,209427,1,2,0:0:0:0:
124,223,209896,1,2,0:0:0:0:
194,271,210364,1,2,0:0:0:0:
75,318,210599,1,0,0:0:0:0:
139,105,210833,1,0,0:0:0:0:
139,105,210950,1,0,0:0:0:0:
139,105,211068,6,0,P|229:90|196:158,1,180.000006866455,0|0,1:0|0:0,0:0:0:0:
273,226,212239,2,0,P|305:223|343:213,1,60.0000022888184
289,145,212708,1,2,0:0:0:0:
355,282,213177,1,2,0:0:0:0:
185,262,213646,1,2,0:0:0:0:
406,216,214114,2,0,P|435:276|411:344,1,120.000004577637,2|0,0:0|0:0,0:0:0:0:
323,166,214818,6,0,B|306:120|323:84|323:84|355:62,1,120.000004577637,0|0,1:0|0:0,0:0:0:0:
396,132,215521,1,2,0:0:0:0:
324,246,215989,1,2,0:0:0:0:
472,240,216458,1,2,0:0:0:0:
315,342,216927,2,0,L|205:322,1,90.0000034332277,2|0,0:0|0:0,0:0:0:0:
151,358,217396,1,2,0:0:0:0:
95,237,217630,2,0,L|80:193,3,30.0000011444092,0|2|0|2,0:0|0:0|0:0|0:0,0:0:0:0:
150,130,218099,2,0,L|174:77,3,30.0000011444092,0|2|2|0,0:0|0:0|0:0|0:0,0:0:0:0:
99,49,218568,6,0,B|129:16|168:9|168:9|217:22|248:87,1,160,4|8,0:0|0:0,0:0:0:0:
285,144,219271,1,0,0:0:0:0:
285,144,219388,1,0,0:0:0:0:
285,144,219505,2,0,P|326:140|384:126,1,80,2|0,0:0|0:0,0:0:0:0:
443,72,219974,1,8,0:0:0:0:
476,275,220208,1,0,0:0:0:0:
400,215,220443,6,0,P|339:227|236:253,1,160,2|8,0:0|0:0,0:0:0:0:
177,182,221146,1,0,0:0:0:0:
177,182,221263,1,0,0:0:0:0:
177,182,221380,1,2,0:0:0:0:
126,300,221614,1,0,0:0:0:0:
223,331,221849,1,8,0:0:0:0:
93,216,222083,1,0,0:0:0:0:
93,216,222200,1,0,0:0:0:0:
93,216,222318,6,0,L|-20:231,1,80,2|0,0:0|0:0,0:0:0:0:
137,67,222786,1,8,0:0:0:0:
64,133,223021,1,0,0:0:0:0:
64,133,223138,1,0,0:0:0:0:
64,133,223255,1,2,0:0:0:0:
151,277,223489,2,0,P|171:239|172:169,1,80,0|8,0:0|0:0,0:0:0:0:
64,133,223958,1,0,0:0:0:0:
137,68,224193,6,0,L|233:59,1,80,2|0,0:0|0:0,0:0:0:0:
306,26,224661,1,8,0:0:0:0:
281,140,224896,2,0,L|292:187,1,40
365,245,225130,2,0,L|352:295,1,40,2|0,0:0|0:0,0:0:0:0:
257,262,225364,2,0,L|177:258,1,80,4|8,0:0|0:0,0:0:0:0:
122,330,225716,2,0,L|121:376,2,40
177,258,226068,6,0,L|149:96,1,160,4|8,0:1|0:0,0:0:0:0:
241,29,226771,1,0,0:0:0:0:
241,29,226888,1,0,0:0:0:0:
241,29,227005,2,0,L|241:124,1,80,2|0,0:0|0:0,0:0:0:0:
332,256,227474,1,8,0:0:0:0:
378,177,227708,6,0,L|272:163,1,80,0|2,0:0|0:0,0:0:0:0:
435,261,228177,2,0,L|520:241,1,80,0|8,0:0|0:0,0:0:0:0:
359,139,228646,2,0,L|297:127,2,40,0|0|2,0:0|0:0|0:0,0:0:0:0:
113,258,229114,1,0,0:0:0:0:
153,341,229349,1,8,0:0:0:0:
240,295,229583,1,0,0:0:0:0:
213,253,229700,1,0,0:0:0:0:
195,205,229818,6,0,P|190:170|184:28,2,160,4|8|2,0:0|0:0|0:0,0:0:0:0:
240,295,230989,1,8,0:0:0:0:
240,295,231107,1,8,0:0:0:0:
240,295,231224,1,8,0:0:0:0:
240,295,231341,1,8,0:0:0:0:
240,295,231458,1,4,0:0:0:0:
314,188,231927,5,8,0:0:0:0:
318,358,232161,1,4,0:0:0:0:
386,239,232396,2,0,L|468:210,1,80
443,316,232864,1,2,0:0:0:0:
266,251,233099,2,0,P|238:210|271:121,1,120,2|0,0:0|0:0,0:0:0:0:
315,187,233568,6,0,L|187:200,1,128,4|0,0:1|0:0,0:0:0:0:
104,269,234271,2,0,L|24:257,1,64
130,296,234739,2,0,L|193:286,1,64
205,118,235208,6,0,P|189:145|177:175,1,64
334,175,235677,2,0,P|322:145|307:118,1,64
363,263,236146,2,0,P|390:246|415:226,1,64
265,319,236615,2,0,P|292:335|317:355,2,64
201,254,237318,6,0,P|207:180|216:103,1,128
288,62,238021,2,0,L|354:71,1,64
334,170,238489,2,0,L|401:205,1,64
205,139,238958,6,0,L|83:150,1,96
59,214,239427,2,0,P|61:245|66:280,1,64
167,273,239896,2,0,P|162:215|146:131,1,128
177,57,240599,1,0,0:0:0:0:
177,57,240833,1,0,0:0:0:0:
292,98,241068,6,0,P|324:90|369:79,1,64
446,36,241536,1,0,0:0:0:0:
355,178,241771,2,0,P|366:237|441:277,1,128
459,135,242708,6,0,L|433:194,2,64
304,303,243646,2,0,P|288:268|269:229,1,64
192,142,244114,2,0,P|178:170|164:199,1,64
100,136,244583,1,0,0:0:0:0:
262,79,244818,6,0,P|274:128|295:192,2,96
279,50,245989,1,0,0:0:0:0:
364,171,246224,1,0,0:0:0:0:
364,171,246458,6,0,B|351:237|316:273|316:273|286:208,1,160
222,212,247161,6,0,P|171:240|154:272,1,80
235,296,247864,1,0,0:0:0:0:
144,218,248099,2,0,P|113:225|78:237,1,60,2|0,0:0|0:0,0:0:0:0:
72,324,248568,6,0,P|112:317|161:299,1,80,4|0,0:0|0:0,0:0:0:0:
308,245,249036,1,8,0:0:0:0:
392,291,249271,2,0,L|379:379,1,80,0|2,0:0|0:0,0:0:0:0:
472,333,249739,1,0,0:0:0:0:
493,194,249974,1,8,0:0:0:0:
386,201,250208,1,0,0:0:0:0:
424,48,250443,5,2,0:0:0:0:
505,108,250677,1,0,0:0:0:0:
350,112,250911,1,8,0:0:0:0:
350,112,251028,1,0,0:0:0:0:
350,112,251146,2,0,P|309:106|245:100,1,80,0|2,0:0|0:0,0:0:0:0:
229,249,251614,2,0,P|268:244|308:239,1,80,0|8,0:0|0:0,0:0:0:0:
195,158,252083,1,0,0:0:0:0:
173,329,252318,6,0,P|97:347|51:287,1,160,4|8,0:0|0:0,0:0:0:0:
112,191,253021,2,0,P|124:242|125:290,1,80,0|2,0:0|0:0,0:0:0:0:
229,249,253489,2,0,P|268:236|323:224,1,80,0|8,0:0|0:0,0:0:0:0:
401,233,253958,1,4,0:0:0:0:
401,233,254075,1,0,0:0:0:0:
401,233,254193,5,2,0:0:0:0:
325,131,254427,1,8,0:0:0:0:
229,249,254661,1,8,0:0:0:0:
328,92,254896,1,0,0:0:0:0:
327,111,255013,1,0,0:0:0:0:
325,130,255130,1,2,0:0:0:0:
430,136,255364,1,0,0:0:0:0:
314,216,255599,2,0,P|318:256|330:314,1,80,8|0,0:0|0:0,0:0:0:0:
229,249,255950,1,0,0:0:0:0:
229,249,256068,6,0,P|236:209|240:169,1,80,4|0,0:0|0:0,0:0:0:0:
95,89,256536,1,8,0:0:0:0:
69,197,256771,2,0,L|168:178,1,80,0|2,0:0|0:0,0:0:0:0:
77,115,257239,1,0,0:0:0:0:
140,264,257474,1,8,0:0:0:0:
38,295,257708,1,0,0:0:0:0:
188,114,257943,6,0,P|241:143|252:234,1,120,2|0,0:0|0:0,0:0:0:0:
181,194,258411,1,8,0:0:0:0:
304,95,258646,1,0,0:0:0:0:
340,232,258880,1,2,0:0:0:0:
236,35,259114,1,0,0:0:0:0:
236,35,259232,1,8,0:0:0:0:
236,35,259349,1,8,0:0:0:0:
268,173,259583,1,8,0:0:0:0:
403,172,259818,6,0,L|376:326,1,132.00000402832,4|0,0:0|0:0,0:0:0:0:
455,347,260286,1,8,0:0:0:0:
281,290,260521,6,0,P|200:295|169:382,1,143.999995605469,4|0,0:0|0:0,0:0:0:0:
249,365,260989,1,8,0:0:0:0:
130,148,261224,1,8,0:0:0:0:
130,148,261341,1,8,0:0:0:0:
130,148,261458,1,8,0:0:0:0:
209,73,261693,6,0,P|219:142|222:239,1,160,4|8,0:0|0:0,0:0:0:0:
303,101,262396,2,0,P|326:66|358:29,1,80,0|2,0:0|0:0,0:0:0:0:
452,128,262864,1,8,0:0:0:0:
441,154,262982,1,8,0:0:0:0:
437,181,263099,1,8,0:0:0:0:
440,208,263216,1,8,0:0:0:0:
450,233,263333,1,8,0:0:0:0:
467,254,263450,1,8,0:0:0:0:
482,277,263568,6,0,L|419:339,1,80,4|0,0:0|0:0,0:0:0:0:
288,199,264036,2,0,P|312:237|334:264,1,80,8|0,0:0|0:0,0:0:0:0:
189,179,264505,2,0,P|201:141|210:102,1,80,2|0,0:0|0:0,0:0:0:0:
114,113,264974,1,8,0:0:0:0:
114,113,265091,1,0,0:0:0:0:
114,113,265208,1,0,0:0:0:0:
11,188,265443,5,2,0:0:0:0:
33,65,265677,1,0,0:0:0:0:
189,179,265911,2,0,L|285:160,1,80,8|0,0:0|0:0,0:0:0:0:
165,285,266380,2,0,L|70:277,1,80,2|0,0:0|0:0,0:0:0:0:
234,367,266849,2,0,P|268:344|308:307,1,80,8|0,0:0|0:0,0:0:0:0:
183,100,267318,6,0,P|109:166|125:221,1,160,2|8,0:0|0:0,0:0:0:0:
236,223,268021,2,0,P|252:261|264:307,1,80,0|2,0:0|0:0,0:0:0:0:
165,286,268489,1,0,0:0:0:0:
361,234,268724,1,8,0:0:0:0:
294,294,268958,1,0,0:0:0:0:
321,102,269193,5,2,0:0:0:0:
226,125,269427,1,0,0:0:0:0:
273,207,269661,1,8,0:0:0:0:
315,71,269896,1,0,0:0:0:0:
174,205,270130,2,0,L|82:184,1,80,2|0,0:0|0:0,0:0:0:0:
138,22,270599,2,0,P|144:61|146:122,1,80,8|0,0:0|0:0,0:0:0:0:
34,123,271068,6,0,B|-6:183|21:241|21:241|76:257,1,160,4|8,0:0|0:0,0:0:0:0:
96,181,271771,1,0,0:0:0:0:
91,332,272005,2,0,L|197:321,1,80,2|0,0:0|0:0,0:0:0:0:
268,312,272474,1,8,0:0:0:0:
268,312,272591,1,0,0:0:0:0:
268,312,272708,1,0,0:0:0:0:
294,180,272943,5,2,0:0:0:0:
375,230,273177,1,0,0:0:0:0:
447,173,273411,2,0,P|447:134|440:76,1,80,8|0,0:0|0:0,0:0:0:0:
343,16,273880,2,0,P|339:55|338:95,1,80,2|0,0:0|0:0,0:0:0:0:
294,180,274349,2,0,L|207:168,1,80,8|0,0:0|0:0,0:0:0:0:
91,67,274818,6,0,L|107:185,1,120,2|0,0:0|0:0,0:0:0:0:
169,257,275286,1,8,0:0:0:0:
28,229,275521,1,0,0:0:0:0:
196,135,275755,1,2,0:0:0:0:
252,221,275989,1,0,0:0:0:0:
107,186,276224,1,8,0:0:0:0:
107,186,276341,1,0,0:0:0:0:
107,186,276458,1,0,0:0:0:0:
169,257,276693,6,0,L|152:367,1,80,2|0,0:0|0:0,0:0:0:0:
74,289,277161,1,8,0:0:0:0:
252,221,277396,1,0,0:0:0:0:
252,220,277513,2,0,P|249:140|245:83,1,120,8|8,0:0|0:0,0:0:0:0:
72,25,278099,2,0,L|79:72,1,40,8|0,0:0|0:0,0:0:0:0:
164,90,278333,2,0,L|158:129,1,40,8|2,0:0|0:0,0:0:0:0:
86,190,278568,6,0,L|102:278,1,80,4|0,0:0|0:0,0:0:0:0:
299,320,279036,1,8,0:0:0:0:
222,266,279271,1,0,0:0:0:0:
165,355,279505,1,2,0:0:0:0:
226,241,279739,1,0,0:0:0:0:
321,340,279974,1,8,0:0:0:0:
412,227,280208,1,0,0:0:0:0:
337,164,280443,6,0,P|324:194|315:243,1,80,2|0,0:0|0:0,0:0:0:0:
226,161,280911,2,0,P|218:121|204:84,1,80,8|0,0:0|0:0,0:0:0:0:
322,74,281380,2,0,L|405:61,1,80,8|0,0:0|0:0,0:0:0:0:
140,142,281849,2,0,L|49:127,1,80,8|0,0:0|0:0,0:0:0:0:
114,47,282318,5,2,0:0:0:0:
209,81,282552,1,0,0:0:0:0:
79,203,282786,1,8,0:0:0:0:
140,142,283021,1,0,0:0:0:0:
203,318,283255,1,2,0:0:0:0:
223,189,283489,1,0,0:0:0:0:
153,241,283724,1,8,0:0:0:0:
282,264,283958,1,0,0:0:0:0:
345,154,284193,5,2,0:0:0:0:
345,154,284310,1,0,0:0:0:0:
345,154,284427,2,0,P|334:110|319:61,1,80,0|8,0:0|0:0,0:0:0:0:
429,85,284896,2,0,P|462:79|525:70,1,80,0|2,0:0|0:0,0:0:0:0:
445,253,285364,2,0,P|405:247|366:240,1,80,0|8,0:0|0:0,0:0:0:0:
290,306,285833,1,0,0:0:0:0:
140,245,286068,6,0,P|145:205|155:166,2,80,4|0|8,0:0|0:0|0:0,0:0:0:0:
33,85,286771,2,0,P|42:142|48:225,1,120,4|0,0:0|0:0,0:0:0:0:
0,268,287239,1,2,0:0:0:0:
206,298,287474,1,4,0:0:0:0:
48,204,287708,1,0,0:0:0:0:
48,204,288177,5,0,0:0:0:0:
179,188,288411,1,2,0:0:0:0:
119,264,288646,1,8,0:0:0:0:
105,65,288880,1,2,0:0:0:0:
105,65,288997,1,0,0:0:0:0:
105,65,289114,2,0,L|96:104,1,40,0|2,0:0|0:0,0:0:0:0:
172,149,289349,2,0,L|183:211,1,40,8|2,0:0|0:0,0:0:0:0:
107,292,289583,5,4,0:0:0:0:
98,319,290052,2,0,P|95:359|96:394,2,60.0000022888184
253,156,290755,2,0,P|252:126|250:96,2,60.0000022888184
333,215,291458,2,0,L|408:198,1,60.0000022888184
391,201,292418,6,0,L|401:255,1,30.0000011444092,2|0,0:0|0:0,0:0:0:0:
389,328,292698,6,0,L|353:368,1,30.0000011444092,2|0,0:0|0:0,0:0:0:0:
270,377,292978,6,0,L|218:362,1,30.0000011444092,2|0,0:0|0:0,0:0:0:0:
189,298,293239,6,0,P|187:250|190:223,1,40,2|0,0:0|0:0,0:0:0:0:
273,136,293572,6,0,P|232:161|207:172,1,40,2|0,0:0|0:0,0:0:0:0:
288,63,293933,6,0,B|344:49|428:204|272:248|212:194|212:194|198:161|198:161|122:158|115:82|115:82|52:132|-1:95,1,586.666666666667
