osu file format v14

[General]
AudioFilename: audio.mp3
AudioLeadIn: 0
PreviewTime: 55554
Countdown: 0
SampleSet: Soft
StackLeniency: 0.7
Mode: 0
LetterboxInBreaks: 0
WidescreenStoryboard: 0

[Editor]
Bookmarks: 1797,13722,25647,39064,56952,68877,80057,80803,89747,99995
DistanceSpacing: 0.6
BeatDivisor: 4
GridSize: 4
TimelineZoom: 2.9

[Metadata]
Title:Kimi to Ita Sora
TitleUnicode:君といた空
Artist:Ray
ArtistUnicode:Ray
Creator:Meyrink
Version:Sekai's Insane
Source:蒼の彼方のフォーリズム
Tags:a-gain Ao no Kanata no Four Rhythm Across the Blue Aokana Short Version Edit TV Size IamKwan Kibbleru Sekaii Sekai-Nyan Knotts Enjoy
BeatmapID:931795
BeatmapSetID:431733

[Difficulty]
HPDrainRate:6
CircleSize:4.3
OverallDifficulty:7
ApproachRate:8.6
SliderMultiplier:1.6
SliderTickRate:1

[Events]
//Background and Video events
0,0,"BG.jpg",0,0
//Break Periods
//Storyboard Layer 0 (Background)
//Storyboard Layer 1 (Fail)
//Storyboard Layer 2 (Pass)
//Storyboard Layer 3 (Foreground)
//Storyboard Sound Samples

[TimingPoints]
1797,372.670807453416,4,2,1,60,1,0
1797,-133.333333333333,4,2,1,60,0,0
7759,-100,4,2,1,70,0,0
13722,-111.111111111111,4,2,1,50,0,0
24157,-100,4,2,1,60,0,0
25647,-100,4,2,1,70,0,0
39064,-133.333333333333,4,2,1,60,0,0
50989,-100,4,2,1,70,0,0
55647,-83.3333333333333,4,2,1,50,0,0
56952,-100,4,2,1,80,0,1
68505,-100,4,2,1,80,0,0
68877,-100,4,2,1,80,0,1
80803,-100,4,2,1,80,0,0

[Colours]
Combo1 : 108,255,182
Combo2 : 206,157,255
Combo3 : 102,171,255
Combo4 : 255,164,119

[HitObjects]
48,324,1797,6,0,P|104:312|172:336,1,120.000004577637,2|0,0:0|0:0,0:0:0:0:
256,264,2356,1,0,0:0:0:0:
349,329,2542,2,0,P|405:312|464:324,1,120.000004577637
456,192,3101,1,0,0:0:0:0:
456,192,3287,2,0,P|408:192|344:132,1,120.000004577637,2|0,0:0|0:0,0:0:0:0:
256,80,3846,2,0,L|132:64,1,120.000004577637
44,136,4405,2,0,L|112:144,1,60.0000022888184
180,224,4778,6,0,P|168:256|92:304,1,120.000004577637,2|0,0:0|0:0,0:0:0:0:
88,212,5337,1,0,0:0:0:0:
216,328,5523,2,0,P|256:332|328:280,1,120.000004577637
332,192,6082,1,0,0:0:0:0:
332,192,6269,2,0,B|332:128|332:128|356:68,1,120.000004577637,2|0,0:0|0:0,0:0:0:0:
180,192,6828,2,0,B|180:128|180:128|156:68,1,120.000004577637
256,8,7387,2,0,L|256:76,1,60.0000022888184
332,192,7759,6,0,P|364:204|424:196,1,80,4|0,0:0|0:0,0:0:0:0:
496,148,8132,1,8,0:0:0:0:
448,276,8318,1,0,0:0:0:0:
496,148,8505,2,0,L|452:72,1,80,2|0,0:0|0:0,0:0:0:0:
332,64,8877,2,0,L|372:133,1,80,8|0,0:0|0:0,0:0:0:0:
256,140,9250,2,0,L|256:220,1,80,2|0,0:0|0:0,0:0:0:0:
180,64,9623,2,0,L|139:133,1,80,8|0,0:0|0:0,0:0:0:0:
256,220,9995,2,0,L|256:140,1,80,2|0,0:0|0:0,0:0:0:0:
152,220,10368,2,0,P|108:216|68:184,1,80,8|0,0:0|0:0,0:0:0:0:
200,312,10741,6,0,P|248:300|328:324,1,120,4|0,0:0|0:0,0:0:0:0:
352,336,11113,1,2,0:0:0:0:
396,340,11206,1,0,0:0:0:0:
436,316,11300,1,2,0:0:0:0:
456,276,11393,1,0,0:0:0:0:
444,232,11486,2,0,L|426:196,3,40,2|0|2|0,0:0|0:0|0:0|0:0,0:0:0:0:
440,64,11859,2,0,L|456:101,1,40,2|0,0:0|0:0,0:0:0:0:
336,108,12045,2,0,L|322:71,1,40,2|0,0:0|0:0,0:0:0:0:
228,32,12231,5,2,0:0:0:0:
208,40,12324,1,0,0:0:0:0:
188,44,12417,1,2,0:0:0:0:
168,52,12510,1,0,0:0:0:0:
148,60,12604,2,0,L|84:88,3,40,2|0|0|0,0:0|0:0|0:0|0:0,0:0:0:0:
108,176,12977,2,0,L|142:156,3,40,2|0|2|0,0:0|0:0|0:0|0:0,0:0:0:0:
144,276,13349,2,0,L|178:256,3,40,2|0|2|0,0:0|0:0|0:0|0:0,0:0:0:0:
192,344,13722,6,0,P|224:316|324:308,1,143.999995605469,4|2,0:0|0:0,0:0:0:0:
440,340,14281,1,0,0:0:0:0:
472,236,14467,2,0,P|480:196|472:148,1,71.9999978027344,2|0,0:0|0:0,0:0:0:0:
360,56,14840,2,0,P|357:91|365:126,1,71.9999978027344,2|0,0:0|0:0,0:0:0:0:
384,236,15213,2,0,P|332:224|232:260,1,143.999995605469,2|2,0:0|0:0,0:0:0:0:
184,336,15772,2,0,L|104:184,1,143.999995605469,2|0,0:0|0:0,0:0:0:0:
156,84,16331,2,0,L|192:164,1,71.9999978027344,2|0,0:0|0:0,0:0:0:0:
288,240,16703,5,2,0:0:0:0:
288,144,16890,1,0,0:0:0:0:
192,232,17076,1,2,0:0:0:0:
288,144,17262,1,0,0:0:0:0:
288,144,17449,2,0,B|324:144|324:144|364:120,1,71.9999978027344,2|0,0:0|0:0,0:0:0:0:
288,240,17821,2,0,B|324:240|324:240|364:264,1,71.9999978027344,2|0,0:0|0:0,0:0:0:0:
216,192,18194,2,0,L|64:192,1,143.999995605469,2|2,0:0|0:0,0:0:0:0:
248,264,18753,2,0,P|228:200|264:128,1,143.999995605469,2|0,0:0|0:0,0:0:0:0:
356,136,19312,2,0,P|344:92|320:60,1,71.9999978027344,2|0,0:0|0:0,0:0:0:0:
440,188,19685,6,0,L|392:336,1,143.999995605469,2|2,0:0|0:0,0:0:0:0:
316,232,20244,1,0,0:0:0:0:
288,348,20430,1,2,0:0:0:0:
184,240,20616,1,0,0:0:0:0:
288,348,20803,2,0,P|236:352|212:348,1,71.9999978027344,2|0,0:0|0:0,0:0:0:0:
184,240,21175,2,0,B|164:191|220:139|180:91,1,143.999995605469,2|2,0:0|0:0,0:0:0:0:
328,240,21734,2,0,B|348:191|292:139|332:91,1,143.999995605469,2|0,0:0|0:0,0:0:0:0:
256,32,22293,1,2,0:0:0:0:
392,140,22480,1,0,0:0:0:0:
392,140,22666,6,0,L|424:216,1,71.9999978027344,2|0,0:0|0:0,0:0:0:0:
380,324,23039,2,0,L|353:257,1,71.9999978027344,2|0,0:0|0:0,0:0:0:0:
256,160,23411,2,0,L|256:232,1,71.9999978027344,2|0,0:0|0:0,0:0:0:0:
132,324,23784,2,0,L|158:257,1,71.9999978027344,2|0,0:0|0:0,0:0:0:0:
132,80,24157,5,2,0:0:0:0:
132,80,24250,1,0,0:0:0:0:
132,80,24343,2,0,L|80:68,1,40,2|0,0:0|0:0,0:0:0:0:
132,180,24529,2,0,L|184:168,1,40,2|0,0:0|0:0,0:0:0:0:
264,100,24716,2,0,L|212:88,1,40,2|0,0:0|0:0,0:0:0:0:
300,184,24902,2,0,L|352:172,1,40,2|0,0:0|0:0,0:0:0:0:
396,92,25088,1,2,0:0:0:0:
412,84,25182,1,0,0:0:0:0:
428,80,25275,1,2,0:0:0:0:
444,72,25368,1,0,0:0:0:0:
460,64,25461,2,0,L|496:48,1,40,2|0,0:0|0:0,0:0:0:0:
488,148,25647,6,0,P|452:184|436:300,1,160,4|8,0:0|0:0,0:0:0:0:
312,360,26206,1,0,0:0:0:0:
320,252,26393,1,2,0:0:0:0:
412,364,26579,1,0,0:0:0:0:
320,252,26765,2,0,B|272:252|272:252|224:280,1,80,8|0,0:0|0:0,0:0:0:0:
320,132,27138,2,0,B|272:132|272:132|224:104,1,80,2|0,0:0|0:0,0:0:0:0:
320,264,27511,2,0,B|272:264|272:264|224:292,1,80,8|0,0:0|0:0,0:0:0:0:
320,120,27883,2,0,B|272:120|272:120|224:92,1,80,2|0,0:0|0:0,0:0:0:0:
84,192,28256,2,0,L|176:192,1,80,8|0,0:0|0:0,0:0:0:0:
44,272,28629,6,0,P|72:192|32:104,1,160,2|8,0:0|0:0,0:0:0:0:
112,40,29188,1,0,0:0:0:0:
112,40,29374,2,0,L|148:124,1,80,2|0,0:0|0:0,0:0:0:0:
256,12,29747,2,0,L|256:100,1,80,8|0,0:0|0:0,0:0:0:0:
400,40,30119,2,0,L|364:124,1,80,2|0,0:0|0:0,0:0:0:0:
304,232,30492,1,8,0:0:0:0:
404,208,30678,1,0,0:0:0:0:
268,144,30865,1,2,0:0:0:0:
412,216,31051,1,0,0:0:0:0:
256,136,31237,1,8,0:0:0:0:
252,272,31424,5,2,0:0:0:0:
252,272,31517,1,0,0:0:0:0:
252,272,31610,2,0,P|184:296|92:256,1,160,4|8,0:0|0:0,0:0:0:0:
24,192,32169,1,0,0:0:0:0:
104,116,32356,2,0,P|177:87|252:112,1,160,2|8,0:0|0:0,0:0:0:0:
352,192,32915,1,0,0:0:0:0:
352,191,33101,6,0,P|376:160|387:122,1,80,2|0,0:0|0:0,0:0:0:0:
248,200,33474,2,0,P|259:238|283:269,1,80,8|0,0:0|0:0,0:0:0:0:
272,104,33846,2,0,P|224:104|168:132,1,80,2|0,0:0|0:0,0:0:0:0:
72,192,34219,1,8,0:0:0:0:
96,84,34405,1,0,0:0:0:0:
176,196,34592,6,0,P|152:280|192:344,1,160,2|8,0:0|0:0,0:0:0:0:
336,196,35151,2,0,P|360:280|320:344,1,160,2|0,0:0|0:0,0:0:0:0:
256,200,35710,2,0,L|256:112,1,80,8|0,0:0|0:0,0:0:0:0:
172,36,36082,2,0,L|148:116,1,80,2|0,0:0|0:0,0:0:0:0:
340,36,36455,2,0,L|364:116,1,80,8|0,0:0|0:0,0:0:0:0:
160,36,36828,2,0,L|136:116,1,80,2|0,0:0|0:0,0:0:0:0:
352,36,37200,2,0,L|376:116,1,80,8|0,0:0|0:0,0:0:0:0:
400,232,37573,5,2,0:0:0:0:
400,232,37666,1,0,0:0:0:0:
400,232,37759,2,0,L|360:248,1,40,2|0,0:0|0:0,0:0:0:0:
316,324,37946,2,0,L|356:340,1,40,2|0,0:0|0:0,0:0:0:0:
252,248,38132,2,0,L|212:264,1,40,2|0,0:0|0:0,0:0:0:0:
156,340,38318,2,0,L|196:356,1,40,2|0,0:0|0:0,0:0:0:0:
72,284,38505,5,2,0:0:0:0:
59,268,38598,1,0,0:0:0:0:
50,250,38691,1,2,0:0:0:0:
45,231,38784,1,0,0:0:0:0:
44,211,38877,1,2,0:0:0:0:
46,191,38970,1,0,0:0:0:0:
52,172,39064,1,4,0:0:0:0:
256,48,39436,6,0,P|312:64|384:48,1,120.000004577637,2|2,0:0|0:0,0:0:0:0:
464,120,39995,1,2,0:0:0:0:
464,120,40088,1,0,0:0:0:0:
464,120,40182,1,2,0:0:0:0:
368,192,40368,2,0,L|352:324,1,120.000004577637,2|0,0:0|0:0,0:0:0:0:
252,288,40927,2,0,L|260:216,1,60.0000022888184,2|0,0:0|0:0,0:0:0:0:
256,120,41300,1,8,0:0:0:0:
256,120,41672,1,2,0:0:0:0:
256,120,42045,5,2,0:0:0:0:
256,120,42418,2,0,P|196:104|124:132,1,120.000004577637,2|2,0:0|0:0,0:0:0:0:
48,192,42977,1,2,0:0:0:0:
48,192,43070,1,0,0:0:0:0:
48,192,43163,1,2,0:0:0:0:
141,264,43349,2,0,P|198:280|256:264,1,120.000004577637,2|0,0:0|0:0,0:0:0:0:
356,328,43908,2,0,P|388:312|424:308,1,60.0000022888184,2|0,0:0|0:0,0:0:0:0:
496,248,44281,1,8,0:0:0:0:
496,248,44654,1,2,0:0:0:0:
496,248,45026,5,2,0:0:0:0:
496,248,45399,2,0,L|456:128,1,120.000004577637,2|2,0:0|0:0,0:0:0:0:
368,68,45958,1,2,0:0:0:0:
368,68,46051,1,0,0:0:0:0:
368,68,46144,1,2,0:0:0:0:
300,144,46331,2,0,B|248:156|224:120|168:132,1,120.000004577637,2|0,0:0|0:0,0:0:0:0:
96,188,46890,2,0,P|76:136|72:116,1,60.0000022888184,2|0,0:0|0:0,0:0:0:0:
192,208,47262,2,0,P|183:236|171:264,1,60.0000022888184,8|0,0:0|0:0,0:0:0:0:
92,344,47635,2,0,P|72:292|68:272,1,60.0000022888184,2|0,0:0|0:0,0:0:0:0:
224,336,48008,6,0,P|268:324|352:344,1,120.000004577637,2|2,0:0|0:0,0:0:0:0:
432,272,48567,1,0,0:0:0:0:
432,272,48753,2,0,P|440:216|416:144,1,120.000004577637,2|2,0:0|0:0,0:0:0:0:
356,56,49312,2,0,L|232:80,1,120.000004577637,2|0,0:0|0:0,0:0:0:0:
184,160,49871,2,0,L|256:152,1,60.0000022888184,2|0,0:0|0:0,0:0:0:0:
200,240,50244,2,0,L|140:246,1,60.0000022888184,2|0,0:0|0:0,0:0:0:0:
212,324,50616,2,0,L|284:316,1,60.0000022888184,2|0,0:0|0:0,0:0:0:0:
416,192,50989,6,0,P|432:232|432:288,1,80,4|0,0:0|0:0,0:0:0:0:
324,180,51362,2,0,P|348:132|380:108,1,80,8|0,0:0|0:0,0:0:0:0:
256,16,51734,2,0,L|256:104,1,80,2|0,0:0|0:0,0:0:0:0:
188,180,52107,2,0,P|164:132|132:108,1,80,8|0,0:0|0:0,0:0:0:0:
200,268,52480,2,0,B|156:268|156:268|112:292,1,80,2|0,0:0|0:0,0:0:0:0:
312,268,52852,2,0,B|356:268|356:268|400:292,1,80,8|0,0:0|0:0,0:0:0:0:
200,284,53225,2,0,B|156:284|156:284|112:308,1,80,2|0,0:0|0:0,0:0:0:0:
312,284,53598,2,0,B|356:284|356:284|400:308,1,80,8|0,0:0|0:0,0:0:0:0:
256,188,53970,6,0,L|256:104,1,80,4|0,0:0|0:0,0:0:0:0:
340,32,54343,2,0,L|372:104,1,80,8|0,0:0|0:0,0:0:0:0:
172,32,54716,2,0,L|139:104,1,80,2|0,0:0|0:0,0:0:0:0:
80,232,55088,1,8,0:0:0:0:
140,104,55275,1,2,0:0:0:0:
256,308,55647,5,2,0:0:0:0:
340,192,55834,1,2,0:0:0:0:
184,192,56020,1,2,0:0:0:0:
256,308,56206,1,2,0:0:0:0:
256,144,56393,1,2,0:0:0:0:
192,276,56579,2,0,P|132:264|96:188,1,143.999995605469,2|0,0:0|0:0,0:0:0:0:
152,132,56952,6,0,P|112:108|76:108,1,80,4|0,0:0|0:0,0:0:0:0:
228,192,57324,2,0,P|252:152|256:112,1,80,8|0,0:0|0:0,0:0:0:0:
320,16,57697,1,2,0:0:0:0:
372,112,57883,1,0,0:0:0:0:
232,44,58070,1,8,0:0:0:0:
372,112,58256,1,0,0:0:0:0:
372,112,58442,2,0,P|396:192|364:264,1,160,2|8,0:0|0:0,0:0:0:0:
139,112,59001,2,0,P|115:186|144:259,1,160,2|0,0:0|0:0,0:0:0:0:
256,144,59560,2,0,L|256:64,1,80,8|0,0:0|0:0,0:0:0:0:
328,212,59933,6,0,P|256:184|172:216,1,160,2|8,0:0|0:0,0:0:0:0:
256,292,60492,1,0,0:0:0:0:
392,256,60678,2,0,P|404:216|396:168,1,80,2|0,0:0|0:0,0:0:0:0:
256,292,61051,2,0,P|252:331|263:369,1,80,8|0,0:0|0:0,0:0:0:0:
344,296,61424,1,2,0:0:0:0:
184,260,61610,1,0,0:0:0:0:
252,172,61796,1,8,0:0:0:0:
184,260,61983,1,0,0:0:0:0:
184,260,62169,2,0,B|144:260|144:260|100:284,1,80,2|0,0:0|0:0,0:0:0:0:
184,124,62542,2,0,B|144:124|144:124|100:100,1,80,8|0,0:0|0:0,0:0:0:0:
252,192,62915,6,0,L|432:192,1,160,2|8,0:0|0:0,0:0:0:0:
396,280,63474,1,0,0:0:0:0:
392,120,63660,2,0,P|400:84|388:24,1,80,2|0,0:0|0:0,0:0:0:0:
252,192,64033,2,0,P|246:231|254:270,1,80,8|0,0:0|0:0,0:0:0:0:
304,120,64405,2,0,P|244:96|144:132,1,160,2|8,0:0|0:0,0:0:0:0:
84,240,64964,2,0,L|28:84,1,160,2|0,0:0|0:0,0:0:0:0:
155,121,65523,2,0,L|179:205,1,80,8|0,0:0|0:0,0:0:0:0:
264,324,65896,5,2,0:0:0:0:
296,204,66082,1,0,0:0:0:0:
164,288,66269,1,8,0:0:0:0:
296,204,66455,1,0,0:0:0:0:
296,204,66641,2,0,P|344:200|388:216,1,80,2|0,0:0|0:0,0:0:0:0:
232,136,67014,2,0,P|264:100|312:84,1,80,8|0,0:0|0:0,0:0:0:0:
208,232,67387,2,0,P|140:236|72:176,1,160,2|8,0:0|0:0,0:0:0:0:
112,80,67946,1,0,0:0:0:0:
184,160,68132,2,0,L|244:324,1,160,2|8,0:0|0:0,0:0:0:0:
352,192,68691,5,0,0:0:0:0:
352,192,68784,1,0,0:0:0:0:
352,192,68877,2,0,P|400:192|432:160,1,80,4|0,0:0|0:0,0:0:0:0:
468,64,69250,2,0,P|420:64|388:96,1,80,8|0,0:0|0:0,0:0:0:0:
352,212,69623,2,0,P|400:212|432:180,1,80,2|0,0:0|0:0,0:0:0:0:
308,120,69995,1,8,0:0:0:0:
276,240,70182,1,0,0:0:0:0:
308,120,70368,5,2,0:0:0:0:
184,144,70554,1,0,0:0:0:0:
352,212,70741,1,8,0:0:0:0:
184,144,70927,1,0,0:0:0:0:
184,144,71113,2,0,L|144:56,1,80,2|0,0:0|0:0,0:0:0:0:
256,4,71486,2,0,L|256:92,1,80,8|0,0:0|0:0,0:0:0:0:
328,144,71859,6,0,L|368:56,1,80,2|0,0:0|0:0,0:0:0:0:
396,192,72231,1,8,0:0:0:0:
256,84,72418,1,0,0:0:0:0:
396,192,72604,2,0,P|396:240|380:280,1,80,2|0,0:0|0:0,0:0:0:0:
268,344,72977,2,0,P|256:305|257:266,1,80,8|0,0:0|0:0,0:0:0:0:
132,192,73349,2,0,P|112:116|156:24,1,160,2|8,0:0|0:0,0:0:0:0:
380,192,73908,2,0,P|400:116|356:24,1,160,2|0,0:0|0:0,0:0:0:0:
256,100,74467,2,0,L|256:192,1,80,8|0,0:0|0:0,0:0:0:0:
192,308,74840,6,0,L|160:224,1,80,2|0,0:0|0:0,0:0:0:0:
320,308,75213,2,0,L|352:224,1,80,8|0,0:0|0:0,0:0:0:0:
396,124,75585,1,2,0:0:0:0:
456,228,75772,1,0,0:0:0:0:
304,168,75958,1,8,0:0:0:0:
472,236,76144,1,0,0:0:0:0:
292,164,76331,2,0,P|280:120|284:80,1,80,2|0,0:0|0:0,0:0:0:0:
176,120,76703,2,0,P|170:65|182:23,1,80,8|0,0:0|0:0,0:0:0:0:
120,192,77076,2,0,P|84:159|71:116,1,80,2|0,0:0|0:0,0:0:0:0:
168,268,77449,2,0,P|124:280|64:268,1,80,8|0,0:0|0:0,0:0:0:0:
252,344,77821,6,0,P|332:324|408:356,1,160,2|8,0:0|0:0,0:0:0:0:
440,248,78380,2,0,L|488:80,1,160,2|0,0:0|0:0,0:0:0:0:
400,16,78939,2,0,L|372:100,1,80,8|0,0:0|0:0,0:0:0:0:
364,116,79219,1,0,0:0:0:0:
356,140,79312,5,4,0:0:0:0:
256,260,79498,1,2,0:0:0:0:
256,260,79592,1,0,0:0:0:0:
256,260,79685,2,0,L|208:276,1,40,2|0,0:0|0:0,0:0:0:0:
378,215,79871,2,0,L|340:204,1,40,2|0,0:0|0:0,0:0:0:0:
242,140,80057,6,0,L|280:128,1,40,2|0,0:0|0:0,0:0:0:0:
302,40,80244,2,0,L|264:28,1,40,2|0,0:0|0:0,0:0:0:0:
172,84,80430,1,2,0:0:0:0:
152,72,80523,1,0,0:0:0:0:
128,64,80616,1,2,0:0:0:0:
104,68,80710,1,0,0:0:0:0:
80,76,80803,6,0,B|72:108|60:124|60:124|68:172|68:172|36:196|32:236,1,160,4|8,0:0|0:0,0:0:0:0:
184,320,81362,2,0,P|256:304|300:232,1,160,2|0,0:0|0:0,0:0:0:0:
356,128,81921,2,0,P|316:120|256:136,1,80,8|0,0:0|0:0,0:0:0:0:
432,188,82293,2,0,P|448:144|444:96,1,80,2|0,0:0|0:0,0:0:0:0:
384,264,82666,2,0,P|436:288|476:280,2,80,8|0|2,0:0|0:0|0:0,0:0:0:0:
272,176,83225,1,0,0:0:0:0:
284,312,83411,1,8,0:0:0:0:
380,192,83598,1,0,0:0:0:0:
284,312,83784,6,0,B|216:328|180:276|112:296,1,160,2|8,0:0|0:0,0:0:0:0:
36,192,84343,1,0,0:0:0:0:
127,91,84529,2,0,B|180:108|216:56|284:72,1,160,2|8,0:0|0:0,0:0:0:0:
420,36,85088,1,0,0:0:0:0:
384,152,85275,1,2,0:0:0:0:
336,20,85461,1,0,0:0:0:0:
384,152,85647,2,0,L|376:236,1,80,8|0,0:0|0:0,0:0:0:0:
256,132,86020,2,0,L|256:232,1,80,2|0,0:0|0:0,0:0:0:0:
128,152,86393,2,0,L|136:236,1,80,8|0,0:0|0:0,0:0:0:0:
24,336,86765,6,0,P|96:320|188:352,1,160,4|8,0:0|0:0,0:0:0:0:
256,256,87324,1,0,0:0:0:0:
335,344,87511,2,0,P|410:320|488:336,1,160,2|8,0:0|0:0,0:0:0:0:
456,200,88070,1,0,0:0:0:0:
456,200,88256,2,0,P|432:160|432:112,1,80,2|0,0:0|0:0,0:0:0:0:
436,28,88629,2,0,P|384:40|360:68,1,80,8|0,0:0|0:0,0:0:0:0:
316,148,89001,2,0,P|284:112|272:72,1,80,2|0,0:0|0:0,0:0:0:0:
176,24,89374,2,0,L|120:92,1,80,8|0,0:0|0:0,0:0:0:0:
144,220,89747,6,0,L|194:158,1,80,2|0,0:0|0:0,0:0:0:0:
256,244,90119,1,8,0:0:0:0:
84,144,90306,1,0,0:0:0:0:
256,244,90492,2,0,P|328:232|428:268,1,160,2|8,0:0|0:0,0:0:0:0:
264,348,91051,2,0,L|184:208,1,160,2|0,0:0|0:0,0:0:0:0:
136,304,91610,2,0,L|96:232,1,80,8|0,0:0|0:0,0:0:0:0:
216,96,91983,2,0,L|254:165,1,80,2|0,0:0|0:0,0:0:0:0:
112,292,92356,2,0,L|72:220,1,80,8|0,0:0|0:0,0:0:0:0:
104,84,92728,6,0,P|184:84|260:28,1,160,4|8,0:0|0:0,0:0:0:0:
388,32,93287,1,0,0:0:0:0:
388,32,93474,2,0,P|408:100|380:184,1,160,2|8,0:0|0:0,0:0:0:0:
308,284,94033,1,0,0:0:0:0:
456,260,94219,1,2,0:0:0:0:
308,284,94405,1,0,0:0:0:0:
381,182,94592,1,8,0:0:0:0:
400,344,94778,1,0,0:0:0:0:
400,344,94964,2,0,B|356:344|356:344|312:364,1,80,2|0,0:0|0:0,0:0:0:0:
112,344,95337,2,0,B|156:344|156:344|200:364,1,80,8|0,0:0|0:0,0:0:0:0:
256,156,95710,6,0,L|256:320,1,160,2|8,0:0|0:0,0:0:0:0:
176,124,96269,2,0,P|256:148|344:100,1,160,2|0,0:0|0:0,0:0:0:0:
200,48,96828,2,0,P|156:48|108:72,1,80,8|0,0:0|0:0,0:0:0:0:
44,204,97200,2,0,L|-8:120,1,80,2|0,0:0|0:0,0:0:0:0:
132,148,97573,2,0,L|174:216,1,80,8|0,0:0|0:0,0:0:0:0:
128,352,97946,2,0,L|76:268,1,80,2|0,0:0|0:0,0:0:0:0:
224,284,98318,2,0,P|256:248|264:204,1,80,8|0,0:0|0:0,0:0:0:0:
336,112,98691,6,0,L|336:72,2,40,2|0|2,0:0|0:0|0:0,0:0:0:0:
404,200,99064,1,2,0:0:0:0:
244,144,99250,2,0,L|244:96,2,40,2|0|2,0:0|0:0|0:0,0:0:0:0:
204,288,99623,1,0,0:0:0:0:
140,168,99809,1,2,0:0:0:0:
320,216,99995,1,4,0:0:0:0:
