osu file format v14

[General]
AudioFilename: audio.mp3
AudioLeadIn: 0
PreviewTime: 55554
Countdown: 0
SampleSet: Soft
StackLeniency: 0.7
Mode: 0
LetterboxInBreaks: 0
WidescreenStoryboard: 0

[Editor]
Bookmarks: 1797,13722,25647,39064,56952,68877,80803,99995
DistanceSpacing: 1.1
BeatDivisor: 4
GridSize: 4
TimelineZoom: 2.9

[Metadata]
Title:Kimi to Ita Sora
TitleUnicode:君といた空
Artist:Ray
ArtistUnicode:Ray
Creator:Meyrink
Version:Kibbleru's Hard
Source:蒼の彼方のフォーリズム
Tags:a-gain Ao no Kanata no Four Rhythm Across the Blue Aokana Short Version Edit TV Size IamKwan Kibbleru Sekaii Sekai-Nyan Knotts Enjoy
BeatmapID:931794
BeatmapSetID:431733

[Difficulty]
HPDrainRate:6
CircleSize:4
OverallDifficulty:6
ApproachRate:8
SliderMultiplier:1.55
SliderTickRate:1

[Events]
//Background and Video events
0,0,"BG.jpg",0,0
//Break Periods
//Storyboard Layer 0 (Background)
//Storyboard Layer 1 (Fail)
//Storyboard Layer 2 (Pass)
//Storyboard Layer 3 (Foreground)
//Storyboard Sound Samples

[TimingPoints]
1797,372.670807453416,4,2,1,60,1,0
1797,-133.333333333333,4,2,1,60,0,0
7759,-100,4,2,1,70,0,0
13722,-111.111111111111,4,2,1,50,0,0
24157,-100,4,2,1,60,0,0
25647,-100,4,2,1,70,0,0
39064,-133.333333333333,4,2,1,60,0,0
50989,-100,4,2,1,70,0,0
55647,-83.3333333333333,4,2,1,50,0,0
56952,-100,4,2,1,80,0,1
68505,-100,4,2,1,80,0,0
68877,-100,4,2,1,80,0,1
80803,-100,4,2,1,80,0,0

[Colours]
Combo1 : 108,255,182
Combo2 : 206,157,255
Combo3 : 102,171,255
Combo4 : 255,164,119

[HitObjects]
108,96,1797,6,0,L|232:80,1,116.250004434586,6|2,0:0|0:0,0:0:0:0:
300,52,2356,1,0,0:0:0:0:
356,104,2542,2,0,P|340:147|336:240,1,116.250004434586,0|2,0:0|0:0,0:0:0:0:
396,268,3101,1,0,0:0:0:0:
356,336,3287,6,0,P|312:372|248:372,1,116.250004434586,4|0,0:0|0:0,0:0:0:0:
192,324,3846,2,0,B|164:240|224:240|194:153,1,174.375006651879,2|2,0:0|0:0,0:0:0:0:
188,136,4778,6,0,P|238:158|304:144,1,116.250004434586,4|2,0:0|0:0,0:0:0:0:
368,108,5337,1,0,0:0:0:0:
392,32,5523,2,0,L|412:146,1,116.250004434586,0|2,0:0|0:0,0:0:0:0:
452,312,6269,6,0,P|401:289|336:300,1,116.250004434586,4|0,0:0|0:0,0:0:0:0:
264,276,6828,2,0,P|217:305|144:292,2,116.250004434586,2|2|2,0:0|0:0|0:0,0:0:0:0:
272,192,7759,6,0,L|288:112,1,77.5,4|0,0:0|0:0,0:0:0:0:
228,52,8132,2,0,P|190:52|148:64,1,77.5,8|0,0:0|0:0,0:0:0:0:
112,136,8505,2,0,P|74:130|36:112,1,77.5,2|0,0:0|0:0,0:0:0:0:
32,200,8877,2,0,P|19:234|16:280,1,77.5,8|2,0:0|0:0,0:0:0:0:
80,332,9250,5,0,0:0:0:0:
80,332,9436,1,2,0:0:0:0:
152,288,9623,2,0,L|244:280,1,77.5,8|0,0:0|0:0,0:0:0:0:
248,200,9995,1,2,0:0:0:0:
248,200,10182,1,0,0:0:0:0:
176,152,10368,2,0,L|88:140,1,77.5,8|0,0:0|0:0,0:0:0:0:
240,64,10741,6,0,L|248:112,2,38.75,4|0|2,0:0|0:0|0:0,0:0:0:0:
324,144,11113,2,0,L|332:104,2,38.75,4|0|2,0:3|0:0|0:0,0:0:0:0:
400,48,11486,2,0,L|408:88,2,38.75,4|0|2,0:3|0:0|0:0,0:0:0:0:
488,156,11859,2,0,L|496:116,2,38.75,8|0|2,0:0|0:0|0:0,0:0:0:0:
416,224,12231,6,0,L|424:272,3,38.75,8|0|2|0,0:0|0:0|0:0|0:0,0:0:0:0:
420,280,12604,2,0,P|401:284|376:288,3,38.75,8|2|2|2,0:0|0:0|0:0|0:0,0:0:0:0:
364,280,12977,2,0,P|345:275|324:272,3,38.75,8|2|2|2,0:0|0:0|0:0|0:0,0:0:0:0:
308,280,13349,2,0,L|244:284,3,38.75,8|2|8|2,0:0|0:0|0:0|0:0,0:0:0:0:
236,268,13722,6,0,L|164:260,1,69.749997871399,4|0,0:0|0:0,0:0:0:0:
104,216,14095,1,4,0:3:0:0:
100,140,14281,1,0,0:0:0:0:
156,88,14467,2,0,P|189:83|228:76,1,69.749997871399,4|0,0:3|0:0,0:0:0:0:
304,72,14840,2,0,P|295:104|288:144,1,69.749997871399,2|0,0:0|0:0,0:0:0:0:
340,200,15213,6,0,P|405:211|476:176,1,139.499995742798,2|4,0:0|0:3,0:0:0:0:
492,108,15772,2,0,P|503:174|512:252,1,139.499995742798,2|0,0:0|0:0,0:0:0:0:
468,308,16331,2,0,P|434:304|396:296,1,69.749997871399,2|0,0:0|0:0,0:0:0:0:
356,236,16703,5,2,0:0:0:0:
356,236,16890,1,0,0:0:0:0:
296,279,17076,2,0,P|286:313|280:347,1,69.749997871399,0|0,0:0|0:0,0:0:0:0:
204,360,17449,2,0,P|198:325|188:292,1,69.749997871399,2|0,0:0|0:0,0:0:0:0:
136,236,17821,2,0,P|103:228|64:228,1,69.749997871399,2|0,0:0|0:0,0:0:0:0:
56,96,18194,6,0,P|112:132|188:112,1,139.499995742798,2|0,0:0|0:0,0:0:0:0:
232,60,18753,2,0,P|292:33|360:52,1,139.499995742798,0|0,0:0|0:0,0:0:0:0:
400,120,19312,2,0,P|391:152|384:192,1,69.749997871399,2|0,0:0|0:0,0:0:0:0:
416,256,19685,6,0,L|332:268,1,69.749997871399,2|0,0:0|0:0,0:0:0:0:
296,208,20057,1,0,0:0:0:0:
220,208,20244,1,0,0:0:0:0:
168,264,20430,2,0,P|173:297|180:336,1,69.749997871399,0|0,0:0|0:0,0:0:0:0:
96,216,20803,2,0,P|100:182|108:144,1,69.749997871399,2|0,0:0|0:0,0:0:0:0:
148,80,21175,6,0,P|206:48|276:56,1,139.499995742798,2|0,0:0|0:0,0:0:0:0:
316,124,21734,2,0,P|290:186|292:264,1,139.499995742798,2|0,0:0|0:0,0:0:0:0:
348,308,22293,2,0,P|381:304|420:296,1,69.749997871399,2|0,0:0|0:0,0:0:0:0:
264,256,22666,6,0,P|204:240|120:240,1,139.499995742798,2|0,0:0|0:0,0:0:0:0:
88,308,23225,2,0,L|72:160,1,139.499995742798,2|0,0:0|0:0,0:0:0:0:
108,100,23784,1,2,0:0:0:0:
184,68,23970,1,0,0:0:0:0:
184,68,24064,1,0,0:0:0:0:
184,68,24157,6,0,L|224:80,3,38.75,4|8|4|8,0:3|0:0|0:3|0:0,0:0:0:0:
236,92,24529,2,0,L|296:80,3,38.75,4|8|4|8,0:3|0:0|0:3|0:0,0:0:0:0:
292,72,24902,2,0,P|311:75|337:73,3,38.75,4|8|8|8,0:3|0:0|0:0|0:0,0:0:0:0:
348,84,25275,2,0,P|367:80|401:80,3,38.75,8|0|8|0,0:0|0:0|0:0|0:0,0:0:0:0:
416,96,25647,6,0,P|444:144|420:252,1,155,4|8,0:0|0:0,0:0:0:0:
364,288,26206,1,0,0:0:0:0:
292,240,26393,2,0,L|217:217,1,77.5,4|0,0:3|0:0,0:0:0:0:
144,259,26765,2,0,P|130:296|128:334,1,77.5,8|0,0:0|0:0,0:0:0:0:
32,252,27138,6,0,P|56:192|36:92,1,155,2|8,0:0|0:0,0:0:0:0:
100,40,27697,2,0,L|251:72,1,155,2|2,0:0|0:0,0:0:0:0:
327,111,28256,2,0,P|366:106|399:87,1,77.5,8|2,0:0|0:0,0:0:0:0:
484,155,28629,6,0,P|436:215|442:293,1,155,4|8,0:3|0:0,0:0:0:0:
388,356,29188,1,0,0:0:0:0:
327,295,29374,2,0,P|291:283|253:285,1,77.5,0|2,0:0|0:0,0:0:0:0:
168,304,29747,2,0,P|151:338|147:377,1,77.5,8|2,0:0|0:0,0:0:0:0:
52,304,30119,6,0,P|67:229|35:159,1,155,2|8,0:0|0:0,0:0:0:0:
92,96,30678,2,0,P|160:62|241:76,1,155,0|0,0:0|0:0,0:0:0:0:
288,143,31237,2,0,P|275:180|271:218,1,77.5,8|0,0:0|0:0,0:0:0:0:
344,268,31610,5,4,0:0:0:0:
344,268,31796,1,0,0:0:0:0:
416,224,31983,2,0,L|512:212,1,77.5,8|0,0:0|0:0,0:0:0:0:
480,300,32356,2,0,P|497:338|498:374,1,77.5,2|0,0:0|0:0,0:0:0:0:
412,356,32728,2,0,L|324:344,1,77.5,8|2,0:0|0:0,0:0:0:0:
260,304,33101,6,0,P|240:252|252:144,1,155,2|8,0:0|0:0,0:0:0:0:
300,88,33660,2,0,P|248:124|148:120,1,155,2|2,0:0|0:0,0:0:0:0:
104,60,34219,2,0,L|20:44,1,77.5,8|0,0:0|0:0,0:0:0:0:
39,128,34592,6,0,P|8:197|20:272,1,155,2|8,0:0|0:0,0:0:0:0:
92,320,35151,1,2,0:0:0:0:
92,320,35337,2,0,P|176:320|236:273,1,155,2|8,0:0|0:0,0:0:0:0:
276,208,35896,1,0,0:0:0:0:
348,252,36082,5,2,0:0:0:0:
332,336,36269,1,0,0:0:0:0:
408,376,36455,1,8,0:0:0:0:
432,296,36641,1,2,0:0:0:0:
340,232,36828,2,0,L|264:248,1,77.5,0|0,0:0|0:0,0:0:0:0:
188,208,37200,1,8,0:0:0:0:
60,92,37573,6,0,L|120:80,3,38.75,4|0|2|0,0:3|0:0|0:0|0:0,0:0:0:0:
112,96,37946,2,0,L|150:100,3,38.75,8|0|2|0,0:0|0:0|0:0|0:0,0:0:0:0:
168,88,38318,2,0,L|228:76,3,38.75,4|0|2|0,0:3|0:0|0:0|0:0,0:0:0:0:
220,92,38691,2,0,L|276:104,3,38.75,8|0|2|0,0:0|0:0|0:0|0:0,0:0:0:0:
284,88,39064,1,4,0:3:0:0:
428,183,39436,6,0,P|407:238|405:295,1,116.250004434586,4|8,0:0|0:0,0:0:0:0:
452,364,39995,2,0,P|423:371|395:377,1,58.1250022172929,2|2,0:0|0:0,0:0:0:0:
283,303,40368,6,0,P|229:285|171:279,1,116.250004434586,4|0,0:0|0:0,0:0:0:0:
107,227,40927,2,0,P|99:200|95:171,1,58.1250022172929,4|0,0:3|0:0,0:0:0:0:
216,96,41300,2,0,P|196:117|173:134,1,58.1250022172929,8|0,0:0|0:0,0:0:0:0:
40,72,41672,2,0,P|68:78|95:89,1,58.1250022172929,4|0,0:3|0:0,0:0:0:0:
144,160,42045,1,4,0:3:0:0:
324,228,42418,6,0,L|332:112,1,116.250004434586,4|8,0:0|0:0,0:0:0:0:
396,60,42977,2,0,L|460:52,1,58.1250022172929,2|2,0:0|0:0,0:0:0:0:
497,152,43349,6,0,P|451:190|390:185,1,116.250004434586,4|0,0:0|0:0,0:0:0:0:
324,228,43908,1,2,0:0:0:0:
344,308,44095,1,0,0:0:0:0:
264,316,44281,2,0,P|215:285|157:284,2,116.250004434586,8|2|0,0:0|0:0|0:0,0:0:0:0:
224,116,45399,6,0,L|167:130,1,58.1250022172929,4|0,0:0|0:0,0:0:0:0:
264,40,45772,1,8,0:0:0:0:
332,84,45958,1,2,0:0:0:0:
332,84,46051,1,0,0:0:0:0:
332,84,46144,1,2,0:0:0:0:
324,163,46331,6,0,P|307:219|302:277,1,116.250004434586,4|0,0:0|0:0,0:0:0:0:
368,324,46890,2,0,L|424:309,1,58.1250022172929,4|4,0:3|0:3,0:0:0:0:
288,288,47262,2,0,P|237:260|173:257,1,116.250004434586,8|2,0:0|0:0,0:0:0:0:
24,292,48008,6,0,L|36:160,2,116.250004434586,4|0|8,0:0|0:0|0:0,0:0:0:0:
120,120,49126,1,2,0:0:0:0:
192,176,49312,2,0,P|260:176|312:148,1,116.250004434586,4|0,0:0|0:0,0:0:0:0:
400,183,49871,2,0,P|370:233|362:290,1,116.250004434586,2|8,0:0|0:0,0:0:0:0:
484,368,50616,2,0,L|426:360,1,58.1250022172929,2|2,0:0|0:0,0:0:0:0:
263,312,50989,6,0,P|302:310|340:296,1,77.5,4|0,0:0|0:0,0:0:0:0:
364,216,51362,1,8,0:0:0:0:
332,136,51548,2,0,P|323:98|317:60,1,77.5,2|0,0:0|0:0,0:0:0:0:
228,8,51921,2,0,P|221:46|213:83,1,77.5,2|8,0:0|0:0,0:0:0:0:
140,128,52293,6,0,P|92:168|88:268,1,155,2|0,0:0|0:0,0:0:0:0:
151,308,52852,2,0,P|187:296|226:291,1,77.5,8|2,0:0|0:0,0:0:0:0:
324,208,53225,2,0,P|285:203|248:191,1,77.5,0|0,0:0|0:0,0:0:0:0:
380,72,53598,2,0,P|395:107|403:145,1,77.5,8|0,0:0|0:0,0:0:0:0:
323,208,53970,6,0,P|285:273|298:348,1,155,4|0,0:0|0:0,0:0:0:0:
416,340,54529,2,0,L|496:324,1,77.5,8|0,0:0|0:0,0:0:0:0:
412,248,54902,1,0,0:0:0:0:
304,360,55088,1,8,0:0:0:0:
180,312,55275,1,4,0:0:0:0:
96,100,56765,5,0,0:0:0:0:
96,100,56859,1,0,0:0:0:0:
96,100,56952,6,0,L|249:81,1,155,4|8,0:0|0:0,0:0:0:0:
340,52,57511,1,0,0:0:0:0:
400,124,57697,2,0,P|355:193|364:284,1,155,2|8,0:0|0:0,0:0:0:0:
424,328,58256,1,0,0:0:0:0:
424,328,58349,1,0,0:0:0:0:
424,328,58442,6,0,P|356:292|277:302,1,155,2|8,0:0|0:0,0:0:0:0:
192,276,59001,2,0,P|120:308|32:288,1,155,2|2,0:0|0:0,0:0:0:0:
12,144,59560,2,0,L|1:220,1,77.5,8|2,0:0|0:0,0:0:0:0:
136,188,59933,6,0,P|156:132|108:24,1,155,4|8,0:0|0:0,0:0:0:0:
216,12,60492,1,0,0:0:0:0:
276,80,60678,2,0,P|352:68|429:57,1,155,0|8,0:0|0:0,0:0:0:0:
492,128,61237,1,0,0:0:0:0:
492,128,61331,1,0,0:0:0:0:
492,128,61424,6,0,P|508:201|468:265,1,155,2|8,0:0|0:0,0:0:0:0:
364,320,61983,2,0,B|340:240|392:240|364:167,1,155
204,192,62542,2,0,L|280:206,1,77.5,8|0,0:0|0:0,0:0:0:0:
160,108,62915,5,4,0:0:0:0:
108,184,63101,1,2,0:0:0:0:
204,192,63287,1,8,0:0:0:0:
148,84,63474,2,0,L|68:72,1,77.5,2|0,0:0|0:0,0:0:0:0:
240,48,63846,1,2,0:0:0:0:
280,128,64033,2,0,L|360:116,1,77.5,8|2,0:0|0:0,0:0:0:0:
440,80,64405,6,0,P|468:140|464:236,1,155,0|8,0:0|0:0,0:0:0:0:
504,312,64964,2,0,P|442:268|364:266,1,155,0|2,0:0|0:0,0:0:0:0:
280,324,65523,1,8,0:0:0:0:
360,360,65710,1,2,0:0:0:0:
272,232,65896,6,0,P|195:221|118:212,1,155,4|8,0:0|0:0,0:0:0:0:
36,44,66641,2,0,P|112:33|189:24,1,155,2|8,0:0|0:0,0:0:0:0:
280,56,67200,1,2,0:0:0:0:
280,56,67293,1,0,0:0:0:0:
280,55,67387,6,0,P|277:101|267:130,1,77.5,4|0,0:0|0:0,0:0:0:0:
340,188,67759,2,0,P|377:173|415:173,1,77.5,8|0,0:0|0:0,0:0:0:0:
484,236,68132,1,0,0:0:0:0:
484,236,68318,1,2,0:0:0:0:
408,288,68505,2,0,L|403:326,3,38.75,8|0|4|8,0:0|0:0|0:3|0:0,0:0:0:0:
416,348,68877,6,0,B|340:372|340:324|263:347,1,155,4|8,0:0|0:0,0:0:0:0:
176,376,69436,1,0,0:0:0:0:
132,292,69623,2,0,P|176:230|169:155,1,155,2|8,0:0|0:0,0:0:0:0:
104,88,70182,1,0,0:0:0:0:
176,32,70368,6,0,L|330:18,1,155,2|8,0:0|0:0,0:0:0:0:
408,72,70927,1,2,0:0:0:0:
408,72,71020,1,0,0:0:0:0:
408,71,71113,2,0,P|400:109|386:146,1,77.5,0|2,0:0|0:0,0:0:0:0:
288,204,71486,2,0,P|280:166|266:129,1,77.5,8|2,0:0|0:0,0:0:0:0:
196,244,71859,6,0,P|249:299|324:299,1,155,4|8,0:0|0:0,0:0:0:0:
392,232,72418,1,2,0:0:0:0:
372,140,72604,2,0,L|218:121,1,155,0|8,0:0|0:0,0:0:0:0:
140,68,73163,1,0,0:0:0:0:
68,124,73349,6,0,P|22:185|28:260,1,155,4|8,0:0|0:0,0:0:0:0:
107,312,73908,2,0,P|177:280|253:289,1,155,0|2,0:0|0:0,0:0:0:0:
332,240,74467,2,0,L|424:256,1,77.5,8|2,0:0|0:0,0:0:0:0:
488,204,74840,6,0,B|468:124|516:124|489:52,1,155,4|8,0:0|0:0,0:0:0:0:
252,120,75585,2,0,B|278:191|230:191|250:271,1,155,0|8,0:0|0:0,0:0:0:0:
332,320,76144,1,2,0:0:0:0:
252,368,76331,6,0,L|160:352,1,77.5,4|0,0:3|0:0,0:0:0:0:
100,304,76703,2,0,P|87:267|90:228,1,77.5,8|0,0:0|0:0,0:0:0:0:
156,163,77076,2,0,P|194:164|235:186,1,77.5,2|0,0:0|0:0,0:0:0:0:
320,164,77449,2,0,L|395:146,1,77.5,8|0,0:0|0:0,0:0:0:0:
452,72,77821,6,0,P|440:148|430:225,1,155,2|8,0:0|0:0,0:0:0:0:
476,308,78380,1,0,0:0:0:0:
392,344,78567,2,0,P|328:360|252:312,1,155,2|8,0:0|0:0,0:0:0:0:
204,240,79126,1,0,0:0:0:0:
204,240,79219,1,0,0:0:0:0:
204,240,79312,6,0,P|208:219|211:201,3,38.75,0|0|2|0,0:0|0:0|0:0|0:0,0:0:0:0:
224,188,79685,2,0,P|220:168|216:149,3,38.75,8|0|2|0,0:0|0:0|0:0|0:0,0:0:0:0:
208,132,80057,2,0,P|211:112|215:93,3,38.75,4|0|2|0,0:3|0:0|0:0|0:0,0:0:0:0:
232,88,80430,2,0,P|228:68|224:49,3,38.75,8|0|2|0,0:0|0:0|0:0|0:0,0:0:0:0:
216,20,80803,6,0,P|281:58|357:49,1,155,4|8,0:0|0:0,0:0:0:0:
436,88,81362,2,0,P|422:164|410:240,1,155,0|2,0:0|0:0,0:0:0:0:
464,308,81921,2,0,P|427:320|389:330,1,77.5,8|2,0:0|0:0,0:0:0:0:
336,272,82293,5,0,0:0:0:0:
248,252,82480,1,2,0:0:0:0:
175,296,82666,2,0,P|164:333|164:372,1,77.5,8|2,0:0|0:0,0:0:0:0:
336,272,83039,2,0,P|309:243|275:224,1,77.5,4|2,0:3|0:0,0:0:0:0:
204,184,83411,2,0,P|165:189|127:194,1,77.5,8|2,0:0|0:0,0:0:0:0:
76,92,83784,6,0,L|114:97|152:102,1,77.5,4|0,0:0|0:0,0:0:0:0:
228,60,84157,2,0,P|284:36|380:56,1,155,8|0,0:0|0:0,0:0:0:0:
428,119,84716,2,0,L|417:196,1,77.5,2|8,0:0|0:0,0:0:0:0:
392,276,85088,1,2,0:0:0:0:
316,236,85275,6,0,L|162:256,1,155,2|8,0:0|0:0,0:0:0:0:
104,319,85834,2,0,P|132:248|116:174,1,155,2|0,0:0|0:0,0:0:0:0:
72,104,86393,2,0,P|104:83|139:65,1,77.5,8|0,0:0|0:0,0:0:0:0:
224,84,86765,6,0,P|278:115|384:96,1,155,4|8,0:0|0:0,0:0:0:0:
452,108,87324,1,2,0:0:0:0:
476,188,87511,2,0,P|489:224|494:273,1,77.5,0|2,0:0|0:0,0:0:0:0:
435,319,87883,2,0,P|399:307|360:303,1,77.5,8|2,0:0|0:0,0:0:0:0:
276,320,88256,6,0,P|234:255|240:180,1,155,0|8,0:0|0:0,0:0:0:0:
276,100,88815,1,2,0:0:0:0:
276,100,88908,1,0,0:0:0:0:
276,100,89001,2,0,L|199:86,1,77.5,0|2,0:0|0:0,0:0:0:0:
132,140,89374,2,0,P|142:177|150:215,1,77.5,8|0,0:0|0:0,0:0:0:0:
112,292,89747,5,4,0:0:0:0:
172,352,89933,1,0,0:0:0:0:
252,320,90119,2,0,P|286:308|327:309,1,77.5,8|0,0:0|0:0,0:0:0:0:
404,348,90492,2,0,P|456:316|476:208,1,155,0|8,0:0|0:0,0:0:0:0:
424,164,91051,1,0,0:0:0:0:
364,104,91237,6,0,L|356:26,1,77.5,0|2,0:0|0:0,0:0:0:0:
256,56,91610,2,0,L|248:133,1,77.5,8|2,0:0|0:0,0:0:0:0:
216,212,91983,1,0,0:0:0:0:
132,224,92169,2,0,P|96:209|57:209,1,77.5,2|8,0:0|0:0,0:0:0:0:
12,280,92542,1,2,0:0:0:0:
52,356,92728,6,0,P|125:372|191:333,1,155,4|8,0:0|0:0,0:0:0:0:
260,284,93287,1,2,0:0:0:0:
260,284,93474,2,0,L|344:272,1,77.5,0|2,0:0|0:0,0:0:0:0:
416,304,93846,2,0,P|400:348|400:384,1,77.5,8|2,0:0|0:0,0:0:0:0:
499,264,94219,6,0,P|508:188|465:126,1,155,4|8,0:3|0:0,0:0:0:0:
392,84,94778,1,0,0:0:0:0:
315,124,94964,2,0,P|241:138|172:106,1,155,0|8,0:0|0:0,0:0:0:0:
88,124,95523,1,2,0:0:0:0:
56,204,95710,6,0,P|65:241|72:279,1,77.5,4|0,0:0|0:0,0:0:0:0:
136,336,96082,2,0,L|104:358|72:380,1,77.5,8|2,0:0|0:0,0:0:0:0:
180,256,96455,2,0,B|256:236|256:280|332:257,1,155,2|8,0:0|0:0,0:0:0:0:
384,188,97014,1,2,0:0:0:0:
348,112,97200,6,0,L|355:74,2,38.75,0|0|2,0:0|0:0|0:0,0:0:0:0:
240,124,97573,2,0,L|247:161,2,38.75,8|0|2,0:0|0:0|0:0,0:0:0:0:
148,56,97946,2,0,L|155:18,2,38.75,2|0|0,0:0|0:0|0:0,0:0:0:0:
84,168,98318,2,0,L|91:205,2,38.75,8|0|0,0:0|0:0|0:0,0:0:0:0:
148,56,98691,5,8,0:0:0:0:
276,80,98877,1,4,0:3:0:0:
276,80,99064,1,4,0:3:0:0:
328,168,99250,5,8,0:0:0:0:
196,192,99436,1,4,0:3:0:0:
196,192,99623,1,4,0:3:0:0:
148,276,99809,5,8,0:0:0:0:
336,300,99995,1,4,0:0:0:0:
