osu file format v5

[General]
AudioFilename: [104] Out of Control.mp3
AudioLeadIn: 0
PreviewTime: 17073
Countdown: 1
SampleSet: Normal
StackLeniency: 0.4
Mode: 0
LetterboxInBreaks: 1

[Metadata]
Title:Out of Control
Artist:Raven
Creator:darrihuka
Version:Relaxing
Source:
Tags:

[Difficulty]
HPDrainRate:3
CircleSize:4
OverallDifficulty:6
SliderMultiplier:1.3
SliderTickRate:4

[Events]
//Background and Video events
0,0,"OC.jpg"
//Break Periods
//Storyboard Layer 0 (Background)
//Storyboard Layer 1 (Failing)
//Storyboard Layer 2 (Passing)
//Storyboard Layer 3 (Foreground)
//Storyboard Sound Samples
//Background Colour Transformations
3,100,163,162,255

[TimingPoints]
2956,441.176470588235,4,1,0,100,1
89536,441.176470588235,4,1,0,0,0

[Colours]
Combo1 : 0,0,0
Combo2 : 153,0,244
Combo3 : 255,255,255

[HitObjects]
48,296,2955,2,0,L|48:168,1,97.5
48,96,3617,1,0
112,96,3838,1,2
112,192,4169,1,2
112,296,4500,1,2
224,232,4941,6,0,L|224:152,1,65
224,96,5382,1,0
288,96,5603,1,2
288,192,5934,1,2
288,296,6265,1,2
392,232,6705,6,0,L|392:152,1,65
392,96,7146,1,0
456,96,7367,1,2
456,192,7698,1,2
456,296,8029,1,2
456,296,8250,6,0,L|312:296,3,130
192,296,10014,6,0,L|40:296,1,130
64,296,10676,1,0
60,232,10897,1,2
156,232,11228,1,2
252,232,11558,1,2
376,232,12000,6,0,L|288:232,1,65,0|0
240,232,12441,1,0
240,168,12661,1,2
336,168,12992,1,2
432,168,13323,1,2
304,168,13764,6,2,L|216:168,1,65
168,168,14205,1,0
168,104,14426,1,2
264,104,14757,1,2
360,104,15088,1,2
424,104,15308,6,4,L|424:264,3,130
480,288,17073,5,0
352,288,17514,1,0
224,288,17955,1,0
96,288,18397,1,0
32,288,18617,1,2
32,224,18838,5,0
160,224,19279,1,0
288,224,19720,1,0
352,224,19941,1,0
416,224,20161,1,2
480,224,20382,1,0
480,160,20603,5,0
352,160,21044,1,0
224,160,21485,1,0
96,160,21926,1,0
32,160,22147,1,2
32,96,22367,5,0
160,96,22808,1,0
288,96,23250,2,0,L|288:184,1,65,2|0
352,160,23691,2,0,L|352:80,1,65,2|0
352,32,24132,6,0,L|400:32,1,32.5
432,96,24463,2,0,L|392:96,1,32.5
352,160,24794,2,0,L|392:160,1,32.5
432,224,25125,2,0,L|384:224,1,32.5
352,288,25455,1,2
288,328,25676,1,0
224,288,25897,6,0,L|264:288,1,32.5
304,224,26228,2,0,L|256:224,1,32.5
224,160,26558,2,0,L|264:160,2,32.5
192,104,27000,1,0
128,144,27220,1,2
64,104,27441,1,0
96,48,27661,6,0,L|136:48,1,32.5
176,112,27992,2,0,L|136:112,1,32.5
96,176,28323,2,0,L|144:176,1,32.5
176,240,28654,2,0,L|136:240,1,32.5
96,304,28984,1,2
160,344,29205,1,0
224,304,29426,6,0,L|272:304,1,32.5
304,240,29757,2,0,L|264:240,1,32.5
224,176,30088,2,0,L|272:176,2,32.5
256,120,30529,1,0
320,80,30749,1,2
384,120,30970,1,0
384,192,31191,5,2
384,192,31853,1,0
384,192,32073,1,2
256,192,32404,1,2
128,192,32735,1,2
0,192,33838,6,0,L|80:192,3,65,0|0|0|0
128,192,34720,1,2
128,192,35382,1,0
128,192,35602,1,2
256,192,35933,1,2
384,192,36264,1,2
384,192,37367,6,0,L|496:192,2,97.5
384,192,38250,1,2
384,192,38911,1,0
384,192,39131,1,2
256,192,39462,1,2
128,192,39793,1,2
128,192,40897,6,2,L|128:104,1,65
128,192,41338,2,2,L|128:280,1,65
128,192,41779,1,0
128,192,42441,1,0
128,192,42661,1,2
256,192,42992,1,2
384,192,43323,1,2
256,192,43544,12,4,45308
256,64,45750,5,0
256,192,46191,1,0
256,64,46632,1,0
384,64,47073,5,0
384,128,47294,1,0
384,192,47514,1,0
384,256,47735,1,0
384,320,47955,1,0
384,192,48397,1,0
256,192,48838,5,0
256,320,49279,1,0
256,192,49720,1,0
256,320,50161,1,0
128,320,50603,5,0
128,256,50823,1,0
128,192,51044,1,0
128,128,51264,1,0
128,64,51485,1,0
128,128,51705,1,0
128,192,51926,1,0
256,192,52367,6,0,L|400:192,1,130
256,192,53249,1,0
384,192,53690,1,0
384,64,54131,5,0
320,64,54352,1,0
256,64,54572,1,0
192,64,54793,1,0
128,64,55014,2,0,L|144:80|272:80,1,130
256,192,55897,6,0,L|112:192,1,130
256,192,56779,2,0,L|400:192,1,130
256,192,57661,6,0,L|256:112,3,65
256,192,58544,6,0,L|256:288,3,65
256,192,59426,5,4
256,192,59647,12,0,61191
384,192,61632,5,8
256,192,62073,1,0
320,192,62294,1,0
384,192,62514,1,8
256,192,62955,1,0
384,192,63397,1,8
384,192,64058,5,8
384,192,64279,1,8
320,192,64500,1,8
256,192,64720,1,0
128,192,65161,1,8
256,192,65603,1,0
192,192,65823,1,0
128,192,66044,1,8
256,192,66485,1,0
128,192,66926,1,8
128,192,67367,5,8
128,192,67588,1,8
128,192,67808,1,8
128,192,68029,1,8
128,192,68250,2,0,L|288:192,1,130
384,192,69132,2,0,L|240:192,1,130
256,320,70014,2,0,L|256:176,1,130
256,64,70897,2,0,L|256:208,1,130,0|2
256,192,71558,1,0
256,192,71779,6,0,L|112:192,1,130
256,192,72661,2,0,L|400:192,1,130
256,192,73544,5,4
256,192,73654,12,0,74867
32,48,75308,6,0,L|32:160,1,97.5,4|2
32,240,75970,2,0,L|96:176,1,65,0|2
160,128,76522,2,0,L|160:240,1,97.5,0|2
192,128,77294,6,0,L|192:224,1,65,0|2
192,256,77735,2,0,L|256:192,1,65,0|2
304,144,78286,2,0,L|304:256,1,97.5,0|2
336,144,79058,6,0,L|336:240,1,65,0|2
336,272,79499,2,0,L|400:208,1,65,0|2
448,160,80050,2,0,L|448:272,1,97.5,0|2
448,320,80603,6,0,L|288:320,3,130
320,80,82367,6,0,L|472:80,1,130
448,80,83029,1,0
448,144,83250,1,2
352,176,83581,1,2
256,144,83911,1,2
128,144,84353,6,0,L|216:144,1,65,0|0
256,144,84794,1,0
256,208,85014,1,2
160,176,85345,1,2
64,208,85676,1,2
192,208,86117,6,0,L|280:208,1,65
320,208,86558,1,0
320,272,86779,1,2
224,304,87110,1,2
128,272,87441,1,2
64,272,87661,5,0
176,192,88103,1,0
288,272,88544,1,0
400,192,88985,1,0
256,192,89426,5,4
256,192,89536,12,0,91191
