osu file format v12

[General]
AudioFilename: Raujika - Roseo Neige.mp3
AudioLeadIn: 0
PreviewTime: 138218
Countdown: 0
SampleSet: Soft
StackLeniency: 0.7
Mode: 0
LetterboxInBreaks: 0
WidescreenStoryboard: 1

[Editor]
Bookmarks: 48899,118445,123899,138899,214240
DistanceSpacing: 1
BeatDivisor: 4
GridSize: 4
TimelineZoom: 1

[Metadata]
Title:Roseo Neige
TitleUnicode:Roseo Neige
Artist:Raujika
ArtistUnicode:Raujika
Creator:ebugers
Version:Hard
Source:
Tags:blue cloud water mirror fairy tale instrumental road rose album jazz hiphop
BeatmapID:343011
BeatmapSetID:136849

[Difficulty]
HPDrainRate:4
CircleSize:4
OverallDifficulty:6
ApproachRate:7
SliderMultiplier:1.9
SliderTickRate:1

[Events]
//Background and Video events
0,0,"bg.jpg",0,0
//Break Periods
2,124099,136977
//Storyboard Layer 0 (Background)
//Storyboard Layer 1 (Fail)
//Storyboard Layer 2 (Pass)
//Storyboard Layer 3 (Foreground)
//Storyboard Sound Samples
//Background Colour Transformations
3,100,163,162,255

[TimingPoints]
-191,681.818181818182,4,2,0,49,1,0
2536,-133.333333333333,4,2,0,49,0,0
18047,-100,4,2,0,49,0,0
24354,-100,4,2,0,49,0,0
38502,-100,4,2,0,49,0,0
39354,-100,4,2,0,49,0,0
138899,-100,4,2,0,49,0,1
143502,-100,4,2,0,49,0,1
144354,-100,4,2,0,49,0,1
167536,-100,4,2,0,49,0,0
209809,-100,4,2,0,49,0,0

[Colours]
Combo1 : 202,202,202
Combo2 : 136,255,255
Combo3 : 255,188,155
Combo4 : 198,140,255

[HitObjects]
48,192,2536,6,0,P|112:152|184:160,1,142.500005435944,2|2,0:0|0:0,0:0:0:0:
256,192,3559,1,0,0:0:0:0:
276,276,3899,2,0,P|304:296|352:300,1,71.2500027179719,2|0,0:0|0:0,0:0:0:0:
424,200,4581,2,0,P|396:180|348:176,1,71.2500027179719,2|0,0:0|0:0,0:0:0:0:
276,184,5263,5,0,0:0:0:0:
192,168,5604,2,0,L|160:92,1,71.2500027179719,0|2,0:0|0:0,0:0:0:0:
100,160,6286,2,0,L|48:104,1,71.2500027179719
16,184,6968,1,0,0:0:0:0:
40,264,7309,2,0,B|116:256|116:256|188:280,1,142.500005435944,2|0,0:0|0:0,0:0:0:0:
248,328,8331,6,0,P|264:296|256:248,1,71.2500027179719,0|2,0:0|0:0,0:0:0:0:
228,184,9013,1,0,0:0:0:0:
312,200,9354,2,0,P|347:202|378:187,1,71.2500027179719,2|0,3:0|0:0,0:0:0:0:
328,116,10036,1,2,0:0:0:0:
360,284,10377,1,2,0:0:0:0:
360,284,10718,6,0,L|184:292,1,142.500005435944
136,264,11740,1,2,3:0:0:0:
132,260,11911,1,0,0:0:0:0:
128,256,12081,2,0,L|96:152,1,106.875004076958,2|0,3:0|0:0,0:0:0:0:
200,196,12763,2,0,L|168:92,1,106.875004076958,2|0,0:0|0:0,0:0:0:0:
272,144,13445,6,0,L|240:40,1,106.875004076958,2|0,0:0|0:0,0:0:0:0:
284,48,14127,2,0,P|320:64|368:60,2,71.2500027179719,2|0|2,0:0|3:0|3:0,0:0:0:0:
200,40,15149,1,0,0:0:0:0:
116,60,15490,2,0,L|80:136,1,71.2500027179719,2|0,0:0|0:0,0:0:0:0:
168,144,16172,6,0,L|204:220,1,71.2500027179719
120,248,16854,2,0,B|156:304|212:296|212:296|252:280,1,142.500005435944,2|0,0:0|0:0,0:0:0:0:
328,280,17877,1,0,0:0:0:0:
332,276,18047,1,0,0:0:0:0:
336,272,18218,2,0,L|356:172,1,95
420,112,18899,6,0,B|384:96|384:96|252:88,1,142.5,2|0,0:0|0:0,0:0:0:0:
200,84,19581,2,0,L|128:16,2,95,0|0|2,3:0|0:0|0:0,0:0:0:0:
116,128,20604,1,0,0:0:0:0:
196,176,20945,1,0,3:0:0:0:
280,132,21286,1,0,0:0:0:0:
280,132,21456,2,0,L|288:80,2,47.5,2|2|2,0:0|0:0|0:0,0:0:0:0:
280,216,21968,6,0,P|252:252|192:264,2,95,2|0|0,0:0|3:0|3:0,0:0:0:0:
196,176,22990,2,0,B|136:180|136:180|112:192|112:192|28:196,1,142.5,2|0,0:0|0:0,0:0:0:0:
24,272,23672,2,0,L|4:328,1,47.5,0|0,3:0|0:0,0:0:0:0:
104,272,24013,2,0,L|84:328,1,47.5,2|0,0:0|0:0,0:0:0:0:
184,264,24354,6,0,L|360:272,1,142.5,2|0,0:0|0:0,0:0:0:0:
376,272,25036,2,0,P|364:220|380:168,1,95,0|0,3:0|0:0,0:0:0:0:
404,88,25718,2,0,B|368:96|368:96|276:76,1,95
220,64,26229,1,0,0:0:0:0:
220,64,26399,2,0,B|184:56|184:56|92:76,1,95,0|0,3:0|0:0,0:0:0:0:
40,92,26911,1,0,0:0:0:0:
40,92,27081,6,0,P|64:132|52:208,1,95
156,156,27763,2,0,P|155:202|131:243,2,95,0|0|0,3:0|0:0|0:0,0:0:0:0:
224,220,28786,2,0,L|300:236,2,47.5,0|2|0,0:0|0:0|3:0,0:0:0:0:
260,132,29468,2,0,L|276:56,2,47.5,0|0|2,0:0|0:0|0:0,0:0:0:0:
168,148,30149,5,0,0:0:0:0:
320,200,30490,2,0,L|376:216,1,47.5,0|0,3:0|0:0,0:0:0:0:
265,277,30831,2,0,L|220:264,1,47.5,2|0,0:0|0:0,0:0:0:0:
220,264,31172,2,0,L|40:276,1,142.5,2|0,0:0|0:0,0:0:0:0:
20,324,31854,2,0,L|-8:348,2,23.75,0|0|0,3:0|0:0|0:0,0:0:0:0:
24,200,32195,2,0,L|96:196,1,47.5
156,160,32536,6,0,B|200:172|200:172|247:157,1,95,2|0,0:0|0:0,0:0:0:0:
64,104,33047,1,0,0:0:0:0:
64,104,33218,2,0,P|48:152|72:224,1,95
204,256,33899,2,0,P|276:244|368:256,1,142.5,2|0,0:0|0:0,0:0:0:0:
344,250,34581,2,0,L|392:164,1,95,0|0,3:0|0:0,0:0:0:0:
246,92,35263,6,0,P|260:137|296:168,1,95,2|0,0:0|0:0,0:0:0:0:
344,84,35945,1,0,3:0:0:0:
184,192,36286,1,0,0:0:0:0:
13,125,36627,2,0,L|108:132,1,95,2|0,0:0|0:0,0:0:0:0:
278,198,37309,2,0,L|184:192,1,95,0|0,3:0|0:0,0:0:0:0:
13,241,37990,6,0,L|108:248,1,95
176,312,38672,1,0,3:0:0:0:
196,220,39013,1,2,0:0:0:0:
272,276,39354,2,0,B|328:272|328:272|364:280|364:280|448:272,1,142.5,4|0,0:0|0:0,0:0:0:0:
460,272,40036,2,0,L|464:148,1,95,0|0,3:0|0:0,0:0:0:0:
360,104,40718,6,0,L|363:198,1,95,2|0,0:0|0:0,0:0:0:0:
363,198,41229,1,2,0:0:0:0:
364,200,41399,2,0,P|319:183|272:184,1,95,0|0,3:0|0:0,0:0:0:0:
184,224,42081,1,0,0:0:0:0:
92,252,42422,1,2,0:0:0:0:
108,160,42763,1,0,3:0:0:0:
164,312,43104,1,2,0:0:0:0:
224,144,43445,5,2,0:0:0:0:
268,248,43786,1,2,0:0:0:0:
272,252,43956,1,2,0:0:0:0:
276,256,44127,2,0,L|328:264,1,47.5,0|0,3:0|0:0,0:0:0:0:
398,195,44468,2,0,L|352:188,1,47.5,2|2,0:0|0:0,0:0:0:0:
272,252,44809,2,0,B|228:264|228:264|116:228,1,142.5,2|0,0:0|0:0,0:0:0:0:
135,234,45490,2,0,L|100:176,1,47.5,0|0,3:0|0:0,0:0:0:0:
184,132,45831,2,0,L|143:107,1,47.5
40,140,46172,6,0,B|12:184|12:184|24:288,1,142.5,2|0,0:0|0:0,0:0:0:0:
40,348,46854,2,0,L|44:376,2,23.75,0|0|0,3:0|0:0|0:0,0:0:0:0:
100,296,47195,2,0,L|156:292,1,47.5
212,348,47536,2,0,B|256:328|256:328|296:324|296:324|360:336,1,142.5,2|0,0:0|0:0,0:0:0:0:
424,260,48218,2,0,L|436:316,1,47.5,0|0,3:0|0:0,0:0:0:0:
344,192,48559,2,0,L|332:248,1,47.5,2|0,0:0|0:0,0:0:0:0:
440,168,48899,6,0,B|416:120|416:120|332:72,1,142.5,4|0,0:0|0:0,0:0:0:0:
338,75,49581,2,0,P|292:88|232:80,1,95,0|0,3:0|0:0,0:0:0:0:
39,100,50263,2,0,P|86:103|132:92,1,95
248,84,50945,1,0,3:0:0:0:
132,92,51286,1,0,0:0:0:0:
192,188,51627,6,0,B|184:232|184:232|212:284|212:284|204:348,1,142.5,2|0,0:0|0:0,0:0:0:0:
252,308,52309,2,0,P|288:288|356:292,1,95,0|0,3:0|0:0,0:0:0:0:
416,344,52990,2,0,B|436:304|436:304|416:192,1,142.5
416,204,53672,1,0,3:0:0:0:
412,200,53843,1,2,0:0:0:0:
408,196,54013,1,2,0:0:0:0:
328,144,54354,6,0,B|280:160|280:160|240:164|240:164|144:152,1,142.5
188,157,55036,2,0,L|168:92,1,47.5,0|0,3:0|0:0,0:0:0:0:
104,160,55377,2,0,L|83:94,1,47.5
59,234,55718,2,0,L|79:299,1,47.5
144,232,56059,2,0,L|164:297,1,47.5
172,324,56399,2,0,B|220:336|280:336|280:336|344:316,1,142.5,0|0,3:0|0:0,0:0:0:0:
312,325,57081,6,0,L|328:212,1,95
252,168,57763,2,0,L|238:262,1,95,0|0,3:0|0:0,0:0:0:0:
332,240,58445,1,0,0:0:0:0:
160,212,58786,1,0,0:0:0:0:
238,262,59127,2,0,L|252:168,1,95,0|0,3:0|0:0,0:0:0:0:
268,72,59809,6,0,L|276:20,2,47.5
184,112,60490,1,0,3:0:0:0:
332,136,60831,1,2,0:0:0:0:
248,184,61172,2,0,B|200:208|200:208|100:200,1,142.5
64,192,61854,2,0,P|60:239|16:287,1,95,0|0,3:0|0:0,0:0:0:0:
33,276,62365,1,0,0:0:0:0:
33,276,62536,6,0,B|72:308|72:308|180:320,1,142.5
228,272,63218,2,0,L|252:328,1,47.5,0|2,3:0|3:0,0:0:0:0:
324,292,63559,2,0,L|342:248,1,47.5,8|0,3:0|3:0,0:0:0:0:
272,184,63899,2,0,P|336:152|416:188,1,142.5
444,188,64581,2,0,L|456:84,1,95,0|8,3:0|3:0,0:0:0:0:
265,65,65263,6,0,L|360:76,1,95
444,188,65945,2,0,L|324:196,1,95,0|8,3:0|3:0,0:0:0:0:
256,200,66627,1,0,0:0:0:0:
160,212,66968,1,0,0:0:0:0:
272,196,67309,1,0,3:0:0:0:
68,224,67649,1,8,3:0:0:0:
292,192,67990,6,0,B|352:184|352:184|452:232,1,142.5
400,340,68672,2,0,B|340:348|340:348|240:300,1,142.5,0|0,3:0|0:0,0:0:0:0:
266,312,69354,2,0,B|212:312|212:312|172:324|172:324|92:324,1,142.5
125,324,70036,1,0,3:0:0:0:
188,200,70377,1,8,3:0:0:0:
276,224,70718,5,0,0:0:0:0:
112,240,71059,1,0,0:0:0:0:
176,116,71399,1,0,3:0:0:0:
264,140,71740,1,8,3:0:0:0:
100,156,72081,1,0,0:0:0:0:
164,36,72422,1,0,0:0:0:0:
252,60,72763,1,0,3:0:0:0:
88,76,73104,1,8,3:0:0:0:
264,140,73445,6,0,P|300:168|360:176,1,95
396,172,73956,1,0,0:0:0:0:
364,208,74127,2,0,P|336:244|328:304,1,95,0|8,3:0|3:0,0:0:0:0:
332,340,74638,1,0,0:0:0:0:
296,304,74809,2,0,P|260:276|200:268,1,95
220,368,75490,1,0,3:0:0:0:
288,196,75831,1,8,3:0:0:0:
212,268,76172,6,0,B|164:252|164:252|116:260|116:260|64:244,1,142.5,2|0,0:0|0:0,0:0:0:0:
4,220,76854,2,0,L|-4:180,2,23.75,0|0|0,3:0|0:0|0:0,0:0:0:0:
72,168,77195,2,0,L|108:92,1,47.5,8|0,3:0|0:0,0:0:0:0:
92,125,77536,2,0,P|168:136|264:112,1,142.5
276,56,78218,2,0,L|336:40,1,47.5,0|2,3:0|0:0,0:0:0:0:
328,128,78559,2,0,L|396:124,1,47.5,2|0,0:0|3:0,0:0:0:0:
352,212,78899,6,0,L|524:236,1,142.5
493,231,79581,2,0,P|464:268|448:336,1,95,0|8,3:0|3:0,0:0:0:0:
360,348,80263,1,0,0:0:0:0:
352,212,80604,1,0,0:0:0:0:
492,232,80945,1,0,3:0:0:0:
224,248,81286,1,8,3:0:0:0:
224,248,81456,2,0,L|152:256,2,47.5
304,212,81968,6,0,P|276:176|216:164,2,95,0|0|8,0:0|3:0|3:0,0:0:0:0:
312,308,82990,2,0,B|284:336|284:336|220:356|220:356|164:352,1,142.5
100,328,83672,2,0,L|48:296,1,47.5,0|0,3:0|0:0,0:0:0:0:
168,268,84013,2,0,L|208:243,1,47.5,8|0,3:0|0:0,0:0:0:0:
76,232,84354,6,0,B|72:184|72:184|92:128|92:128|88:80,1,142.5
80,48,85036,2,0,P|124:68|204:48,1,95,0|8,3:0|3:0,0:0:0:0:
356,48,85718,2,0,B|320:40|320:40|228:60,1,95,2|0,0:0|0:0,0:0:0:0:
228,128,86229,1,0,0:0:0:0:
228,128,86399,2,0,P|252:168|240:244,1,95,0|8,3:0|3:0,0:0:0:0:
328,152,87081,5,2,0:0:0:0:
156,192,87422,1,0,0:0:0:0:
156,192,87763,2,0,P|155:238|131:279,2,95,0|8|2,3:0|3:0|0:0,0:0:0:0:
236,260,88786,2,0,L|312:276,2,47.5,0|0|0,0:0|0:0|3:0,0:0:0:0:
256,80,89468,2,0,L|180:64,2,47.5,8|0|0,3:0|0:0|0:0,0:0:0:0:
168,148,90149,5,0,0:0:0:0:
152,240,90490,2,0,L|96:256,1,47.5,0|0,3:0|0:0,0:0:0:0:
224,300,90831,2,0,L|269:287,1,47.5,8|0,3:0|0:0,0:0:0:0:
268,288,91172,2,0,L|448:300,1,142.5,2|0,0:0|0:0,0:0:0:0:
492,324,91854,2,0,L|520:348,2,23.75,0|0|0,3:0|0:0|0:0,0:0:0:0:
488,200,92195,2,0,L|416:196,1,47.5,8|0,3:0|0:0,0:0:0:0:
356,160,92536,6,0,B|312:172|312:172|265:157,1,95,0|0,0:0|3:0,0:0:0:0:
448,104,93047,2,0,P|464:152|440:224,1,95,0|0,0:0|3:0,0:0:0:0:
300,80,93559,2,0,L|216:96,1,47.5,0|8,0:0|3:0,0:0:0:0:
216,220,93899,2,0,P|164:228|104:200,1,95,4|0,3:0|0:0,0:0:0:0:
120,216,94411,1,0,0:0:0:0:
116,216,94581,1,0,3:0:0:0:
120,80,94922,1,0,0:0:0:0:
120,80,95093,2,0,P|165:66|211:75,1,95
288,108,95604,6,0,L|292:176,1,47.5
372,136,95945,2,0,L|380:244,1,95,0|0,3:0|0:0,0:0:0:0:
288,240,96456,1,0,0:0:0:0:
288,240,96627,2,0,P|244:256|116:196,2,190,0|0|0,0:0|3:0|0:0,0:0:0:0:
372,192,98331,5,0,0:0:0:0:
372,192,98672,2,0,L|380:92,2,95,0|0|0,3:0|0:0|0:0,0:0:0:0:
272,136,99695,1,0,0:0:0:0:
172,188,100036,1,0,3:0:0:0:
312,236,100377,1,0,0:0:0:0:
200,112,100718,5,0,0:0:0:0:
100,164,101059,1,0,0:0:0:0:
240,212,101400,1,0,3:0:0:0:
200,112,101740,2,0,L|128:96,1,47.5
153,101,102081,2,0,L|8:128,1,142.5,2|0,0:0|0:0,0:0:0:0:
164,180,102763,2,0,L|18:206,1,142.5,0|0,3:0|0:0,0:0:0:0:
180,260,103445,6,0,L|34:286,1,142.5,2|0,0:0|0:0,0:0:0:0:
200,340,104127,2,0,L|54:366,1,142.5,0|0,3:0|0:0,0:0:0:0:
260,280,104809,2,0,L|304:272,2,23.75,2|0|0,0:0|0:0|0:0,0:0:0:0:
256,192,105149,12,0,108899,0:0:0:0:
256,192,109240,6,0,P|312:196|372:176,1,95,0|0,0:0|3:0,0:0:0:0:
432,140,109922,2,0,L|448:260,1,95
440,240,110434,1,0,0:0:0:0:
436,244,110604,1,0,0:0:0:0:
432,248,110774,1,0,0:0:0:0:
428,252,110945,2,0,P|360:280|280:272,1,142.5,0|0,3:0|0:0,0:0:0:0:
292,275,111627,6,0,L|236:224,1,47.5
172,320,111968,2,0,L|160:264,1,47.5
60,256,112309,2,0,L|64:136,1,95,0|0,3:0|0:0,0:0:0:0:
148,188,112820,1,0,0:0:0:0:
148,188,112990,2,0,P|144:128|200:64,1,142.5
369,85,113672,2,0,P|299:85|248:132,1,142.5,0|0,3:0|0:0,0:0:0:0:
356,172,114354,6,0,P|415:168|480:224,1,142.5
446,381,115036,6,0,P|446:311|400:260,1,142.5,0|0,3:0|0:0,0:0:0:0:
356,344,115718,2,0,B|308:352|308:352|196:332,1,142.5
136,320,116399,2,0,B|108:280|108:280|96:224|96:224|104:160,1,142.5,0|0,3:0|0:0,0:0:0:0:
100,187,117081,1,0,0:0:0:0:
116,180,117763,1,0,3:0:0:0:
132,172,118445,1,2,3:2:0:0:
256,192,122195,12,2,123899,3:2:0:0:
256,192,137877,12,0,138899,0:0:0:0:
312,300,139581,6,0,P|336:336|392:352,2,95,0|8|4,3:0|3:0|3:0,0:0:0:0:
396,256,140604,1,2,0:0:0:0:
316,208,140945,1,0,3:0:0:0:
232,252,141286,1,8,3:0:0:0:
232,252,141456,2,0,L|224:304,2,47.5,0|4|0,0:0|3:0|0:0,0:0:0:0:
232,168,141968,6,0,P|260:132|320:120,2,95,2|0|8,0:0|3:0|3:0,0:0:0:0:
316,208,142990,2,0,B|376:204|376:204|400:192|400:192|484:188,1,142.5,4|0,3:0|0:0,0:0:0:0:
488,112,143672,2,0,L|508:56,1,47.5,0|0,3:0|0:0,0:0:0:0:
408,112,144013,2,0,L|428:56,1,47.5,8|0,3:0|0:0,0:0:0:0:
328,120,144354,6,0,L|152:112,1,142.5,4|0,0:0|0:0,0:0:0:0:
136,112,145036,2,0,P|148:164|132:216,1,95,0|8,3:0|3:0,0:0:0:0:
108,296,145718,2,0,B|144:288|144:288|236:308,1,95,4|2,3:0|0:0,0:0:0:0:
292,320,146229,1,0,0:0:0:0:
292,320,146399,2,0,B|328:328|328:328|420:308,1,95,0|8,3:0|3:0,0:0:0:0:
472,292,146911,1,0,0:0:0:0:
472,292,147081,6,0,P|448:252|460:176,1,95,4|0,3:0|3:0,0:0:0:0:
356,228,147763,2,0,P|357:182|381:141,2,95,0|8|4,3:0|3:0|3:0,0:0:0:0:
288,164,148786,2,0,L|212:148,2,47.5,2|0|0,0:0|0:0|3:0,0:0:0:0:
252,252,149468,2,0,L|236:328,2,47.5,2|0|0,0:0|0:0|0:0,0:0:0:0:
344,236,150149,5,2,0:0:0:0:
192,184,150490,2,0,L|136:168,1,47.5,0|0,3:0|0:0,0:0:0:0:
247,107,150831,2,0,L|292:120,1,47.5,8|0,3:0|0:0,0:0:0:0:
292,120,151172,2,0,L|472:108,1,142.5,4|0,3:0|0:0,0:0:0:0:
492,60,151854,2,0,L|520:36,2,23.75,0|0|0,3:0|0:0|0:0,0:0:0:0:
488,184,152195,2,0,L|416:188,1,47.5
356,224,152536,6,0,B|312:212|312:212|265:227,1,95,0|2,3:0|0:0,0:0:0:0:
448,280,153218,2,0,P|464:232|440:160,1,95,0|2,3:0|0:0,0:0:0:0:
308,128,153729,1,0,0:0:0:0:
308,128,153899,2,0,P|236:140|144:128,1,142.5
168,134,154581,2,0,L|120:220,1,95,0|8,3:0|3:0,0:0:0:0:
266,292,155263,6,0,P|252:247|216:216,1,95,4|0,3:0|0:0,0:0:0:0:
168,300,155945,1,0,3:0:0:0:
328,192,156286,1,8,3:0:0:0:
499,259,156627,2,0,L|404:252,1,95,4|0,3:0|0:0,0:0:0:0:
234,186,157309,2,0,L|328:192,1,95,0|0,3:0|0:0,0:0:0:0:
499,143,157990,6,0,L|404:136,1,95
336,72,158672,1,0,3:0:0:0:
316,164,159013,1,8,3:0:0:0:
240,108,159354,2,0,B|184:112|184:112|148:104|148:104|64:112,1,142.5,4|0,3:0|0:0,0:0:0:0:
52,112,160036,2,0,L|48:236,1,95,0|0,3:0|0:0,0:0:0:0:
152,280,160718,6,0,L|149:186,1,95,2|0,0:0|0:0,0:0:0:0:
149,186,161229,1,0,0:0:0:0:
148,184,161399,2,0,P|193:201|240:200,1,95,0|8,3:0|3:0,0:0:0:0:
328,160,162081,1,4,3:0:0:0:
420,132,162422,1,2,0:0:0:0:
404,224,162763,1,0,3:0:0:0:
348,72,163104,1,2,0:0:0:0:
288,240,163445,5,0,0:0:0:0:
244,136,163786,1,2,0:0:0:0:
240,132,163956,1,0,0:0:0:0:
236,128,164127,2,0,L|184:120,1,47.5,0|0,3:0|0:0,0:0:0:0:
114,189,164468,2,0,L|160:196,1,47.5,8|0,3:0|0:0,0:0:0:0:
240,132,164809,2,0,B|284:120|284:120|396:156,1,142.5,4|0,0:0|0:0,0:0:0:0:
377,150,165490,2,0,L|412:208,1,47.5,0|0,3:0|0:0,0:0:0:0:
328,252,165831,2,0,L|369:277,1,47.5
472,244,166172,6,0,B|500:200|500:200|488:96,1,142.5,2|0,0:0|0:0,0:0:0:0:
472,36,166854,2,0,L|468:8,2,23.75,0|0|0,3:0|0:0|0:0,0:0:0:0:
412,88,167195,2,0,L|356:92,1,47.5
300,36,167536,2,0,B|256:56|256:56|216:60|216:60|152:48,1,142.5,4|0,0:0|0:0,0:0:0:0:
88,124,168218,2,0,L|76:68,1,47.5,0|0,3:0|0:0,0:0:0:0:
168,192,168559,2,0,L|180:136,1,47.5,8|0,3:0|3:0,0:0:0:0:
96,268,168899,6,0,B|136:288|136:288|264:272,1,142.5,4|0,3:0|0:0,0:0:0:0:
256,272,169581,2,0,P|296:304|356:304,1,95,0|0,3:0|0:0,0:0:0:0:
324,220,170263,1,0,0:0:0:0:
416,192,170604,1,0,0:0:0:0:
340,136,170945,1,0,3:0:0:0:
432,108,171286,1,8,3:0:0:0:
360,48,171627,6,0,B|320:52|320:52|272:80|272:80|200:84,1,142.5,4|0,3:0|0:0,0:0:0:0:
196,120,172309,2,0,B|148:112|148:112|72:128,2,95,0|2|0,3:0|0:0|0:0,0:0:0:0:
184,216,173331,1,2,0:0:0:0:
184,216,173502,2,0,L|176:268,1,47.5,0|0,0:0|3:0,0:0:0:0:
256,256,173843,2,0,L|256:312,1,47.5,0|8,0:0|3:0,0:0:0:0:
328,216,174184,2,0,L|336:268,1,47.5,0|4,0:0|3:0,0:0:0:0:
256,176,175036,5,0,3:0:0:0:
256,80,175377,1,2,0:0:0:0:
176,128,175718,1,0,0:0:0:0:
332,128,176059,1,2,0:0:0:0:
176,216,176399,1,0,3:0:0:0:
332,216,176740,1,8,3:0:0:0:
256,288,177081,6,0,B|212:308|212:308|88:320,1,142.5,4|0,3:0|0:0,0:0:0:0:
256,288,177763,2,0,B|300:308|300:308|424:320,1,142.5,0|0,3:0|0:0,0:0:0:0:
256,288,178445,2,0,B|212:268|212:268|88:256,1,142.5
256,288,179127,2,0,B|300:268|300:268|424:256,1,142.5,0|0,3:0|0:0,0:0:0:0:
393,258,179809,6,0,B|380:208|380:208|384:160|384:160|368:84,1,142.5
364,72,180490,2,0,L|304:48,1,47.5,0|0,3:0|0:0,0:0:0:0:
280,124,180831,2,0,L|224:124,1,47.5,8|0,3:0|0:0,0:0:0:0:
240,216,181172,2,0,P|184:244|92:232,1,142.5,2|0,0:0|0:0,0:0:0:0:
40,192,181854,2,0,L|24:156,2,23.75,0|0|0,3:0|0:0|0:0,0:0:0:0:
120,160,182195,2,0,L|160:108,1,47.5
148,122,182536,6,0,B|200:128|200:128|232:100|296:104,1,142.5,4|0,3:0|0:0,0:0:0:0:
380,104,183218,2,0,L|396:160,1,47.5,0|0,3:0|0:0,0:0:0:0:
320,188,183559,2,0,L|304:244,1,47.5,0|0,3:0|3:0,0:0:0:0:
400,264,183899,2,0,B|368:312|368:312|256:348,1,142.5
212,304,184581,2,0,P|164:296|112:312,2,95,0|0|0,3:0|0:0|0:0,0:0:0:0:
168,376,185604,5,2,0:0:0:0:
164,216,185945,1,0,3:0:0:0:
324,276,186286,1,2,0:0:0:0:
324,276,186456,1,0,0:0:0:0:
324,276,186627,2,0,L|384:268,2,47.5,0|0|2,0:0|0:0|0:0,0:0:0:0:
272,188,187309,1,0,3:0:0:0:
164,216,187649,1,2,0:0:0:0:
60,188,187990,6,0,P|52:136|84:48,1,142.5
80,52,188672,2,0,L|128:44,1,47.5,0|0,3:0|0:0,0:0:0:0:
156,128,189013,2,0,L|203:119,1,47.5
256,40,189354,2,0,L|404:44,1,142.5
420,132,190036,2,0,L|277:128,1,142.5,0|0,3:0|0:0,0:0:0:0:
256,204,190718,6,0,L|404:208,1,142.5
420,296,191400,2,0,L|277:292,1,142.5,0|0,3:0|0:0,0:0:0:0:
196,340,192081,2,0,B|148:332|148:332|60:256,1,142.5
72,192,192763,2,0,B|120:200|120:200|208:276,1,142.5,0|0,3:0|0:0,0:0:0:0:
316,340,193445,6,0,B|364:332|364:332|452:256,1,142.5
440,192,194127,2,0,B|392:200|392:200|304:276,1,142.5,0|0,3:0|0:0,0:0:0:0:
320,261,194809,1,0,0:0:0:0:
256,192,195149,1,0,3:0:0:0:
180,132,195490,2,0,L|120:152,1,47.5,0|0,3:0|0:0,0:0:0:0:
332,132,195831,2,0,L|392:152,1,47.5
256,192,196172,6,0,P|224:236|112:268,1,142.5
64,272,196854,2,0,L|24:268,2,23.75,0|0|0,3:0|0:0|0:0,0:0:0:0:
100,200,197195,2,0,L|92:152,1,47.5
84,104,197536,2,0,P|160:120|252:88,1,142.5
296,72,198218,2,0,L|344:44,1,47.5,0|0,3:0|0:0,0:0:0:0:
352,144,198559,2,0,L|408:124,1,47.5,0|0,0:0|3:0,0:0:0:0:
512,224,198899,6,0,L|384:236,1,142.5
296,216,199581,2,0,B|260:248|260:248|200:260,2,95,0|0|0,3:0|0:0|0:0,0:0:0:0:
208,160,200604,1,0,0:0:0:0:
308,328,200945,1,0,3:0:0:0:
304,160,201286,1,0,0:0:0:0:
204,328,201627,5,0,0:0:0:0:
256,236,201968,2,0,L|256:180,2,47.5,0|0|0,0:0|0:0|3:0,0:0:0:0:
152,240,202649,2,0,L|104:128,1,95
116,148,203161,1,0,0:0:0:0:
116,144,203331,1,0,0:0:0:0:
116,140,203502,1,0,0:0:0:0:
116,136,203672,2,0,L|188:92,1,47.5,0|0,3:0|0:0,0:0:0:0:
212,164,204013,2,0,L|284:120,1,47.5
284,228,204354,6,0,P|352:208|432:232,1,142.5
419,224,205036,2,0,L|436:128,1,95,0|0,3:0|0:0,0:0:0:0:
284,228,205718,2,0,P|216:248|136:224,1,142.5
148,231,206400,2,0,L|131:327,1,95,0|0,3:0|0:0,0:0:0:0:
224,328,207081,6,0,B|276:320|276:320|320:328|320:328|384:316,1,142.5
364,243,207763,2,0,B|320:252|320:252|276:244|276:244|224:252,1,142.5,0|0,3:0|0:0,0:0:0:0:
220,176,208445,2,0,B|272:168|272:168|316:176|316:176|380:164,1,142.5
360,91,209127,2,0,B|315:99|315:99|271:91|271:91|219:99,1,142.5,0|0,3:0|0:0,0:0:0:0:
219,99,209809,6,0,L|160:64,2,47.5
136,144,210490,2,0,L|76:108,2,47.5,0|0|0,3:0|0:0|0:0,0:0:0:0:
136,240,211172,2,0,L|95:264,2,47.5
219,284,211854,2,0,L|178:308,2,47.5,0|0|0,3:0|0:0|0:0,0:0:0:0:
256,192,212536,6,0,L|404:192,1,142.5,2|0,0:0|0:0,0:0:0:0:
398,192,213218,2,0,P|356:216|340:280,1,95,0|0,3:0|0:0,0:0:0:0:
432,280,213899,1,0,0:0:0:0:
432,104,214240,1,0,0:0:0:0:
396,192,214581,2,0,L|340:192,2,47.5,0|0|0,3:0|0:0|0:0,0:0:0:0:
308,276,215263,5,0,0:0:0:0:
308,100,215604,1,0,0:0:0:0:
272,188,215945,2,0,L|216:188,2,47.5,0|0|0,3:0|0:0|0:0,0:0:0:0:
176,272,216627,1,0,0:0:0:0:
176,96,216968,1,0,0:0:0:0:
140,184,217309,2,0,L|84:184,2,47.5,0|0|0,3:0|0:0|0:0,0:0:0:0:
236,184,217990,6,0,L|292:184,2,47.5
188,100,218672,2,0,L|188:44,2,47.5,0|0|0,3:0|0:0|0:0,0:0:0:0:
188,284,219354,1,4,3:2:0:0:
