osu file format v12

[General]
AudioFilename: Lost Imagination.mp3
AudioLeadIn: 0
PreviewTime: 51088
Countdown: 0
SampleSet: Soft
StackLeniency: 0.9
Mode: 0
LetterboxInBreaks: 0
EpilepsyWarning: 1
WidescreenStoryboard: 1

[Editor]
DistanceSpacing: 1.5
BeatDivisor: 4
GridSize: 4

[Metadata]
Title:Lost Imagination
TitleUnicode:Lost Imagination
Artist:Raujika
ArtistUnicode:Raujika
Creator:Jekate
Version:Hard
Source:
Tags:PALETTE SOUNDS
BeatmapID:336867
BeatmapSetID:134296

[Difficulty]
HPDrainRate:6
CircleSize:5
OverallDifficulty:6
ApproachRate:7
SliderMultiplier:1.4
SliderTickRate:2

[Events]
//Background and Video events
0,0,"Konachan.com - 90831 sample.jpg",0,0
//Break Periods
//Storyboard Layer 0 (Background)
//Storyboard Layer 1 (Fail)
//Storyboard Layer 2 (Pass)
//Storyboard Layer 3 (Foreground)
//Storyboard Sound Samples
//Background Colour Transformations
3,100,163,162,255

[TimingPoints]
14165,659.340659340659,4,2,1,50,1,0
19439,-200,4,2,1,50,0,0
29989,-142.857142857143,4,2,1,50,0,0
40538,-100,4,2,1,50,0,0
51088,-71.4285714285714,4,2,1,60,0,1
61637,-71.4285714285714,4,2,1,60,0,0
62296,-100,4,2,1,50,0,0
64934,-100,4,2,1,40,0,0
67571,-100,4,2,1,30,0,0
70208,-100,4,2,1,20,0,0
73505,-100,4,2,1,15,0,0
74164,-100,4,2,1,10,0,0
74824,-100,4,2,1,5,0,0

[Colours]
Combo1 : 255,227,145
Combo2 : 255,255,255
Combo3 : 206,157,255
Combo4 : 255,149,202

[HitObjects]
440,312,14164,2,0,L|448:240,1,70,2|0,0:0|0:0,0:0:0:0:
504,200,14824,2,0,P|479:175|445:167,1,70,0|0,0:0|0:0,0:0:0:0:
376,164,15483,2,0,L|384:92,1,70,2|0,0:0|0:0,0:0:0:0:
380,24,16143,2,0,P|346:31|321:56,1,70,0|0,0:0|0:0,0:0:0:0:
304,124,16802,6,0,L|296:193,1,70,2|0,0:0|0:0,0:0:0:0:
228,204,17461,2,0,L|235:134,1,70,0|0,0:0|0:0,0:0:0:0:
236,64,18121,2,0,P|202:71|177:96,1,70,2|0,0:0|0:0,0:0:0:0:
160,164,18780,2,0,L|152:236,1,70,0|0,0:0|0:0,0:0:0:0:
84,248,19439,6,0,P|92:281|116:305,1,70,4|0,0:0|0:0,0:0:0:0:
256,304,20758,2,0,P|280:279|288:246,1,70,2|0,0:0|0:0,0:0:0:0:
224,156,21747,1,2,0:0:0:0:
240,124,21912,1,0,0:0:0:0:
272,108,22077,2,0,P|337:121|360:184,1,140,2|2,0:0|0:0,0:0:0:0:
359,184,24055,1,0,0:0:0:0:
500,184,24714,22,0,L|507:114,1,70,2|0,0:0|0:0,0:0:0:0:
372,76,26033,2,0,L|379:6,2,70,2|0|2,0:0|0:0|0:0,0:0:0:0:
368,112,28011,5,0,0:0:0:0:
364,148,28670,1,2,0:0:0:0:
360,184,29329,1,0,0:0:0:0:
428,316,29989,6,0,P|388:288|340:272,1,97.9999970092774,4|0,0:0|0:0,0:0:0:0:
256,320,30978,1,0,0:0:0:0:
84,316,31307,2,0,P|124:288|172:272,1,97.9999970092774,2|0,0:0|0:0,0:0:0:0:
256,224,32296,1,2,0:0:0:0:
256,176,32461,1,0,0:0:0:0:
256,128,32626,1,2,0:0:0:0:
352,108,32956,22,0,P|364:88|372:60,1,48.9999985046387
141,64,33615,2,0,P|148:87|160:108,1,48.9999985046387,0|2,0:0|0:0,0:0:0:0:
256,128,34274,1,0,0:0:0:0:
336,252,34604,1,2,0:0:0:0:
176,252,34934,1,0,0:0:0:0:
256,128,35263,1,2,0:0:0:0:
448,84,35923,6,0,P|408:112|361:127,1,97.9999970092774,0|2,0:0|0:0,0:0:0:0:
256,128,36912,1,0,0:0:0:0:
151,127,37241,2,0,P|104:112|64:84,2,97.9999970092774,2|2|0,0:0|0:0|0:0,0:0:0:0:
180,128,39219,5,2,0:0:0:0:
212,128,39879,1,0,0:0:0:0:
92,300,40538,22,0,L|84:228,1,70,4|0,0:0|0:0,0:0:0:0:
28,188,41198,2,0,P|52:163|86:155,1,70
148,188,41857,2,0,L|217:180,1,70,2|0,0:0|0:0,0:0:0:0:
260,236,42516,2,0,P|284:212|292:178,1,70,0|2,0:0|0:0,0:0:0:0:
292,177,43011,1,0,0:0:0:0:
292,177,43175,1,2,0:0:0:0:
348,136,43505,6,0,P|323:111|289:103,1,70,0|0,0:0|0:0,0:0:0:0:
252,44,44164,2,0,L|183:52,1,70,0|2,0:0|0:0,0:0:0:0:
184,212,44824,1,0,0:0:0:0:
60,132,45154,1,2,0:0:0:0:
60,292,45484,1,0,0:0:0:0:
184,212,45813,1,2,0:0:0:0:
304,40,46472,6,0,P|356:80|372:152,1,140,0|2,0:0|0:0,0:0:0:0:
370,220,47461,1,0,0:0:0:0:
371,293,47791,2,0,P|443:273|483:224,2,140,2|2|0,0:0|0:0|0:0,0:0:0:0:
340,292,49769,21,2,0:0:0:0:
308,292,50428,1,0,0:0:0:0:
96,80,51088,6,0,P|54:105|31:148,1,97.9999970092774,4|0,0:0|0:0,0:0:0:0:
148,164,51747,2,0,L|185:257,1,97.9999970092774
327,254,52406,2,0,L|364:164,1,97.9999970092774,2|0,0:0|0:0,0:0:0:0:
480,148,53066,2,0,P|457:105|416:80,1,97.9999970092774,0|2,0:0|0:0,0:0:0:0:
416,80,53560,1,0,0:0:0:0:
416,80,53725,1,2,0:0:0:0:
300,100,54055,6,0,P|256:84|208:100,1,97.9999970092774
212,216,54714,2,0,P|256:232|304:216,1,97.9999970092774,0|2,0:0|0:0,0:0:0:0:
380,240,55373,1,0,0:0:0:0:
256,160,55703,1,2,0:0:0:0:
132,240,56033,1,0,0:0:0:0:
256,320,56362,21,2,0:0:0:0:
320,172,57022,2,0,P|256:232|188:172,1,195.999994018555,0|2,0:0|0:0,0:0:0:0:
416,80,58340,6,0,P|458:105|481:148,1,97.9999970092774,0|0,0:0|0:0,0:0:0:0:
364,164,59000,2,0,L|327:254,1,97.9999970092774,2|0,0:0|0:0,0:0:0:0:
184,255,59659,2,0,L|148:164,1,97.9999970092774
32,148,60318,2,0,P|55:105|96:80,1,97.9999970092774,2|0,0:0|0:0,0:0:0:0:
188,160,60978,2,0,P|256:100|320:160,1,195.999994018555,0|4,0:0|0:0,0:0:0:0:
256,36,62296,6,0,L|256:176,1,140,0|2,0:0|0:0,0:0:0:0:
188,160,63285,2,0,P|155:167|130:192,1,70
324,160,63945,2,0,P|357:167|382:192,1,70,0|4,0:0|0:0,0:0:0:0:
192,284,64934,6,0,P|256:308|320:284,1,140,0|2,0:0|0:0,0:0:0:0:
384,316,65923,2,0,P|392:280|384:248,1,70
464,68,66582,2,0,P|456:104|464:136,1,70,0|4,0:0|0:0,0:0:0:0:
464,136,67571,6,0,L|324:152,1,140,0|2,0:0|0:0,0:0:0:0:
296,88,68560,2,0,L|227:95,1,70,0|0,0:0|0:0,0:0:0:0:
36,44,69219,2,0,L|105:37,1,70,0|4,0:0|0:0,0:0:0:0:
192,228,70208,6,0,P|256:252|320:228,1,140,0|2,0:0|0:0,0:0:0:0:
380,92,71197,1,0,0:0:0:0:
256,12,71527,1,0,0:0:0:0:
132,92,71857,1,0,0:0:0:0:
256,172,72186,5,4,0:0:0:0:
256,192,72351,12,4,74824,0:0:0:0:
