osu file format v13

[General]
AudioFilename: 05 Land of Grace.mp3
AudioLeadIn: 0
PreviewTime: 52473
Countdown: 1
SampleSet: Soft
StackLeniency: 0.7
Mode: 0
LetterboxInBreaks: 1
WidescreenStoryboard: 0

[Editor]
Bookmarks: 73735
DistanceSpacing: 2
BeatDivisor: 4
GridSize: 4
TimelineZoom: 1.4

[Metadata]
Title:Land of Grace
TitleUnicode:Land of Grace
Artist:Raujika
ArtistUnicode:Raujika
Creator:ebugers
Version:Insane
Source:
Tags:Fairy Tale Sounds of colour instrumental
BeatmapID:424947
BeatmapSetID:176440

[Difficulty]
HPDrainRate:7
CircleSize:4
OverallDifficulty:8
ApproachRate:9
SliderMultiplier:1.9
SliderTickRate:4

[Events]
//Background and Video events
0,0,"grace.jpg",0,0
//Break Periods
//Storyboard Layer 0 (Background)
//Storyboard Layer 1 (Fail)
//Storyboard Layer 2 (Pass)
//Storyboard Layer 3 (Foreground)
//Storyboard Sound Samples
//Background Colour Transformations
3,100,163,162,255

[TimingPoints]
920,582.52427184466,3,2,0,20,1,0
3832,-66.6666666666667,3,2,1,50,0,0
24803,-133.333333333333,3,2,0,50,0,0
25386,-100,3,2,0,50,0,0
26114,-66.6666666666667,3,2,1,30,0,0
28298,-66.6666666666667,3,2,1,50,0,0
28444,-66.6666666666667,3,2,1,30,0,0
30628,-100,3,2,1,50,0,0
31793,-66.6666666666667,3,2,1,30,0,0
37619,-100,3,2,1,50,0,0
38201,-66.6666666666667,3,2,1,50,0,0
41114,-66.6666666666667,3,2,1,30,0,0
42279,-66.6666666666667,3,2,1,50,0,0
45191,-66.6666666666667,3,2,1,30,0,0
51017,-133.333333333333,3,2,1,50,0,0
51599,-100,3,2,1,40,0,0
52182,-66.6666666666667,3,2,1,70,0,0
52764,-66.6666666666667,3,2,1,50,0,1
73735,-66.6666666666667,3,2,1,50,0,0
74900,-66.6666666666667,3,2,1,30,0,0
79560,-100,3,2,1,50,0,0
80580,-66.6666666666667,3,2,1,30,0,0
85386,-100,3,2,1,30,0,0
86551,-100,3,2,1,20,0,0
88298,-66.6666666666667,3,2,1,50,0,0
93541,-100,3,2,1,30,0,0
94560,-66.6666666666667,3,2,1,50,0,0
97764,-66.6666666666667,3,2,1,30,0,0
98201,-66.6666666666667,3,2,1,50,0,0
101696,-66.6666666666667,3,2,1,30,0,0
104609,-66.6666666666667,3,2,1,40,0,0
105191,-66.6666666666667,3,2,1,50,0,0
106939,-66.6666666666667,3,2,1,40,0,0
107521,-66.6666666666667,3,2,1,30,0,0
108686,-66.6666666666667,3,2,1,50,0,0
112764,-66.6666666666667,3,2,1,30,0,0
115677,-66.6666666666667,3,2,1,50,0,0
118007,-66.6666666666667,3,2,1,30,0,0
119754,-66.6666666666667,3,2,1,50,0,0
122667,-66.6666666666667,3,2,1,30,0,0
126745,-66.6666666666667,3,2,1,50,0,0

[HitObjects]
0,80,920,6,0,L|24:144,1,47.5
248,116,1211,2,0,L|232:72,1,47.5,2|0,0:0|0:0,0:0:0:0:
124,128,1502,2,0,L|140:172,1,47.5,0|0,0:0|0:0,0:0:0:0:
376,164,1793,2,0,L|360:120,1,47.5,2|0,0:0|0:0,0:0:0:0:
280,224,2085,1,0,0:0:0:0:
376,272,2230,1,0,0:0:0:0:
256,192,2376,12,4,3832,3:0:0:0:
96,112,4123,6,0,P|80:144|72:208,1,71.2500027179719,2|0,0:0|0:0,0:0:0:0:
64,264,4415,2,0,P|128:248|216:264,1,142.500005435944,2|0,0:0|0:0,0:0:0:0:
288,280,4852,1,0,0:0:0:0:
368,256,4997,1,2,0:0:0:0:
280,104,5288,1,4,3:0:0:0:
112,112,5580,2,0,P|128:184|200:240,1,142.500005435944,4|0,3:0|0:0,0:0:0:0:
144,312,6017,1,0,0:0:0:0:
232,304,6162,6,0,B|288:296|288:296|328:304|328:304|392:296,1,142.500005435944,8|0,3:2|0:0,0:0:0:0:
456,288,6599,1,0,0:0:0:0:
435,152,6745,2,0,P|428:186|408:216,1,71.2500027179719,2|0,0:0|0:0,0:0:0:0:
332,48,7036,2,0,P|352:77|360:112,1,71.2500027179719,2|0,0:0|0:0,0:0:0:0:
248,64,7327,2,0,P|208:40|80:48,1,142.500005435944,4|2,3:0|0:0,0:0:0:0:
114,349,7910,6,0,P|184:351|248:320,1,142.500005435944,0|2,0:0|0:0,0:0:0:0:
16,192,8492,1,4,3:0:0:0:
256,192,8784,1,2,0:0:0:0:
136,96,9075,1,4,3:0:0:0:
184,336,9366,1,2,0:0:0:0:
40,328,9657,6,0,B|104:288|104:288|136:200,1,142.500005435944,0|0,0:0|0:0,0:0:0:0:
64,168,10094,1,0,0:0:0:0:
208,240,10240,2,0,P|280:224|400:232,1,142.500005435944,2|2,0:0|0:0,0:0:0:0:
488,160,10822,1,4,3:0:0:0:
328,104,11114,1,0,0:0:0:0:
496,64,11405,5,2,0:0:0:0:
376,184,11696,1,2,0:0:0:0:
392,16,11987,2,0,L|248:32,1,142.500005435944
240,224,12424,1,0,0:0:0:0:
376,184,12570,2,0,B|296:168|240:224|240:224|248:176|288:144,1,213.750008153916,4|0,3:0|0:0,0:0:0:0:
304,288,13153,6,0,B|256:328|200:304|200:304|128:296|96:360,1,213.750008153916,8|0,3:2|0:0,0:0:0:0:
240,224,13735,2,0,B|160:208|96:240|96:240|104:192|48:152,1,213.750008153916,2|0,0:0|0:0,0:0:0:0:
8,232,14318,1,4,3:0:0:0:
144,128,14609,2,0,P|184:128|224:112,1,71.2500027179719,2|0,0:0|0:0,0:0:0:0:
160,32,14900,6,0,P|88:48|48:112,1,142.500005435944,2|0,0:0|0:0,0:0:0:0:
80,184,15337,1,0,0:0:0:0:
160,208,15483,1,2,0:0:0:0:
328,176,15774,1,2,0:0:0:0:
216,304,16065,1,4,3:0:0:0:
216,136,16356,2,0,L|144:120,1,71.2500027179719
328,176,16648,6,0,L|512:160,1,142.500005435944
160,224,17085,1,0,0:0:0:0:
328,256,17230,2,0,L|512:240,1,142.500005435944,2|2,0:0|0:0,0:0:0:0:
384,96,17813,1,4,3:0:0:0:
216,72,18104,1,2,0:0:0:0:
160,224,18395,5,0,0:0:0:0:
328,256,18686,1,2,0:0:0:0:
216,72,18978,2,0,P|176:96|88:88,1,71.2500027179719,4|0,3:0|0:0,0:0:0:0:
152,16,19269,1,2,0:0:0:0:
312,80,19560,1,4,3:0:0:0:
288,248,19852,1,2,0:0:0:0:
128,152,20143,5,0,0:0:0:0:
128,152,20725,2,0,P|104:120|48:104,1,71.2500027179719,2|0,0:0|0:0,0:0:0:0:
216,256,21017,2,0,P|240:288|296:304,1,71.2500027179719,2|0,0:0|0:0,0:0:0:0:
144,144,21308,2,0,P|127:112|98:92,1,71.2500027179719,4|0,3:0|0:0,0:0:0:0:
200,256,21599,2,0,P|216:287|245:307,1,71.2500027179719,2|0,0:0|0:0,0:0:0:0:
96,240,21890,5,8,3:2:0:0:
248,160,22036,1,0,0:0:0:0:
144,144,22182,1,2,0:0:0:0:
320,88,22327,1,0,0:0:0:0:
208,56,22473,1,4,3:0:0:0:
320,88,22619,1,0,0:0:0:0:
248,160,22764,1,0,0:0:0:0:
144,144,22910,1,0,0:0:0:0:
328,216,23055,2,0,B|376:152|472:160|472:160|368:112,1,213.750008153916,4|0,3:0|0:0,0:0:0:0:
236,164,23638,6,0,B|172:116|180:20|180:20|132:124,1,213.750008153916,2|0,0:0|0:0,0:0:0:0:
200,256,24220,6,0,B|152:320|56:312|56:312|160:360,1,213.750008153916,2|0,0:0|0:0,0:0:0:0:
304,264,24803,6,0,P|376:272|456:240,1,142.500005435944,6|0,0:0|0:0,0:0:0:0:
360,136,25677,1,0,0:0:0:0:
248,160,25968,2,0,L|216:152,2,23.75,2|2|0,0:0|0:0|0:0,0:0:0:0:
304,264,26259,2,0,P|240:288|128:288,1,142.500005435944,4|4,3:0|3:0,0:0:0:0:
72,224,26842,2,0,L|40:312,1,71.2500027179719
168,308,27133,6,0,P|239:303|306:279,1,142.500005435944,8|0,3:1|0:0,0:0:0:0:
432,80,27716,1,2,0:0:0:0:
280,208,27861,1,2,0:0:0:0:
320,104,28007,2,0,L|208:96,1,71.2500027179719,0|0,0:0|0:0,0:0:0:0:
136,88,28298,2,0,L|72:80,2,35.625001358986,2|2|0,0:0|0:0|0:0,0:0:0:0:
240,136,28589,1,0,0:0:0:0:
24,104,28735,1,0,0:0:0:0:
88,192,28881,6,0,B|48:224|48:296|48:296|16:256,1,142.500005435944,8|2,3:1|0:0,0:0:0:0:
152,272,29318,1,0,0:0:0:0:
255,247,29463,2,0,P|287:263|312:289,1,71.2500027179719,2|0,0:0|0:0,0:0:0:0:
377,232,29754,2,0,P|361:200|336:176,1,71.2500027179719,2|0,0:0|0:0,0:0:0:0:
98,121,30046,2,0,L|240:136,1,142.500005435944
288,32,30483,1,0,0:0:0:0:
104,232,30628,6,0,L|64:280,1,47.5,8|0,3:1|0:0,0:0:0:0:
184,280,30919,2,0,L|160:344,1,47.5,2|0,0:0|0:0,0:0:0:0:
280,280,31211,2,0,L|272:360,1,47.5,2|0,0:0|0:0,0:0:0:0:
368,248,31502,2,0,L|384:320,1,47.5,2|0,0:0|0:0,0:0:0:0:
424,176,31793,1,0,0:0:0:0:
432,160,31866,1,0,0:0:0:0:
436,148,31939,2,0,B|432:120|412:104|412:104|296:72,1,142.500005435944,2|0,0:0|0:0,0:0:0:0:
92,192,32667,5,2,0:0:0:0:
148,124,32958,1,4,3:0:0:0:
160,120,33031,1,2,0:0:0:0:
172,116,33104,1,2,0:0:0:0:
256,124,33250,1,4,3:0:0:0:
64,112,33395,1,0,0:0:0:0:
208,192,33541,2,0,B|252:212|284:200|284:200|324:180|396:224,1,142.500005435944,4|0,3:0|0:0,0:0:0:0:
312,280,33978,1,0,0:0:0:0:
256,124,34123,6,0,P|180:112|120:192,1,142.500005435944,8|0,3:1|0:0,0:0:0:0:
60,308,34706,1,2,0:0:0:0:
76,308,34779,1,2,0:0:0:0:
92,304,34852,1,2,0:0:0:0:
164,256,34997,2,0,L|280:268,1,71.2500027179719
252,348,35288,2,0,L|432:324,1,142.500005435944,0|2,0:0|0:0,0:0:0:0:
448,220,35725,1,0,0:0:0:0:
224,184,35871,5,8,3:1:0:0:
164,256,36017,1,0,0:0:0:0:
372,168,36162,1,2,0:0:0:0:
312,272,36308,1,0,0:0:0:0:
288,120,36453,2,0,P|272:80|236:44,1,71.2500027179719,2|0,0:0|0:0,0:0:0:0:
184,104,36744,2,0,P|155:82|122:70,1,71.2500027179719,2|0,0:0|0:0,0:0:0:0:
56,128,37036,2,0,B|64:180|25:226|25:226|76:192,1,142.500005435944,2|0,0:0|0:0,0:0:0:0:
136,176,37473,1,0,0:0:0:0:
172,256,37619,6,0,L|200:320,1,47.5,0|2,0:0|0:0,0:0:0:0:
244,276,37910,2,0,L|312:328,1,47.5,0|2,0:0|0:0,0:0:0:0:
356,260,38201,2,0,L|424:248,2,35.625001358986,2|2|2,0:0|0:0|0:0,0:0:0:0:
288,196,38492,1,0,0:0:0:0:
324,120,38638,1,0,0:0:0:0:
288,196,38784,2,0,P|216:200|128:168,1,142.500005435944,4|0,3:0|0:0,0:0:0:0:
8,280,39220,2,0,P|80:284|168:252,1,142.500005435944
60,144,39657,5,2,0:0:0:0:
128,92,39803,1,0,0:0:0:0:
184,156,39949,1,2,0:0:0:0:
116,204,40094,1,0,0:0:0:0:
128,92,40240,1,2,0:0:0:0:
256,232,40386,1,2,0:0:0:0:
384,92,40531,2,0,L|420:56,2,35.625001358986,4|2|2,3:0|0:0|0:0,0:0:0:0:
384,92,41114,5,8,3:1:0:0:
352,172,41259,1,0,0:0:0:0:
272,204,41405,1,0,0:0:0:0:
188,192,41551,1,0,0:0:0:0:
124,136,41696,1,2,0:0:0:0:
384,100,41842,1,2,0:0:0:0:
352,180,41987,1,2,0:0:0:0:
272,212,42133,1,2,0:0:0:0:
188,200,42279,2,0,L|152:288,1,71.2500027179719,4|0,3:0|0:0,0:0:0:0:
120,140,42570,2,0,L|76:244,1,71.2500027179719
284,144,42861,6,0,L|320:232,1,71.2500027179719,8|0,3:1|0:0,0:0:0:0:
352,84,43152,2,0,L|396:188,1,71.2500027179719,0|2,0:0|0:0,0:0:0:0:
188,200,43444,1,0,0:0:0:0:
352,84,43589,1,2,0:0:0:0:
120,140,43735,1,0,0:0:0:0:
416,140,43881,1,2,0:0:0:0:
204,116,44026,2,0,P|160:60|80:64,1,142.500005435944,4|0,3:0|0:0,0:0:0:0:
92,224,44463,1,0,0:0:0:0:
8,200,44609,6,0,P|52:144|132:148,1,142.500005435944,8|0,3:1|0:0,0:0:0:0:
204,116,45046,1,0,0:0:0:0:
192,204,45191,2,0,L|280:240,1,71.2500027179719
332,188,45482,2,0,L|444:192,1,71.2500027179719
308,104,45774,2,0,L|124:124,1,142.500005435944,4|2,3:0|0:0,0:0:0:0:
80,132,46211,1,2,0:0:0:0:
100,216,46356,5,8,3:1:0:0:
160,276,46502,1,0,0:0:0:0:
240,300,46648,1,2,0:0:0:0:
324,300,46793,1,0,0:0:0:0:
400,264,46939,1,2,0:0:0:0:
452,196,47085,1,0,0:0:0:0:
472,112,47230,1,2,0:0:0:0:
276,124,47521,5,4,3:0:0:0:
276,124,47594,1,2,0:0:0:0:
276,124,47667,1,2,0:0:0:0:
276,124,48104,5,8,3:1:0:0:
132,104,48250,1,2,0:0:0:0:
88,228,48395,1,0,0:0:0:0:
208,92,48541,1,0,0:0:0:0:
84,156,48686,1,2,0:0:0:0:
136,280,48832,1,0,0:0:0:0:
132,104,48978,1,2,0:0:0:0:
88,228,49123,1,0,0:0:0:0:
204,288,49269,2,0,L|392:264,1,142.500005435944,4|0,3:0|0:0,0:0:0:0:
416,220,49706,1,0,0:0:0:0:
200,192,49852,6,0,L|388:168,1,142.500005435944,8|2,3:1|0:0,0:0:0:0:
412,124,50288,1,2,0:0:0:0:
336,84,50434,2,0,L|224:100,1,71.2500027179719,0|2,0:0|0:0,0:0:0:0:
100,104,50725,2,0,L|212:120,1,71.2500027179719,2|0,0:0|0:0,0:0:0:0:
340,164,51017,2,0,P|296:180|224:152,1,106.875004076958,4|0,3:0|0:0,0:0:0:0:
288,96,51599,6,0,P|216:84|164:128,1,142.5,4|0,3:0|0:0,0:0:0:0:
184,280,52182,2,0,P|80:220|68:96,1,213.750008153916,4|0,3:0|0:0,0:0:0:0:
80,52,52764,1,6,0:0:0:0:
204,128,52910,1,0,0:0:0:0:
184,280,53055,1,2,3:0:0:0:
360,336,53201,1,0,0:0:0:0:
456,196,53347,5,8,3:1:0:0:
372,48,53492,1,0,0:0:0:0:
292,148,53638,2,0,P|300:183|372:208,1,71.2500027179719
184,280,53929,2,0,P|160:304|148:396,1,71.2500027179719,2|0,0:0|0:0,0:0:0:0:
456,196,54220,2,0,P|476:168|478:128,1,71.2500027179719,2|0,3:0|0:0,0:0:0:0:
112,101,54512,2,0,B|92:108|92:108|148:136|128:212,1,142.500005435944,4|0,3:0|0:0,0:0:0:0:
48,180,54949,1,0,0:0:0:0:
192,80,55094,6,0,P|236:88|288:116,1,71.2500027179719,8|0,3:1|0:0,0:0:0:0:
332,144,55386,1,0,0:0:0:0:
384,208,55531,1,0,0:0:0:0:
192,80,55677,2,0,P|204:113|210:148,1,71.2500027179719,2|0,0:0|0:0,0:0:0:0:
204,232,55968,1,2,3:0:0:0:
180,316,56114,1,0,0:0:0:0:
120,256,56259,2,0,B|88:272|88:272|4:288,1,71.2500027179719,4|0,3:0|0:0,0:0:0:0:
204,232,56551,2,0,B|238:238|238:238|270:254,1,71.2500027179719,2|0,0:0|0:0,0:0:0:0:
140,172,56842,5,8,3:1:0:0:
264,104,56987,1,0,0:0:0:0:
288,244,57133,1,2,3:0:0:0:
152,168,57279,1,0,0:0:0:0:
276,100,57424,1,0,0:0:0:0:
300,240,57570,1,0,0:0:0:0:
164,164,57716,1,2,3:0:0:0:
288,96,57861,1,0,0:0:0:0:
312,236,58007,2,0,P|348:256|392:264,1,71.2500027179719,4|0,3:0|0:0,0:0:0:0:
444,136,58298,2,0,P|478:126|509:108,1,71.2500027179719,2|0,0:0|0:0,0:0:0:0:
288,96,58589,6,0,P|224:68|116:68,1,142.500005435944,8|0,3:1|0:0,0:0:0:0:
68,76,59026,1,0,0:0:0:0:
16,144,59172,2,0,L|-8:228,1,71.2500027179719,2|0,0:0|0:0,0:0:0:0:
156,192,59463,2,0,L|240:216,1,71.2500027179719,2|0,0:0|0:0,0:0:0:0:
24,168,59754,2,0,L|16:256,1,71.2500027179719,4|0,3:0|0:0,0:0:0:0:
180,184,60046,2,0,L|268:192,1,71.2500027179719,2|0,0:0|0:0,0:0:0:0:
336,200,60337,5,8,3:1:0:0:
316,116,60483,1,0,0:0:0:0:
400,100,60628,1,2,0:0:0:0:
420,184,60774,1,0,0:0:0:0:
392,264,60919,1,0,0:0:0:0:
256,176,61065,1,0,0:0:0:0:
340,40,61211,1,2,3:0:0:0:
476,124,61356,1,0,0:0:0:0:
288,272,61502,2,0,B|252:268|220:296|220:296|88:304,1,142.500005435944,4|0,3:0|0:0,0:0:0:0:
24,192,61939,1,0,0:0:0:0:
151,83,62085,6,0,B|220:88|220:88|252:116|288:112,1,142.500005435944,8|0,3:1|0:0,0:0:0:0:
284,28,62521,1,0,0:0:0:0:
104,192,62667,2,0,L|284:192,1,142.500005435944,2|2,0:0|3:0,0:0:0:0:
320,236,63104,1,0,0:0:0:0:
360,312,63250,2,0,P|400:324|456:320,1,71.2500027179719,4|0,3:0|0:0,0:0:0:0:
336,148,63541,2,0,P|300:149|266:160,1,71.2500027179719,2|0,0:0|0:0,0:0:0:0:
172,196,63832,6,0,P|100:216|4:156,1,142.500005435944,8|0,3:1|0:0,0:0:0:0:
104,112,64269,1,0,0:0:0:0:
172,196,64415,2,0,L|152:280,1,71.2500027179719,2|0,0:0|0:0,0:0:0:0:
320,236,64706,2,0,L|404:256,1,71.2500027179719,2|0,0:0|0:0,0:0:0:0:
156,264,64997,1,4,3:0:0:0:
248,296,65143,1,0,0:0:0:0:
304,144,65288,1,0,0:0:0:0:
396,176,65434,1,0,0:0:0:0:
144,248,65580,5,8,3:1:0:0:
236,280,65726,1,0,0:0:0:0:
292,128,65871,1,0,0:0:0:0:
384,160,66017,1,0,0:0:0:0:
160,128,66162,2,0,P|120:128|60:164,1,71.2500027179719,2|0,0:0|0:0,0:0:0:0:
292,128,66453,2,0,P|332:128|392:92,1,71.2500027179719,2|0,3:0|0:0,0:0:0:0:
232,200,66745,2,0,B|168:204|120:232|120:232|80:280,2,142.500005435944,4|2|8,3:0|0:0|3:1,0:0:0:0:
320,228,67473,5,0,0:0:0:0:
376,160,67619,1,2,0:0:0:0:
308,212,67764,1,0,0:0:0:0:
308,92,67910,1,0,0:0:0:0:
296,196,68055,1,0,0:0:0:0:
220,80,68201,1,2,3:0:0:0:
280,176,68347,1,0,0:0:0:0:
144,124,68492,2,0,L|40:136,1,71.2500027179719,4|0,3:0|0:0,0:0:0:0:
72,248,68784,2,0,L|176:260,1,71.2500027179719,2|0,0:0|0:0,0:0:0:0:
256,344,69075,6,0,B|268:296|268:296|296:264|296:264|312:192,1,142.500005435944,8|0,3:1|0:0,0:0:0:0:
320,120,69512,1,0,0:0:0:0:
376,272,69657,2,0,L|392:184,1,71.2500027179719,2|0,0:0|0:0,0:0:0:0:
224,220,69949,2,0,L|240:132,1,71.2500027179719,2|0,0:0|0:0,0:0:0:0:
372,248,70240,2,0,L|388:160,1,71.2500027179719,4|0,3:0|0:0,0:0:0:0:
220,196,70532,2,0,L|236:108,1,71.2500027179719
368,216,70822,6,0,L|384:128,1,71.2500027179719,8|0,3:1|0:0,0:0:0:0:
216,164,71114,2,0,L|232:76,1,71.2500027179719,2|0,0:0|0:0,0:0:0:0:
128,28,71405,1,0,0:0:0:0:
148,112,71551,1,0,0:0:0:0:
64,88,71696,1,2,3:0:0:0:
84,172,71842,1,0,0:0:0:0:
44,248,71987,2,0,B|104:244|144:293|144:293|132:228,1,142.500005435944,4|0,3:0|0:0,0:0:0:0:
44,248,72424,1,0,0:0:0:0:
312,280,72570,6,0,B|252:284|212:234|212:234|224:300,1,142.500005435944,2|0,0:0|0:0,0:0:0:0:
258,144,73007,1,0,0:0:0:0:
372,188,73153,2,0,P|296:192|260:104,1,142.500005435944,2|0,0:0|0:0,0:0:0:0:
344,104,73589,1,0,0:0:0:0:
344,104,73735,1,4,0:0:0:0:
344,104,74900,5,2,0:0:0:0:
264,136,75191,1,0,0:0:0:0:
180,116,75336,1,0,0:0:0:0:
128,48,75483,2,0,P|96:88|132:184,1,142.500005435944
180,224,75992,1,0,0:0:0:0:
180,224,76065,2,0,B|144:260|92:248|92:248|32:288,1,142.500005435944,2|0,0:0|0:0,0:0:0:0:
256,272,76648,1,2,0:0:0:0:
260,276,76793,1,0,0:0:0:0:
264,280,76939,2,0,B|312:280|344:264|344:264|364:220|416:204,1,142.500005435944
464,228,77521,1,2,0:0:0:0:
468,224,77666,1,0,0:0:0:0:
472,220,77812,6,0,B|472:172|456:140|456:140|412:120|396:68,1,142.500005435944
186,88,78395,2,0,B|240:88|240:88|272:96|272:96|328:96,1,142.500005435944
26,192,78978,2,0,B|80:192|80:192|112:200|112:200|168:200,1,142.500005435944
256,272,79560,6,0,L|272:328,1,47.5,0|2,0:0|0:0,0:0:0:0:
416,192,79852,2,0,L|432:248,1,47.5,0|2,0:0|0:0,0:0:0:0:
160,264,80143,2,0,L|176:320,1,47.5,0|2,0:0|0:0,0:0:0:0:
320,184,80435,2,0,L|336:240,1,47.5
292,104,80725,1,0,0:0:0:0:
208,80,81017,1,0,0:0:0:0:
176,72,81162,1,0,0:0:0:0:
144,64,81308,5,2,0:0:0:0:
292,104,81599,1,0,0:0:0:0:
236,208,81890,1,0,0:0:0:0:
128,152,82182,1,2,0:0:0:0:
96,160,82328,1,0,0:0:0:0:
64,168,82473,1,0,0:0:0:0:
16,276,82764,1,0,0:0:0:0:
152,344,83055,6,0,B|232:348|232:348|296:336|296:336|376:296,1,213.750008153916,2|0,0:0|0:0,0:0:0:0:
347,220,83638,2,0,P|415:235|444:297,1,142.500005435944
264,252,84075,1,0,0:0:0:0:
184,228,84220,2,0,B|132:212|96:184|96:184|76:160|64:124,1,142.500005435944
0,192,84657,1,0,0:0:0:0:
73,236,84803,6,0,B|76:224|96:200|96:200|132:172|184:156,1,142.500005435944,2|0,0:0|0:0,0:0:0:0:
292,120,85386,2,0,L|316:64,2,47.5
396,168,85968,2,0,P|352:216|296:232,1,95
240,236,86405,1,0,0:0:0:0:
144,232,86551,6,0,L|84:276,1,47.5,0|2,0:0|0:0,0:0:0:0:
64,176,86842,2,0,L|0:188,1,47.5,0|2,0:0|0:0,0:0:0:0:
40,92,87133,2,0,L|4:84,1,23.75,2|2,0:0|0:0,0:0:0:0:
256,84,87570,1,4,3:0:0:0:
344,48,87716,2,0,L|364:208,1,142.5,4|0,3:0|0:0,0:0:0:0:
372,276,88298,1,8,3:1:0:0:
444,172,88589,5,2,0:0:0:0:
440,252,88880,1,2,0:0:0:0:
440,252,88953,1,2,0:0:0:0:
440,252,89026,2,0,L|356:280,1,71.2500027179719,2|0,0:0|0:0,0:0:0:0:
316,204,89463,2,0,B|288:224|280:260|280:260|240:292|184:292,1,142.500005435944,4|2,3:0|0:0,0:0:0:0:
128,284,89900,1,0,0:0:0:0:
64,228,90046,6,0,B|28:168|35:109|35:109|12:136,1,142.500005435944,0|0,0:0|0:0,0:0:0:0:
184,68,90628,1,2,0:0:0:0:
176,104,90774,1,0,0:0:0:0:
168,136,90919,1,0,0:0:0:0:
340,128,91211,2,0,L|396:136,2,35.625001358986,4|0|2,3:0|0:0|0:0,0:0:0:0:
268,64,91502,1,0,0:0:0:0:
176,104,91648,1,0,0:0:0:0:
248,164,91793,6,0,P|232:232|256:308,1,142.500005435944,8|2,3:1|0:0,0:0:0:0:
408,228,92230,2,0,L|296:228,1,71.2500027179719
336,228,92449,1,2,0:0:0:0:
336,228,92521,1,2,0:0:0:0:
140,228,92667,2,0,P|76:200|32:120,2,142.500005435944,2|4|0,0:0|3:0|0:0,0:0:0:0:
160,104,93395,1,0,0:0:0:0:
216,176,93541,6,0,L|264:156,1,47.5,8|0,3:1|0:0,0:0:0:0:
416,116,93832,2,0,L|464:136,1,47.5
80,120,94123,2,0,L|128:100,1,47.5
280,60,94414,2,0,L|328:80,1,47.5
340,164,94706,2,0,B|324:232|256:244|256:244|260:328,1,142.500005435944,4|0,3:0|0:0,0:0:0:0:
256,348,95143,1,0,0:0:0:0:
172,164,95288,6,0,B|188:232|256:244|256:244|255:262,1,142.500005435944,8|2,3:1|0:0,0:0:0:0:
256,132,95871,2,0,L|256:72,2,35.625001358986,2|2|2,0:0|0:0|0:0,0:0:0:0:
172,164,96162,1,0,0:0:0:0:
240,216,96308,1,0,0:0:0:0:
184,80,96453,2,0,P|92:120|108:224,1,213.750008153916,4|0,3:0|0:0,0:0:0:0:
168,276,97036,5,8,3:1:0:0:
168,276,97764,1,0,0:0:0:0:
256,316,97910,1,0,0:0:0:0:
344,276,98055,1,0,0:0:0:0:
368,192,98201,1,4,3:0:0:0:
368,192,98274,2,0,B|300:164|308:88|308:88|256:40,1,178.12500679493,2|0,0:0|0:0,0:0:0:0:
224,128,98784,5,8,3:1:0:0:
172,60,99075,1,2,0:0:0:0:
172,60,99366,2,0,B|132:76|132:76|84:168,1,142.500005435944,2|0,0:0|0:0,0:0:0:0:
192,300,99949,1,4,3:0:0:0:
276,296,100094,1,0,0:0:0:0:
352,256,100240,1,0,0:0:0:0:
484,188,100386,1,0,0:0:0:0:
396,180,100531,6,0,P|408:144|440:112,1,71.2500027179719,8|2,3:1|0:0,0:0:0:0:
312,184,100822,2,0,P|289:156|278:123,1,71.2500027179719,0|2,0:0|0:0,0:0:0:0:
236,224,101114,1,2,0:0:0:0:
236,224,101186,2,0,B|192:216|192:216|116:224|116:224|32:208,1,178.12500679493,2|4,0:0|3:0,0:0:0:0:
120,140,101696,2,0,B|200:132|200:132|276:148,1,142.500005435944,4|0,3:0|0:0,0:0:0:0:
324,204,102133,2,0,P|348:152|304:72,1,142.500005435944
120,140,102570,6,0,L|256:144,1,71.2500027179719
392,140,102861,2,0,L|256:144,1,71.2500027179719
256,336,103153,2,0,L|256:188,1,142.500005435944,0|4,0:0|3:0,0:0:0:0:
256,193,103517,1,0,0:0:0:0:
256,193,103589,1,0,0:0:0:0:
160,268,104026,5,8,3:1:0:0:
92,216,104172,1,0,0:0:0:0:
148,152,104318,1,0,0:0:0:0:
216,204,104463,1,0,0:0:0:0:
244,284,104609,1,2,0:0:0:0:
80,296,104754,1,2,0:0:0:0:
68,140,104900,1,2,0:0:0:0:
224,124,105046,1,2,0:0:0:0:
296,172,105191,1,4,3:0:0:0:
188,344,105337,1,0,0:0:0:0:
16,248,105483,1,0,0:0:0:0:
116,76,105628,1,0,0:0:0:0:
300,92,105774,6,0,L|388:108,1,71.2500027179719,8|0,3:1|0:0,0:0:0:0:
442,196,106065,2,0,L|372:184,1,71.2500027179719
229,211,106356,2,0,L|317:227,1,71.2500027179719
372,316,106647,2,0,L|301:303,1,71.2500027179719
220,328,106939,1,4,3:0:0:0:
136,324,107085,1,0,0:0:0:0:
68,276,107230,1,0,0:0:0:0:
32,200,107376,1,0,0:0:0:0:
136,324,107521,5,8,3:1:0:0:
140,240,107667,1,0,0:0:0:0:
164,156,107813,1,0,0:0:0:0:
224,96,107958,1,0,0:0:0:0:
140,240,108104,1,0,0:0:0:0:
224,220,108250,1,0,0:0:0:0:
308,220,108395,1,0,0:0:0:0:
388,252,108541,1,0,0:0:0:0:
448,312,108686,2,0,B|476:276|476:276|456:152,1,142.500005435944,4|0,3:0|0:0,0:0:0:0:
51,180,109123,2,0,B|36:276|36:276|64:312,1,142.500005435944
308,220,109560,6,0,P|326:173|320:120,1,71.2500027179719
204,164,109852,2,0,P|185:210|192:264,1,71.2500027179719
316,208,110143,2,0,P|332:136|304:56,1,142.500005435944,0|4,0:0|3:0,0:0:0:0:
313,71,110507,1,2,0:0:0:0:
313,71,110580,1,2,0:0:0:0:
60,104,111017,5,8,3:1:0:0:
96,180,111162,1,0,0:0:0:0:
144,108,111308,1,0,0:0:0:0:
12,176,111453,1,0,0:0:0:0:
48,252,111599,2,0,L|124:320,1,71.2500027179719
176,180,111890,2,0,L|200:272,1,71.2500027179719
188,336,112182,2,0,P|264:320|428:360,1,213.750008153916,4|2,3:0|0:0,0:0:0:0:
476,308,112764,5,8,3:1:0:0:
488,224,112910,1,2,0:0:0:0:
448,148,113055,1,2,0:0:0:0:
368,120,113201,1,0,0:0:0:0:
284,140,113347,1,0,0:0:0:0:
344,200,113492,1,0,0:0:0:0:
368,120,113638,1,0,0:0:0:0:
304,60,113784,1,0,0:0:0:0:
220,80,113929,1,4,3:0:0:0:
200,164,114075,1,0,0:0:0:0:
260,224,114220,1,0,0:0:0:0:
284,140,114366,1,0,0:0:0:0:
200,164,114512,5,8,3:1:0:0:
176,244,114657,1,0,0:0:0:0:
236,304,114803,1,0,0:0:0:0:
320,288,114949,1,0,0:0:0:0:
344,208,115094,2,0,B|368:184|368:184|388:120|348:64,1,142.500005435944
252,40,115531,1,0,0:0:0:0:
154,79,115677,2,0,B|124:120|144:184|144:184|168:208,1,142.500005435944,4|0,3:0|0:0,0:0:0:0:
236,303,116114,2,0,B|212:326|212:326|148:346|108:316,1,142.500005435944,2|0,0:0|0:0,0:0:0:0:
80,236,116551,6,0,P|48:256|24:296,1,71.2500027179719,2|0,0:0|0:0,0:0:0:0:
236,304,116842,2,0,P|268:284|292:244,1,71.2500027179719,2|0,0:0|0:0,0:0:0:0:
300,172,117133,1,2,0:0:0:0:
284,88,117279,1,0,0:0:0:0:
216,36,117424,2,0,L|152:32,2,35.625001358986,4|2|0,3:0|0:0|0:0,0:0:0:0:
0,192,118007,5,8,3:1:0:0:
32,272,118153,1,0,0:0:0:0:
108,308,118298,1,2,0:0:0:0:
192,308,118444,1,0,0:0:0:0:
264,260,118589,2,0,P|288:232|312:176,1,71.2500027179719,2|0,0:0|0:0,0:0:0:0:
220,184,118881,1,0,0:0:0:0:
264,260,119026,1,0,0:0:0:0:
348,280,119172,1,4,3:0:0:0:
424,240,119318,1,0,0:0:0:0:
444,156,119463,2,0,L|384:92,1,71.2500027179719,2|0,0:0|0:0,0:0:0:0:
328,156,119754,6,0,L|240:96,1,71.2500027179719,8|0,3:1|0:0,0:0:0:0:
220,184,120046,2,0,L|96:164,1,71.2500027179719,2|0,0:0|0:0,0:0:0:0:
144,260,120337,2,0,L|24:272,1,71.2500027179719,2|0,0:0|0:0,0:0:0:0:
256,336,120628,1,2,0:0:0:0:
360,260,120774,1,0,0:0:0:0:
256,192,120919,2,0,B|196:192|144:156|144:156|148:184,1,142.500005435944,4|0,3:0|0:0,0:0:0:0:
144,260,121356,1,0,0:0:0:0:
68,184,121502,6,0,P|80:108|164:80,1,142.500005435944,8|0,3:1|0:0,0:0:0:0:
216,100,121939,1,0,0:0:0:0:
300,120,122085,2,0,B|328:96|328:96|376:92,1,71.2500027179719
380,176,122376,2,0,B|414:178|414:178|442:202,1,71.2500027179719
376,260,122667,2,0,B|316:292|316:292|188:280,1,142.500005435944,2|0,0:0|0:0,0:0:0:0:
136,260,123104,2,0,B|196:292|196:292|324:280,1,142.500005435944
216,192,123541,5,0,0:0:0:0:
132,176,123686,2,0,P|91:189|52:236,2,71.2500027179719
184,108,124123,2,0,P|172:68|120:28,1,71.2500027179719
264,124,124415,1,4,3:0:0:0:
264,124,124487,1,2,0:0:0:0:
264,124,124560,2,0,P|304:112|344:60,1,71.2500027179719,2|0,0:0|0:0,0:0:0:0:
216,192,124997,5,8,3:1:0:0:
208,212,125143,1,2,0:0:0:0:
276,248,125288,1,2,0:0:0:0:
276,268,125434,1,2,0:0:0:0:
348,272,125580,1,0,0:0:0:0:
360,292,125725,1,0,0:0:0:0:
428,264,125871,1,0,0:0:0:0:
444,280,126017,1,0,0:0:0:0:
500,216,126162,1,4,3:0:0:0:
420,180,126308,1,2,0:0:0:0:
372,112,126453,1,2,0:0:0:0:
360,28,126599,1,2,0:0:0:0:
292,80,126745,5,8,3:1:0:0:
208,100,126890,1,2,0:0:0:0:
124,96,127036,1,2,0:0:0:0:
48,56,127182,1,2,0:0:0:0:
48,140,127327,2,0,L|52:240,1,71.2500027179719
192,264,127619,2,0,L|188:164,1,71.2500027179719
104,320,127910,2,0,P|160:364|272:332,1,142.500005435944,4|0,3:0|0:0,0:0:0:0:
108,232,128347,1,0,0:0:0:0:
192,264,128492,6,0,P|261:264|316:221,1,142.500005435944,4|0,3:0|0:0,0:0:0:0:
108,232,128929,1,0,0:0:0:0:
184,184,129075,2,0,P|228:128|196:16,1,142.500005435944,4|0,3:0|0:0,0:0:0:0:
128,92,129512,1,0,0:0:0:0:
316,144,129657,1,6,0:0:0:0:
