osu file format v12

[General]
AudioFilename: 05 Land of Grace.mp3
AudioLeadIn: 0
PreviewTime: 52610
Countdown: 0
SampleSet: Soft
StackLeniency: 0.7
Mode: 0
LetterboxInBreaks: 1

[Editor]
DistanceSpacing: 0.8
BeatDivisor: 8
GridSize: 4

[Metadata]
Title:Land of Grace
TitleUnicode:Land of Grace
Artist:Raujika
ArtistUnicode:Raujika
Creator:Strawberry
Version:Hardy
Source:
Tags:Fairy Tale Sounds of colour Katty Pie a3272509123 -Baby Strawberry- intrusmental
BeatmapID:218460
BeatmapSetID:73444

[Difficulty]
HPDrainRate:6
CircleSize:4
OverallDifficulty:5
ApproachRate:7
SliderMultiplier:1.5
SliderTickRate:2

[Events]
//Background and Video events
0,0,"BG.jpg",0,0
//Break Periods
2,73926,79816
2,80916,86807
//Storyboard Layer 0 (Background)
//Storyboard Layer 1 (Fail)
//Storyboard Layer 2 (Pass)
//Storyboard Layer 3 (Foreground)
//Storyboard Sound Samples
//Background Colour Transformations
3,100,163,162,255

[TimingPoints]
2076,582.52427184466,3,2,1,60,1,0
3823,-66.6666666666667,3,2,1,60,0,0
24794,-66.6666666666667,3,2,1,50,0,0
37901,-66.6666666666667,3,2,1,40,0,0
38046,-66.6666666666667,3,2,1,45,0,0
38192,-100,3,2,1,50,0,0
38483,-50,3,2,1,50,0,0
52755,-50,3,2,0,60,0,1
59745,-66.6666666666667,3,2,1,60,0,1
61493,-50,3,2,1,60,0,1
62075,-66.6666666666667,3,2,1,60,0,1
62658,-100,3,2,1,60,0,1
63241,-66.6666666666667,3,2,1,60,0,1
64406,-50,3,2,1,60,0,1
72561,-66.6666666666667,3,2,1,60,0,1
73143,-100,3,2,1,60,0,1
73726,-50,3,2,0,40,0,0
80716,-50,3,2,0,60,0,0
87707,-100,3,2,1,50,0,0
88289,-66.6666666666667,3,2,1,50,0,0
91202,-100,3,2,1,50,0,0
91930,-66.6666666666667,3,2,1,50,0,0
98192,-100,3,2,1,50,0,0
98920,-66.6666666666667,3,2,1,50,0,0
101687,-50,3,2,0,60,0,0
115085,-100,3,2,1,60,0,0
115668,-50,3,2,0,60,0,1
129503,-50,3,2,1,60,0,0
129648,-50,3,2,0,60,0,1
129794,-50,3,2,0,60,0,0

[Colours]
Combo1 : 238,166,17
Combo2 : 0,128,255
Combo3 : 248,75,149
Combo4 : 124,241,180

[HitObjects]
256,192,2658,12,0,3823,0:0:0:0:
296,168,4114,6,0,P|312:140|312:112,2,56.2500021457673,0|0|2,0:0|0:0|0:0,0:0:0:0:
220,116,4697,1,0,0:0:0:0:
204,204,4988,2,0,P|244:256|288:268,1,112.500004291535,2|0,0:0|0:0,0:0:0:0:
372,232,5571,5,0,0:0:0:0:
392,144,5862,2,0,P|412:128|444:124,2,56.2500021457673,2|0|0,0:0|0:0|0:0,0:0:0:0:
460,208,6444,2,0,P|485:211|510:231,2,56.2500021457673,2|0|0,0:0|0:0|0:0,0:0:0:0:
372,232,7027,1,2,0:0:0:0:
332,316,7318,6,0,P|394:324|436:300,1,112.500004291535,0|2,0:0|0:0,0:0:0:0:
316,156,7901,2,0,P|276:206|277:252,1,112.500004291535,0|2,0:0|0:0,0:0:0:0:
464,224,8483,2,0,P|440:165|399:142,1,112.500004291535,0|2,0:0|0:0,0:0:0:0:
372,232,9066,5,2,0:0:0:0:
424,312,9357,1,0,0:0:0:0:
436,324,9503,1,0,0:0:0:0:
448,336,9648,1,0,0:0:0:0:
372,232,9940,1,0,0:0:0:0:
384,244,10085,1,0,0:0:0:0:
396,256,10231,1,2,0:0:0:0:
316,156,10522,1,2,0:0:0:0:
328,168,10668,1,0,0:0:0:0:
340,180,10813,6,0,P|324:136|264:104,1,112.500004291535,0|0,0:0|0:0,0:0:0:0:
180,112,11396,2,0,P|196:156|256:188,1,112.500004291535,2|0,0:0|0:0,0:0:0:0:
184,28,11978,1,0,0:0:0:0:
104,176,12561,6,0,B|172:240|252:188|252:188|216:240,1,225.000008583069,2|2,0:0|0:0,0:0:0:0:
80,344,13726,1,0,0:0:0:0:
220,272,14309,6,0,P|272:272|312:316,1,112.500004291535,0|0,0:0|0:0,0:0:0:0:
232,356,14891,2,0,P|232:268|348:232,1,225.000008583069,2|2,0:0|0:0,0:0:0:0:
312,312,15765,1,0,0:0:0:0:
400,304,16056,6,0,P|432:256|432:202,1,112.500004291535,0|0,0:0|0:0,0:0:0:0:
309,132,16639,2,0,P|342:174|348:232,1,112.500004291535,2|0,0:0|0:0,0:0:0:0:
260,208,17221,2,0,P|212:175|158:175,1,112.500004291535,2|0,0:0|0:0,0:0:0:0:
100,244,17804,5,0,0:0:0:0:
145,89,18095,2,0,P|104:104|68:160,1,112.500004291535,2|0,0:0|0:0,0:0:0:0:
182,278,18677,2,0,P|190:235|160:176,1,112.500004291535,2|0,0:0|0:0,0:0:0:0:
0,212,19260,2,0,P|33:240|100:244,1,112.500004291535,2|2,0:0|0:0,0:0:0:0:
104,140,19842,5,2,0:0:0:0:
86,157,19988,1,0,0:0:0:0:
70,170,20134,1,0,0:0:0:0:
216,112,20425,1,0,0:0:0:0:
198,129,20571,1,0,0:0:0:0:
182,142,20716,1,2,0:0:0:0:
330,86,21008,1,2,0:0:0:0:
312,103,21153,1,0,0:0:0:0:
292,120,21299,6,0,P|276:194|288:226,1,112.500004291535,0|0,0:0|0:0,0:0:0:0:
360,284,21881,2,0,P|375:209|362:177,1,112.500004291535,2|0,0:0|0:0,0:0:0:0:
288,228,22464,1,0,0:0:0:0:
424,108,23046,6,0,B|380:132|364:176|364:176|312:120|244:148,1,225.000008583069,2|2,0:0|0:0,0:0:0:0:
112,272,24211,1,0,0:0:0:0:
288,224,24794,6,0,P|328:120|244:60,1,225.000008583069,2|0,0:0|0:0,0:0:0:0:
164,88,25668,1,0,0:0:0:0:
228,152,25959,2,0,L|200:188,3,37.5000014305115,0|2|0|0,0:0|0:0|0:0|0:0,0:0:0:0:
140,244,26542,5,0,0:0:0:0:
76,308,26833,2,0,L|32:352,2,56.2500021457673,2|0|0,0:0|0:0|0:0,0:0:0:0:
140,244,27415,1,0,0:0:0:0:
204,180,27707,2,0,L|248:136,2,56.2500021457673,2|0|0,0:0|0:0|0:0,0:0:0:0:
116,156,28289,6,0,P|140:248|256:252,1,225.000008583069,2|0,0:0|0:0,0:0:0:0:
316,188,29163,1,0,0:0:0:0:
340,276,29454,2,0,L|348:316,3,37.5000014305115,0|0|0|2,0:0|0:0|0:0|0:0,0:0:0:0:
316,188,30037,5,0,0:0:0:0:
308,92,30328,2,0,P|312:60|328:36,1,56.2500021457673
372,104,30619,2,0,P|391:78|417:65,1,56.2500021457673,0|2,0:0|0:0,0:0:0:0:
412,156,30910,2,0,P|441:143|470:145,1,56.2500021457673,0|2,0:0|0:0,0:0:0:0:
408,220,31202,2,0,P|440:224|463:239,1,56.2500021457673,0|2,0:0|0:0,0:0:0:0:
368,272,31493,2,0,P|393:291|406:317,1,56.2500021457673,0|2,0:0|0:0,0:0:0:0:
308,296,31784,6,0,P|208:320|160:224,1,225.000008583069,2|2,0:0|0:0,0:0:0:0:
248,236,32658,1,0,0:0:0:0:
308,296,32949,2,0,L|316:344,3,37.5000014305115,0|2|0|0,0:0|0:0|0:0|0:0,0:0:0:0:
292,204,33532,5,0,0:0:0:0:
280,116,33823,2,0,L|272:48,2,56.2500021457673,2|0|0,0:0|0:0|0:0,0:0:0:0:
292,204,34406,1,0,0:0:0:0:
308,296,34697,2,0,L|316:344,3,37.5000014305115,0|2|0|0,0:0|0:0|0:0|0:0,0:0:0:0:
380,240,35279,6,0,P|292:204|216:292,1,225.000008583069,2|0,0:0|0:0,0:0:0:0:
308,296,36153,1,0,0:0:0:0:
380,240,36444,2,0,L|416:212,3,37.5000014305115,0|0|0|2,0:0|0:0|0:0|0:0,0:0:0:0:
308,296,37027,5,0,0:0:0:0:
220,292,37318,2,0,L|160:288,1,56.2500021457673
240,232,37609,2,0,L|190:198,1,56.2500021457673,0|2,0:0|0:0,2:0:0:0:
296,204,37901,2,0,L|269:150,1,56.2500021457673,0|2,0:0|0:0,0:0:0:0:
356,216,38192,6,0,L|356:140,1,75
352,116,38629,1,0,0:0:0:0:
348,92,38775,6,0,P|292:60|200:72,1,150,2|0,0:0|0:0,0:0:0:0:
228,12,39211,2,0,L|180:156,1,150
148,216,39648,1,2,0:0:0:0:
196,264,39794,1,0,0:0:0:0:
256,236,39940,1,0,0:0:0:0:
248,168,40085,1,2,0:0:0:0:
180,154,40231,2,0,B|196:104|196:104|248:84|292:104,1,150,0|2,0:0|0:0,0:0:0:0:
300,112,40595,1,0,0:0:0:0:
308,120,40668,1,0,0:0:0:0:
200,336,40959,5,0,0:0:0:0:
144,288,41105,2,0,L|56:296,1,75
124,216,41396,2,0,L|198:209,1,75,0|2,0:0|0:0,0:0:0:0:
272,200,41687,2,0,P|304:232|284:328,1,150,0|2,0:0|0:0,0:0:0:0:
236,268,42124,1,0,0:0:0:0:
272,200,42270,6,0,L|300:128,2,75,2|0|0,0:0|0:0|0:0,0:0:0:0:
272,200,42852,1,0,0:0:0:0:
236,268,42998,2,0,P|204:295|197:329,2,75,0|2|0,0:0|0:0|0:0,0:0:0:0:
276,336,43435,2,0,P|312:348|352:340,1,75,0|2,0:0|0:0,0:0:0:0:
316,272,43726,2,0,P|353:264|383:237,1,75
320,196,44017,6,0,P|297:116|175:132,1,225,0|2,0:0|0:0,0:0:0:0:
100,108,44600,2,0,P|122:187|244:171,1,225,0|2,0:0|0:0,0:0:0:0:
238,96,45182,2,0,P|200:108|176:132,1,75
304,132,45474,2,0,P|312:92|304:59,1,75
244,172,45765,6,0,P|296:204|372:160,1,150,2|0,0:0|0:0,0:0:0:0:
388,92,46202,2,0,L|344:248,1,150
320,316,46639,1,2,0:0:0:0:
252,320,46784,1,0,0:0:0:0:
212,248,46930,1,0,0:0:0:0:
280,244,47075,1,2,0:0:0:0:
184,324,47221,2,0,P|136:288|144:204,1,150,0|2,0:0|0:0,0:0:0:0:
152,196,47585,5,0,0:0:0:0:
164,184,47658,1,0,0:0:0:0:
375,126,47949,1,0,0:0:0:0:
375,126,48095,2,0,P|370:164|348:192,1,75,2|0,0:0|0:0,0:0:0:0:
260,68,48386,2,0,P|294:53|330:59,1,75,0|0,0:0|0:0,0:0:0:0:
272,200,48677,2,0,B|232:180|228:136|228:136|172:180,1,150,0|2,0:0|0:0,0:0:0:0:
112,220,49114,1,0,0:0:0:0:
180,256,49260,6,0,P|303:298|360:240,1,225,2|0,0:0|0:0,0:0:0:0:
372,168,49842,1,0,0:0:0:0:
428,216,49988,2,0,L|500:240,2,75,0|0|2,0:0|0:0|0:0,0:0:0:0:
372,168,50425,2,0,L|344:96,1,75,0|2,0:0|0:0,0:0:0:0:
288,148,50716,2,0,L|227:104,1,75
200,176,51008,2,0,P|116:216|131:333,1,225
256,192,51590,12,0,52464,0:0:0:0:
304,152,52755,5,0,0:0:0:0:
176,232,53046,2,0,L|256:240,2,75,0|0|2,0:0|0:0|0:0,0:0:0:0:
304,152,53629,2,0,L|229:144,1,75
156,136,53920,2,0,P|92:172|76:244,1,150,2|0,0:0|0:0,0:0:0:0:
196,332,54503,6,0,P|260:296|276:224,1,150,0|2,0:0|0:0,0:0:0:0:
268,204,54940,1,0,0:0:0:0:
260,184,55085,1,0,0:0:0:0:
396,248,55376,1,0,0:0:0:0:
388,228,55522,1,0,0:0:0:0:
380,208,55668,1,2,0:0:0:0:
512,284,55959,1,2,0:0:0:0:
504,264,56105,1,0,0:0:0:0:
496,244,56250,6,0,P|448:316|384:332,1,150,0|2,0:0|0:0,0:0:0:0:
368,328,57124,5,2,0:0:0:0:
344,320,57707,5,2,0:0:0:0:
224,232,57998,6,0,P|150:225|89:283,1,150,2|0,0:0|0:0,0:0:0:0:
88,292,58435,1,0,0:0:0:0:
84,312,58580,1,0,0:0:0:0:
60,164,58872,1,0,0:0:0:0:
53,184,59017,1,0,0:0:0:0:
49,204,59163,1,2,0:0:0:0:
24,56,59454,1,2,0:0:0:0:
17,76,59600,1,0,0:0:0:0:
13,96,59745,6,0,P|68:120|144:100,1,112.500004291535
192,28,60328,2,0,L|240:132,1,112.500004291535,2|0,0:0|0:0,0:0:0:0:
296,228,60910,1,0,0:0:0:0:
376,148,61202,1,0,0:0:0:0:
372,132,61347,1,0,0:0:0:0:
368,116,61493,6,0,P|436:192|408:308,1,225,2|0,0:0|0:0,0:0:0:0:
360,228,62075,2,0,P|316:288|228:300,1,168.750006437302,2|0,0:0|0:0,0:0:0:0:
272,220,62658,2,0,P|208:204|184:164,1,112.5,2|0,0:0|0:0,0:0:0:0:
264,136,63241,6,0,P|228:88|180:76,1,112.500004291535
104,120,63823,2,0,L|65:292,1,168.750006437302,2|0,0:0|0:0,0:0:0:0:
16,228,64406,2,0,P|84:212|140:268,1,150,0|0,0:0|0:0,0:0:0:0:
196,384,64988,5,0,0:0:0:0:
292,268,65279,1,2,0:0:0:0:
288,284,65425,1,0,0:0:0:0:
284,300,65571,1,0,0:0:0:0:
380,184,65862,1,0,0:0:0:0:
376,200,66008,1,0,0:0:0:0:
372,216,66153,1,2,0:0:0:0:
464,96,66444,1,2,0:0:0:0:
460,112,66590,1,0,0:0:0:0:
456,128,66736,6,0,P|408:96|320:112,1,150,0|2,0:0|0:0,0:0:0:0:
256,248,67609,1,2,0:0:0:0:
404,236,68192,1,2,0:0:0:0:
320,112,68483,5,2,0:0:0:0:
256,248,68775,1,2,0:0:0:0:
268,236,68920,1,0,0:0:0:0:
280,224,69066,1,0,0:0:0:0:
140,280,69357,1,0,0:0:0:0:
152,268,69503,1,0,0:0:0:0:
164,256,69648,1,2,0:0:0:0:
24,316,69940,1,2,0:0:0:0:
36,304,70085,1,0,0:0:0:0:
48,292,70231,6,0,P|24:208|60:132,1,150
172,76,70813,2,0,P|196:160|176:216,1,150,2|0,0:0|0:0,0:0:0:0:
44,152,71396,1,0,0:0:0:0:
320,272,71978,6,0,P|228:348|124:332,1,225,2|0,0:0|0:0,0:0:0:0:
196,264,72561,2,0,P|244:236|256:132,1,168.750006437302,2|0,0:0|0:0,0:0:0:0:
119,104,73143,2,0,P|168:128|188:180,1,112.5,2|0,0:0|0:0,0:0:0:0:
108,184,73726,5,4,1:2:0:0:
256,192,80716,5,2,0:0:0:0:
224,112,87707,6,0,P|296:132|336:196,1,150,2|0,0:0|0:0,0:0:0:0:
312,304,88580,1,0,0:0:0:0:
228,224,88872,1,0,0:0:0:0:
216,228,88969,1,2,0:0:0:0:
204,232,89066,1,0,0:0:0:0:
192,236,89163,1,0,0:0:0:0:
336,192,89454,5,0,0:0:0:0:
424,264,89745,2,2,L|472:312,2,56.2500021457673,2|0|0,0:0|0:0|0:0,0:0:0:0:
336,192,90328,1,0,0:0:0:0:
256,116,90619,2,0,L|208:68,2,56.2500021457673,2|0|0,0:0|0:0|0:0,0:0:0:0:
224,224,91202,6,0,P|180:292|108:308,1,150,2|0,0:0|0:0,0:0:0:0:
120,196,92075,1,0,0:0:0:0:
224,224,92367,1,0,0:0:0:0:
232,232,92464,1,0,0:0:0:0:
240,240,92561,1,0,0:0:0:0:
248,248,92658,1,2,0:0:0:0:
328,324,92949,5,0,0:0:0:0:
436,288,93241,2,0,L|472:224,1,56.2500021457673
392,224,93532,2,0,L|384:156,1,56.2500021457673,0|2,0:0|0:0,0:0:0:0:
320,204,93823,2,0,L|276:148,1,56.2500021457673,0|2,0:0|0:0,0:0:0:0:
248,228,94114,2,0,L|192:216,1,56.2500021457673,0|2,0:0|0:0,0:0:0:0:
204,292,94406,2,0,L|132:320,1,56.2500021457673,0|2,0:0|0:0,0:0:0:0:
216,364,94697,5,2,0:0:0:0:
296,36,95571,1,0,0:0:0:0:
408,44,95862,1,0,0:0:0:0:
420,48,95959,1,2,0:0:0:0:
432,52,96056,1,0,0:0:0:0:
444,56,96153,1,0,0:0:0:0:
344,124,96444,6,0,P|268:136|208:76,1,168.750006437302,0|2,0:0|0:0,0:0:0:0:
207,75,97027,1,0,0:0:0:0:
168,260,97755,2,0,P|200:272|236:268,1,56.2500021457673
244,260,98046,1,0,0:0:0:0:
264,248,98192,6,0,P|324:244|384:304,1,150,2|0,0:0|0:0,0:0:0:0:
284,356,99066,1,0,0:0:0:0:
224,272,99357,1,0,0:0:0:0:
216,264,99454,1,0,0:0:0:0:
208,256,99551,1,0,0:0:0:0:
200,248,99648,1,2,0:0:0:0:
168,136,99940,6,0,P|224:84|316:76,1,168.750006437302
364,52,100522,2,0,L|388:124,1,56.2500021457673,0|2,0:0|0:0,0:0:0:0:
432,80,100813,2,0,L|432:164,1,56.2500021457673,0|2,0:0|0:0,0:0:0:0:
488,132,101105,2,0,L|424:304,1,168.750006437302,0|2,0:0|0:0,0:0:0:0:
504,280,101687,6,0,P|468:224|388:224,1,150
352,288,102124,2,0,P|274:286|238:230,1,150
268,160,102561,2,0,L|352:152,1,75,2|0,0:0|0:0,0:0:0:0:
364,72,102852,2,0,L|288:80,1,75,0|2,0:0|0:0,0:0:0:0:
216,96,103143,6,0,P|140:128|108:188,1,150,0|2,0:0|0:0,0:0:0:0:
108,196,103508,1,0,0:0:0:0:
108,208,103580,1,0,0:0:0:0:
320,216,103872,1,0,0:0:0:0:
312,140,104017,2,0,L|308:64,1,75,0|2,0:0|0:0,0:0:0:0:
380,92,104309,2,0,L|384:168,1,75,0|2,0:0|0:0,0:0:0:0:
392,244,104600,2,0,P|336:296|268:276,1,150,2|2,0:0|0:0,0:0:0:0:
220,224,105037,1,0,0:0:0:0:
168,168,105182,6,0,P|128:156|80:168,2,75,0|2|2,0:0|0:0|0:0,0:0:0:0:
256,192,105619,12,0,107804,0:0:0:0:
248,116,108095,5,0,0:0:0:0:
392,72,108386,1,0,0:0:0:0:
392,72,108532,1,0,0:0:0:0:
392,72,108677,2,0,P|400:148|364:220,1,150,2|0,0:0|0:0,0:0:0:0:
316,160,109114,2,0,P|248:196|184:164,1,150
161,240,109551,2,0,L|140:312,1,75,2|0,0:0|0:0,0:0:0:0:
106,191,109842,2,0,L|128:120,1,75,0|2,0:0|0:0,0:0:0:0:
88,260,110134,6,0,P|160:240|212:296,1,150,0|2,0:0|0:0,0:0:0:0:
209,298,110498,1,0,0:0:0:0:
209,309,110571,1,0,0:0:0:0:
316,160,110862,1,0,0:0:0:0:
316,88,111008,1,2,0:0:0:0:
384,66,111153,1,0,0:0:0:0:
426,124,111299,1,0,0:0:0:0:
384,182,111444,1,2,0:0:0:0:
316,160,111590,1,0,0:0:0:0:
192,76,111881,6,0,P|160:60|120:64,2,75,2|0|2,0:0|0:0|0:0,0:0:0:0:
256,192,112318,12,0,114794,0:0:0:0:
172,144,115085,6,0,P|200:184|196:148,1,112.5
280,160,115668,6,0,P|356:168|396:224,1,150,2|0,0:0|0:0,0:0:0:0:
324,240,116105,2,0,P|336:288|278:362,1,150
196,340,116542,1,2,0:0:0:0:
144,276,116687,1,0,0:0:0:0:
200,216,116833,1,0,0:0:0:0:
252,280,116978,1,2,0:0:0:0:
120,196,117124,2,0,P|171:140|243:146,1,150,0|2,0:0|0:0,0:0:0:0:
252,152,117488,1,0,0:0:0:0:
264,160,117561,1,0,0:0:0:0:
136,276,117852,5,0,0:0:0:0:
60,248,117998,2,0,L|34:177,1,75,2|0,0:0|0:0,0:0:0:0:
80,120,118289,2,0,L|91:45,1,75,0|2,0:0|0:0,0:0:0:0:
222,5,118580,2,0,L|164:52,1,75,2|0,0:0|0:0,0:0:0:0:
354,48,118872,2,0,L|280:52,1,75,0|0,0:0|0:0,0:0:0:0:
407,153,119163,6,0,L|340:120,2,75,0|2|2,0:0|0:0|0:0,0:0:0:0:
472,188,119600,1,0,0:0:0:0:
408,228,119745,2,0,B|356:288|392:360|392:360|328:308,1,225,2|2,0:0|0:0,0:0:0:0:
316,232,120328,2,0,B|252:180|252:180|288:252|236:312,1,225,0|2,0:0|0:0,0:0:0:0:
192,340,120910,5,0,0:0:0:0:
152,348,121056,1,0,0:0:0:0:
108,340,121202,1,0,0:0:0:0:
72,316,121347,1,0,0:0:0:0:
48,276,121493,1,2,0:0:0:0:
40,232,121639,1,0,0:0:0:0:
52,188,121784,1,0,0:0:0:0:
80,152,121930,1,0,0:0:0:0:
120,132,122075,1,2,0:0:0:0:
164,124,122221,1,0,0:0:0:0:
208,140,122367,1,0,0:0:0:0:
240,168,122512,1,0,0:0:0:0:
268,204,122658,6,0,P|356:216|408:176,1,150,2|0,0:0|0:0,0:0:0:0:
412,140,123095,2,0,L|376:312,1,150
332,352,123532,1,2,0:0:0:0:
288,284,123677,1,0,0:0:0:0:
244,356,123823,1,0,0:0:0:0:
204,284,123969,1,2,0:0:0:0:
128,256,124114,6,0,P|96:188|116:120,1,150,0|2,0:0|0:0,0:0:0:0:
124,112,124478,1,0,0:0:0:0:
132,104,124551,1,0,0:0:0:0:
320,48,124842,1,0,0:0:0:0:
252,120,124988,2,0,L|184:196,1,75,2|0,0:0|0:0,0:0:0:0:
240,290,125279,2,0,L|292:236,1,75,0|2,0:0|0:0,0:0:0:0:
352,160,125571,2,0,P|396:216|380:288,1,150,0|2,0:0|0:0,0:0:0:0:
308,356,126008,1,0,0:0:0:0:
216,380,126153,6,0,B|140:360|140:264|140:264|188:208,1,225,2|0,0:0|0:0,0:0:0:0:
212,112,126736,2,0,B|286:134|286:230|286:230|240:288,1,225,2|0,0:0|0:0,0:0:0:0:
140,264,127318,6,0,L|192:204,1,75,0|2,0:0|0:0,0:0:0:0:
288,228,127609,2,0,L|240:288,1,75,0|0,0:0|0:0,0:0:0:0:
256,192,127901,12,2,129357,0:0:0:0:
256,192,129648,5,4,0:0:0:0:
