osu file format v11

[General]
AudioFilename: Grim.mp3
AudioLeadIn: 0
PreviewTime: 115405
Countdown: 0
SampleSet: Soft
StackLeniency: 0.7
Mode: 0
LetterboxInBreaks: 0

[Editor]
Bookmarks: 40405,70405,100405,110405,130405,150405,160405,190405,210405
DistanceSpacing: 1.2
BeatDivisor: 4
GridSize: 4

[Metadata]
Title:Grim
TitleUnicode:
Artist:Raujika
ArtistUnicode:
Creator:JauiPlaY
Version:JauiPlKsp3
Source:
Tags:spboxer3 lks vivicat beren -baby strawberry-
BeatmapID:176549
BeatmapSetID:58787

[Difficulty]
HPDrainRate:7
CircleSize:4
OverallDifficulty:7
ApproachRate:9
SliderMultiplier:3.2
SliderTickRate:4

[Events]
//Background and Video events
0,0,"c064210345fa7d77a51054bc9d6be4a2.jpg"
//Break Periods
2,100604,109805
2,151855,159805
//Storyboard Layer 0 (Background)
//Storyboard Layer 1 (Fail)
//Storyboard Layer 2 (Pass)
//Storyboard Layer 3 (Foreground)
Sprite,Foreground,Centre,"jpy.png",320,240 M,0,39155,,105,101 F,0,39155,39780,0,0.9702491 F,0,39780,69780,0.9702491,1 F,0,69780,70405,1,0
Sprite,Foreground,Centre,"sp3.png",320,240 M,0,70405,,106,101 F,0,70405,71030,0,1 F,0,71030,99780,1 F,0,99780,100405,1,0
Sprite,Foreground,Centre,"lks.png",320,240 M,0,110405,,101,100 F,0,110405,111030,0,1 F,0,111030,129780,1 F,0,129780,130405,1,0
Sprite,Foreground,Centre,"sp3.png",320,240 M,0,130405,,106,101 F,0,130405,131030,0,1 F,0,131030,149780,1 F,0,149780,150405,1,0
Sprite,Foreground,Centre,"lks.png",320,240 M,0,160405,,106,99 F,0,160405,161030,0,1 F,0,161030,189780,1 F,0,189780,190405,1,0
Sprite,Foreground,Centre,"jpy.png",320,240 M,0,190405,,106,99 F,0,190405,191030,0,1 F,0,191030,209780,1 F,0,209780,210405,1,0
//Storyboard Sound Samples
//Background Colour Transformations
3,100,0,0,0

[TimingPoints]
30405,625,4,2,1,70,1,0
39155,-133.333333333333,4,2,1,70,0,0
39780,-100,4,2,1,70,0,0
40405,-100,4,2,1,70,0,1
40561,-100,4,2,1,70,0,0
60405,-200,4,2,1,70,0,0
61030,-100,4,2,1,65,0,0
67280,-200,4,2,1,65,0,0
67592,-100,4,2,1,65,0,0
80405,-80,4,2,1,70,0,1
100405,-100,4,2,0,65,0,0
110405,-100,4,2,1,65,0,0
117905,-100,4,2,0,35,0,0
120405,-100,4,2,2,65,0,0
130405,-200,4,1,0,50,0,0
130873,-200,4,2,2,5,0,0
131030,-200,4,1,0,50,0,0
131655,-100,4,1,0,50,0,0
131967,-100,4,2,2,65,0,0
132123,-100,4,1,0,50,0,0
132748,-100,4,2,2,65,0,0
140405,-100,4,2,1,65,0,0
150405,-200,4,2,1,65,0,0
160405,-100,4,2,1,65,0,0
170405,-100,4,2,1,70,0,1
190248,-100,4,2,1,70,0,0
190405,-200,4,2,0,70,0,1
190717,-100,4,2,1,70,0,1
195405,-133.333333333333,4,2,1,70,0,1
195639,-100,4,2,1,70,0,1
200405,-200,4,2,1,70,0,1
200717,-100,4,2,1,70,0,1
204155,-100,4,2,1,30,0,1
204311,-100,4,2,1,40,0,1
204467,-100,4,2,1,50,0,1
204623,-100,4,2,1,60,0,1
204780,-100,4,2,1,70,0,1
205405,-200,4,2,1,70,0,1
205717,-100,4,2,1,70,0,1
210248,-100,4,2,1,70,0,0
210405,-100,4,2,0,65,0,1
210561,-100,4,2,1,70,0,0

[Colours]
Combo1 : 255,117,117
Combo2 : 157,60,255
Combo3 : 84,84,252
Combo4 : 255,102,179
SliderBorder : 185,185,185

[HitObjects]
256,88,39155,2,0,B|244:128|256:171|302:180|316:244|256:280|198:240|216:184|256:204,1,239.999992847443,0|2,0:0|0:0,0:0:0
352,216,39936,1,2,0:0:0
428,272,40092,1,0,0:0:0
456,364,40248,1,2,0:0:0
476,268,40405,6,0,B|336:348,1,160
200,352,40873,2,0,B|272:312,1,80,0|2,0:0|0:0,0:0:0
176,336,41186,1,2,0:0:0
84,308,41342,1,0,0:0:0
28,228,41498,1,2,0:0:0
28,132,41655,5,0,0:0:0
44,124,41967,1,2,0:0:0
60,116,42280,1,2,0:0:0
139,167,42436,2,0,B|127:205,2,40
200,96,42748,1,0,0:0:0
288,132,42905,6,0,B|356:180|440:148,1,160
460,56,43373,1,0,0:0:0
448,244,43530,2,0,B|428:280|432:320,1,80,2|2,0:0|0:0,0:0:0
332,364,43842,2,0,B|352:328|348:288,1,80,0|2,0:0|0:0,0:0:0
252,308,44155,1,0,0:0:0
163,270,44311,1,0,0:0:0
116,185,44467,1,2,0:0:0
126,89,44624,1,2,0:0:0
288,134,44780,5,0,0:0:0
248,221,44937,1,2,0:0:0
164,269,45093,1,0,0:0:0
66,257,45249,1,0,0:0:0
224,48,45405,6,0,B|176:116|208:200,1,160
276,268,45873,1,0,0:0:0
372,288,46030,2,0,B|376:329|356:365,1,80,2|2,0:0|0:0,0:0:0
456,240,46342,2,0,B|451:198|471:162,1,80,0|2,0:0|0:0,0:0:0
444,72,46655,5,0,0:0:0
256,364,46967,1,2,0:0:0
68,72,47280,1,2,0:0:0
164,76,47436,1,0,0:0:0
252,112,47592,1,0,0:0:0
324,176,47748,1,0,0:0:0
420,196,47905,5,0,0:0:0
276,268,48061,1,0,0:0:0
372,288,48218,1,2,0:0:0
324,176,48373,1,2,0:0:0
200,192,48530,5,0,0:0:0
56,264,48686,1,2,0:0:0
104,172,48843,1,0,0:0:0
152,284,48998,1,0,0:0:0
256,352,49155,5,0,0:0:0
256,192,49311,1,2,0:0:0
256,32,49467,1,2,0:0:0
256,32,49780,2,0,B|256:112,1,80,0|2,0:0|0:0,0:0:0
256,352,50092,2,0,B|256:268,1,80,0|2,0:0|0:0,0:0:0
256,192,50405,6,0,B|308:180|352:212|352:212|376:196|408:200,1,160
396,296,50873,2,0,B|400:340|372:372,1,80,0|2,0:0|0:0,0:0:0
156,208,51186,2,0,B|152:164|180:132,1,80,2|0,0:0|0:0,0:0:0
288,272,51498,1,2,0:0:0
196,296,51655,2,0,B|180:337|141:353,1,80
88,100,51967,2,0,B|103:58|142:42,1,80,2|0,0:0|0:0,0:0:0
236,56,52280,1,2,0:0:0
64,192,52436,1,0,0:0:0
156,208,52592,2,0,B|168:168,2,40
196,296,52905,6,0,B|212:344|264:360|264:360|328:352,1,160
404,296,53373,1,0,0:0:0
496,268,53530,2,0,B|460:196,1,80,2|2,0:0|0:0,0:0:0
340,100,53842,2,0,B|376:172,1,80,0|2,0:0|0:0,0:0:0
292,220,54155,1,0,0:0:0
196,236,54312,1,2,0:0:0
109,193,54468,1,2,0:0:0
66,106,54624,1,0,0:0:0
231,56,54780,5,2,0:0:0
244,152,54936,1,2,0:0:0
196,236,55092,1,0,0:0:0
107,276,55249,1,0,0:0:0
12,276,55405,6,0,P|48:352|118:368,1,160
107,276,55873,1,0,0:0:0
196,236,56030,2,0,B|272:260,1,80,2|2,0:0|0:0,0:0:0
408,356,56342,2,0,B|332:332,1,80,0|2,0:0|0:0,0:0:0
239,347,56655,5,0,0:0:0
272,260,56967,1,2,0:0:0
331,331,57280,1,2,0:0:0
272,260,57436,5,0,0:0:0
259,165,57592,1,2,0:0:0
287,73,57748,1,2,0:0:0
384,84,57905,5,0,0:0:0
377,246,58061,1,2,0:0:0
477,117,58217,1,0,0:0:0
321,162,58373,1,2,0:0:0
474,218,58530,2,0,B|479:284|432:326,1,120
391,351,58842,2,0,B|312:326,1,80,2|0,0:0|0:0,0:0:0
228,284,59155,5,0,0:0:0
165,362,59311,1,2,0:0:0
72,329,59468,1,2,0:0:0
75,228,59624,1,0,0:0:0
172,200,59780,1,2,0:0:0
175,99,59936,1,2,0:0:0
82,66,60093,1,0,0:0:0
19,144,60249,1,2,0:0:0
75,228,60405,6,4,B|196:228|196:228|224:256,1,160,0|12,0:0|0:0,0:0:0
208,352,61186,5,0,0:0:0
304,340,61342,1,0,0:0:0
384,288,61498,1,0,0:0:0
436,204,61655,2,0,B|436:124,1,80
188,112,61967,2,0,B|188:192,1,80
312,128,62280,2,0,B|312:48,1,80,8|0,0:0|0:0,0:0:0
64,36,62592,2,0,B|64:116,1,80,0|0,0:0|0:0,0:0:0
36,208,62905,5,0,0:0:0
80,296,63062,1,0,0:0:0
168,336,63218,1,0,0:0:0
264,320,63374,1,0,0:0:0
248,224,63530,5,8,0:0:0
194,232,63686,1,0,0:0:0
145,210,63842,1,0,0:0:0
120,161,63998,1,0,0:0:0
220,120,64155,6,0,B|223:78|253:48,1,80
304,128,64467,2,0,B|326:93|367:80,1,80,0|0,0:0|0:0,0:0:0
376,172,64780,2,8,B|412:152|454:159,1,80,8|0,0:0|0:0,0:0:0
420,244,65092,2,0,B|461:243|495:269,1,80,0|8,0:0|0:0,0:0:0
431,350,65405,5,0,0:0:0
341,307,65561,1,0,0:0:0
290,225,65717,1,0,0:0:0
304,128,65873,1,0,0:0:0
288,32,66030,5,12,0:0:0
304,128,66186,1,0,0:0:0
290,225,66342,1,0,0:0:0
232,304,66498,1,0,0:0:0
341,307,66655,5,0,0:0:0
232,304,66811,1,0,0:0:0
144,240,66967,1,0,0:0:0
112,136,67123,1,0,0:0:0
132,28,67280,6,0,B|156:48|156:48|204:48,1,80,8|0,0:0|0:0,0:0:0
296,76,67748,1,0,0:0:0
376,128,67905,6,0,B|370:172|335:195,1,80
144,240,68217,2,0,B|149:195|183:173,1,80
249,260,68530,2,0,B|271:294|316:300,1,80,8|0,0:0|0:0,0:0:0
270,107,68842,2,0,B|248:73|204:68,1,80
104,76,69155,5,0,0:0:0
92,100,69311,1,0,0:0:0
80,124,69467,2,0,B|66:164|31:185,2,80
40,272,70092,1,8,0:0:0
52,296,70248,1,8,0:0:0
64,320,70405,6,0,B|105:319|137:291,1,80
197,219,70717,1,0,0:0:0
221,127,70873,1,0,0:0:0
240,304,71030,2,0,B|340:316,1,80,12|0,0:0|0:0,0:0:0
464,264,71342,2,0,B|364:252,1,80
348,164,71655,1,0,0:0:0
433,126,71811,1,0,0:0:0
434,125,71967,2,0,B|388:60|296:48,1,160,0|8,0:0|0:0,0:0:0
204,60,72436,1,0,0:0:0
132,124,72592,1,0,0:0:0
40,156,72748,1,0,0:0:0
32,252,72905,6,0,P|120:220,1,80
136,296,73217,2,0,P|164:372,1,80,0|0,0:0|0:0,0:0:0
152,116,73530,2,0,P|184:204,1,80,0|0,0:0|0:0,0:0:0
208,267,73842,2,0,P|284:240,1,80,0|0,0:0|0:0,0:0:0
276,144,74155,2,0,B|316:144|352:176,1,80
328,320,74467,2,0,B|384:264|468:236,1,160,0|8,0:0|0:0,0:0:0
472,140,74936,1,0,0:0:0
444,48,75092,2,0,B|360:56,1,80,0|8,0:0|0:0,0:0:0
284,108,75405,5,0,0:0:0
92,120,75561,1,0,0:0:0
192,84,75717,1,0,0:0:0
36,196,75873,1,0,0:0:0
116,28,76029,1,12,0:0:0
180,196,76186,1,0,0:0:0
192,99,76342,1,0,0:0:0
102,134,76499,1,0,0:0:0
220,276,76655,6,0,B|292:320,1,80
368,368,76967,2,0,B|416:316|408:216,1,160,0|8,0:0|0:0,0:0:0
436,124,77436,1,0,0:0:0
348,88,77592,2,0,B|264:56,1,80,0|0,0:0|0:0,0:0:0
116,72,77905,6,0,B|200:104,1,80
242,284,78217,2,0,B|168:256,1,80
145,163,78530,2,0,B|220:192,1,80,8|0,0:0|0:0,0:0:0
272,376,78842,2,0,B|188:344,1,80,0|0,0:0|0:0,0:0:0
104,376,79155,1,0,0:0:0
78,283,79311,1,0,0:0:0
170,257,79467,1,0,0:0:0
170,257,79780,5,8,0:0:0
352,204,79936,1,0,0:0:0
300,20,80092,1,0,0:0:0
114,72,80248,1,8,0:0:0
64,184,80405,6,0,B|80:304,1,99.9999985098839
170,257,80717,2,2,B|154:377,2,99.9999985098839,2|2|12,0:0|0:0|0:0,0:0:0
364,308,81342,1,2,0:0:0
171,257,81655,1,0,0:0:0
364,308,81967,1,2,0:0:0
172,257,82280,5,10,0:0:0
364,308,82436,1,0,0:0:0
268,284,82592,1,0,0:0:0
408,220,82748,1,0,0:0:0
424,120,82905,6,0,B|408:16,1,99.9999985098839
336,140,83217,2,0,B|320:244,1,99.9999985098839,2|2,0:0|0:0,0:0:0
284,76,83530,2,0,B|196:116|72:104,1,199.999997019768,8|2,0:0|0:0,0:0:0
4,84,83998,1,0,0:0:0
52,12,84155,2,0,B|128:220,1,199.999997019768,0|2,0:0|0:0,0:0:0
120,199,84780,6,0,B|160:308,1,99.9999985098839,10|2,0:0|0:0,0:0:0
220,192,85092,2,0,B|120:200,1,99.9999985098839,0|2,0:0|0:0,0:0:0
260,284,85405,5,0,0:0:0
300,376,85561,1,0,0:0:0
419,211,85717,1,2,0:0:0
360,292,85873,1,2,0:0:0
384,120,86030,2,0,B|312:64|256:100|200:46,1,199.999997019768,8|2,0:0|0:0,0:0:0
311,46,86498,2,0,B|255:99|199:63|127:119,1,199.999997019768
36,84,86967,2,0,B|60:212,1,99.9999985098839,2|0,0:0|0:0,0:0:0
132,248,87280,1,10,0:0:0
316,172,87436,1,0,0:0:0
196,172,87592,1,0,0:0:0
380,248,87748,1,0,0:0:0
315,327,87905,6,0,B|232:272|195:172,1,199.999997019768,0|2,0:0|0:0,0:0:0
316,172,88373,2,0,B|280:272|196:327,1,199.999997019768,2|0,0:0|0:0,0:0:0
104,288,88842,2,0,B|60:260|50:205,1,99.9999985098839,2|0,0:0|0:0,0:0:0
92,116,89155,2,0,B|136:20,1,99.9999985098839
329,33,89467,2,0,B|288:124,1,99.9999985098839,2|0,0:0|0:0,0:0:0
188,120,89780,2,0,B|229:29,1,99.9999985098839,8|0,0:0|0:0,0:0:0
425,37,90092,2,0,B|384:128,1,99.9999985098839,2|0,0:0|0:0,0:0:0
344,220,90405,5,0,0:0:0
288,328,90561,2,0,B|343:327|387:300,2,100
376,364,91030,2,0,B|289:302|183:339,1,199.999997019768,14|0,0:0|0:0,0:0:0
88,368,91498,1,0,0:0:0
56,272,91655,2,0,B|168:236,1,99.9999985098839
328,252,91967,2,0,B|232:221,1,99.9999985098839,2|0,0:0|0:0,0:0:0
56,196,92280,2,0,B|168:160,1,99.9999985098839,10|0,0:0|0:0,0:0:0
328,176,92592,2,0,B|232:145,1,99.9999985098839
192,52,92905,5,0,0:0:0
292,32,93061,1,2,0:0:0
372,92,93217,2,0,B|428:192,1,99.9999985098839
392,84,93530,6,0,B|492:260,2,199.999997019768,10|0|0,0:0|0:0|0:0,0:0:0
296,52,94311,1,2,0:0:0
196,72,94467,2,0,B|160:72|160:72|128:60|128:60|80:60,1,99.9999985098839
120,160,94780,2,0,B|148:268,2,99.9999985098839,10|0|2,0:0|0:0|0:0,0:0:0
48,228,95248,1,2,0:0:0
84,320,95405,6,0,B|176:368|279:340,1,199.999997019768,0|2,0:0|0:0,0:0:0
372,312,95873,1,2,0:0:0
468,340,96030,2,0,B|444:208,1,99.9999985098839,8|0,0:0|0:0,0:0:0
364,192,96342,2,0,B|343:92|343:92|308:50|238:44,2,199.999997019768,2|0|2,0:0|0:0|0:0,0:0:0
164,200,97280,2,0,B|116:184|86:139,1,99.9999985098839,10|0,0:0|0:0,0:0:0
224,122,97592,2,0,B|208:176|164:200,1,99.9999985098839,0|2,0:0|0:0,0:0:0
76,244,97905,5,0,0:0:0
120,332,98061,1,0,0:0:0
208,288,98217,1,2,0:0:0
164,200,98373,1,2,0:0:0
292,344,98530,2,0,B|456:312,1,149.999997764826,8|0,0:0|0:0,0:0:0
471,353,98842,2,0,B|447:309|399:284,1,99.9999985098839,2|0,0:0|0:0,0:0:0
420,192,99155,6,0,B|448:80,1,99.9999985098839,0|2,0:0|0:0,0:0:0
356,144,99467,2,0,B|324:33,1,99.9999985098839,0|0,0:0|0:0,0:0:0
276,132,99780,2,0,B|193:51,1,99.9999985098839,10|0,0:0|0:0,0:0:0
204,164,100092,2,0,B|92:136,2,99.9999985098839,0|2|4,0:0|0:0|0:0,0:0:0
76,324,110405,6,0,B|64:240,1,80
180,184,110717,2,0,B|168:268,1,80
248,320,111030,2,0,B|332:312|420:296,1,160,12|0,0:0|0:0,0:0:0
500,324,111498,5,0,0:0:0
512,227,111655,1,0,0:0:0
477,136,111811,1,0,0:0:0
389,97,111967,1,0,0:0:0
200,48,112280,2,0,B|194:130|188:208,1,160,8|0,0:0|0:0,0:0:0
188,207,112748,1,0,0:0:0
96,173,112905,5,0,0:0:0
141,90,113061,1,0,0:0:0
232,65,113217,1,0,0:0:0
325,86,113373,1,0,0:0:0
384,162,113530,2,0,B|390:244|395:328,1,160,8|0,0:0|0:0,0:0:0
297,318,113998,5,0,0:0:0
208,357,114155,1,0,0:0:0
111,335,114311,1,0,0:0:0
55,256,114467,1,0,0:0:0
221,51,114780,6,0,B|140:60|56:62,1,160,8|0,0:0|0:0,0:0:0
152,157,115248,1,8,0:0:0
318,50,115405,5,0,0:0:0
403,94,115561,1,0,0:0:0
442,181,115717,1,0,0:0:0
424,276,115873,1,0,0:0:0
347,338,116030,2,0,B|435:348|481:268,1,160,12|0,0:0|0:0,0:0:0
288,188,116498,6,0,B|298:274,1,80
80,344,116967,1,0,0:0:0
34,110,117280,2,0,B|-8:185|27:266,1,160,8|0,0:0|0:0,0:0:0
80,344,117748,1,0,0:0:0
172,313,117905,6,0,B|163:234,1,80
340,71,118217,2,0,B|349:150,1,80,2|0,0:0|0:0,0:0:0
109,205,118530,6,0,B|164:147,1,80
402,178,118842,2,0,B|347:236,1,80,2|0,0:0|0:0,0:0:0
151,88,119155,6,0,B|230:93,1,80
360,295,119467,2,0,B|281:290,2,80,2|0|2,0:0|0:0|0:0,0:0:0
496,154,120092,5,0,0:0:0
512,249,120248,1,0,0:0:0
402,179,120405,6,0,B|374:146|384:96,1,80,4|0,0:0|0:0,0:0:0
220,84,120717,2,0,B|263:88|298:51,1,80
272,204,121030,1,10,0:0:0
228,288,121186,1,2,0:0:0
137,316,121342,1,0,0:0:0
48,284,121498,1,2,0:0:0
24,124,121655,6,0,B|4:200,1,80
168,244,121967,2,0,B|152:164,1,80
192,80,122280,1,10,0:0:0
278,37,122436,1,0,0:0:0
372,58,122592,1,2,0:0:0
438,128,122748,1,10,0:0:0
472,332,122905,6,0,B|430:332|384:324,1,80
260,214,123217,2,0,B|298:207|340:208,1,80
168,244,123530,1,8,0:0:0
168,244,123842,1,0,0:0:0
72,224,123998,2,0,B|72:182|80:136,1,80,0|0,0:0|0:0,0:0:0
192,72,124311,6,0,B|192:114|184:160,1,80,0|0,0:0|0:0,0:0:0
326,232,124623,2,0,B|320:270|320:312,1,80,0|8,0:0|0:0,0:0:0
433,239,124936,2,0,B|440:202|440:160,2,80,0|0|8,0:0|0:0|0:0,0:0:0
320,311,125405,5,0,0:0:0
210,341,125561,1,0,0:0:0
180,231,125717,1,0,0:0:0
290,201,125873,1,0,0:0:0
360,112,126030,5,10,0:0:0
456,140,126186,1,0,0:0:0
484,44,126342,1,2,0:0:0
388,16,126498,1,2,0:0:0
244,32,126655,6,0,B|264:112,1,80
128,64,126967,2,0,B|179:128,1,80
32,140,127280,2,0,B|106:176,3,80,10|2|0|10,0:0|0:0|0:0|0:0,0:0:0
164,256,127905,5,0,0:0:0
96,327,128061,1,0,0:0:0
24,260,128217,1,0,0:0:0
93,189,128373,1,0,0:0:0
220,268,128529,5,8,0:0:0
288,197,128686,1,0,0:0:0
216,129,128842,1,0,0:0:0
148,201,128998,1,0,0:0:0
372,248,129155,6,0,B|468:232,1,80
274,119,129467,2,0,B|287:197,1,80
120,43,129780,6,0,B|216:59,1,80,8|0,0:0|0:0,0:0:0
22,172,130092,2,0,B|35:93,1,80
256,324,130405,5,0,0:0:0
256,324,130561,2,0,B|256:244,1,80
256,60,131030,1,0,0:0:0
256,60,131186,2,0,B|256:140,1,80
340,188,131655,6,0,B|358:110,1,80
153,110,131967,2,0,B|172:188,1,80
400,240,132280,2,0,B|452:168,1,80
65,175,132592,2,0,B|112:240,1,80
256,348,132905,5,0,0:0:0
342,307,133061,1,0,0:0:0
302,220,133217,1,0,0:0:0
215,260,133373,1,0,0:0:0
309,338,133530,5,8,0:0:0
376,270,133686,1,0,0:0:0
308,202,133842,1,0,0:0:0
240,269,133998,1,0,0:0:0
356,311,134155,5,0,0:0:0
395,224,134311,1,0,0:0:0
309,183,134467,1,2,0:0:0
268,270,134623,1,0,0:0:0
472,263,134780,5,10,0:0:0
463,168,134936,1,0,0:0:0
368,177,135092,1,8,0:0:0
376,272,135248,1,8,0:0:0
476,72,135405,6,0,B|392:56,1,80,4|0,0:0|0:0,0:0:0
232,84,135717,2,0,B|316:100,1,80
128,68,136030,1,10,0:0:0
144,164,136186,2,0,B|152:252|113:319,1,160,2|2,0:0|0:0,0:0:0
60,240,136655,2,0,B|144:240|215:270,1,160,0|0,0:0|0:0,0:0:0
276,344,137123,1,0,0:0:0
360,300,137280,2,0,B|464:300,1,80,2|0,0:0|0:0,0:0:0
400,230,137592,2,0,B|360:300,1,80,2|10,0:0|0:0,0:0:0
440,156,137905,6,0,B|408:100|356:116|320:52,1,160,0|2,0:0|0:0,0:0:0
256,124,138373,1,2,0:0:0
192,52,138530,2,0,B|104:64,1,80,8|2,0:0|0:0,0:0:0
192,52,138842,2,0,B|156:116|104:100|72:156,1,160,2|0,0:0|0:0,0:0:0
44,248,139311,1,0,0:0:0
96,328,139467,2,0,B|184:304,1,80,2|0,0:0|0:0,0:0:0
256,356,139780,1,10,0:0:0
288,268,139936,1,0,0:0:0
224,196,140092,1,0,0:0:0
256,104,140248,1,8,0:0:0
348,136,140405,6,0,B|388:160|408:220,2,80
376,44,140873,1,0,0:0:0
449,110,141030,2,0,B|504:164|484:260,1,160,12|0,0:0|0:0,0:0:0
444,348,141498,1,0,0:0:0
356,312,141655,2,0,B|176:336,1,160
176,320,142280,6,0,B|255:309,1,80,8|0,0:0|0:0,0:0:0
444,348,142592,2,0,B|364:358,1,80,0|8,0:0|0:0,0:0:0
84,312,142905,5,0,0:0:0
64,128,143061,1,0,0:0:0
48,224,143217,1,0,0:0:0
136,64,143373,1,0,0:0:0
224,104,143530,2,0,B|328:88,1,80,8|0,0:0|0:0,0:0:0
456,128,143842,2,0,B|352:144,1,80
348,232,144155,2,0,B|336:272|348:320,2,80
348,232,144780,6,0,B|236:256,1,80,8|0,0:0|0:0,0:0:0
345,311,145092,2,0,B|448:288,1,80
464,204,145405,5,0,0:0:0
372,48,145561,1,0,0:0:0
448,108,145717,1,0,0:0:0
276,32,145873,1,0,0:0:0
212,104,146030,2,0,B|132:164|48:168,1,160,12|0,0:0|0:0,0:0:0
80,72,146498,1,0,0:0:0
144,144,146655,2,0,B|121:241|59:298,1,160
72,285,147280,6,0,B|200:264,1,80,8|0,0:0|0:0,0:0:0
144,144,147592,2,0,B|16:165,1,80,0|8,0:0|0:0,0:0:0
212,208,147905,6,0,B|264:268|352:277,1,160
488,216,148373,1,0,0:0:0
432,276,148530,2,0,B|228:276,1,160,8|0,0:0|0:0,0:0:0
200,340,148998,1,0,0:0:0
108,308,149155,6,0,B|69:295|57:251,1,80
160,152,149467,2,0,B|168:191|135:224,1,80
2,178,149780,2,0,B|32:151|76:162,1,80,8|0,0:0|0:0,0:0:0
308,200,150092,2,0,B|277:226|233:215,1,80
396,140,150405,6,0,P|432:292|288:296,1,320
472,176,160405,6,0,B|504:272|432:316,1,160
344,352,160873,1,0,0:0:0
252,336,161030,2,0,B|255:253|260:172,1,160,12|0,0:0|0:0,0:0:0
212,96,161498,6,0,B|128:84,1,80
340,192,161967,2,0,B|424:220|496:180,1,160,0|8,0:0|0:0,0:0:0
484,84,162436,2,0,B|476:0,2,80,0|0|8,0:0|0:0|0:0,0:0:0
392,112,162905,5,0,0:0:0
304,76,163061,1,0,0:0:0
208,96,163217,1,0,0:0:0
160,180,163373,1,0,0:0:0
164,276,163530,2,0,B|92:312|0:300,1,160,8|0,0:0|0:0,0:0:0
8,300,163998,1,0,0:0:0
64,216,164155,5,0,0:0:0
256,352,164467,1,0,0:0:0
80,196,164780,1,8,0:0:0
160,40,164936,1,0,0:0:0
76,100,165092,1,0,0:0:0
164,136,165248,1,0,0:0:0
252,72,165405,6,0,B|336:80|412:72,1,160
504,180,165873,1,0,0:0:0
488,184,165951,1,0,0:0:0
472,188,166030,2,0,B|388:196|312:188,1,160,12|0,0:0|0:0,0:0:0
252,264,166498,6,0,B|272:344,1,80
128,184,166967,2,0,B|48:204,1,80,0|0,0:0|0:0,0:0:0
64,300,167280,5,8,0:0:0
140,243,167436,1,0,0:0:0
182,156,167592,1,0,0:0:0
173,59,167748,1,8,0:0:0
80,32,167905,6,0,B|71:74|93:109,1,80
276,136,168217,2,0,B|285:178|263:213,1,80
252,228,168451,1,0,0:0:0
240,244,168530,2,0,B|268:336|368:320,1,160,8|0,0:0|0:0,0:0:0
456,308,168998,1,0,0:0:0
504,224,169155,5,0,0:0:0
396,64,169467,1,0,0:0:0
504,224,169780,1,8,0:0:0
396,64,169936,1,0,0:0:0
424,160,170092,1,0,0:0:0
480,20,170248,1,8,0:0:0
424,160,170405,6,0,B|384:176|344:164,1,80
248,168,170717,1,0,0:0:0
156,176,170873,1,0,0:0:0
64,140,171030,6,0,B|60:180|72:228,1,80,14|2,0:0|0:0,0:0:0
216,332,171342,2,0,B|220:292|208:244,1,80,0|2,0:0|0:0,0:0:0
248,168,171655,6,0,B|240:108|192:72|128:84,1,160,0|2,0:0|0:0,0:0:0
0,316,172280,2,0,B|84:312|164:296,1,160,10|0,0:0|0:0,0:0:0
256,336,172748,1,0,0:0:0
356,308,172905,2,0,B|336:220,1,80
339,134,173217,1,2,0:0:0
407,64,173373,1,0,0:0:0
504,68,173530,6,0,B|499:153,1,80,8|0,0:0|0:0,0:0:0
490,310,173842,2,0,B|424:293|401:361|335:340,1,160,2|0,0:0|0:0,0:0:0
252,296,174311,1,0,0:0:0
249,277,174389,1,0,0:0:0
246,258,174467,2,0,B|253:171,1,80,2|0,0:0|0:0,0:0:0
140,108,174780,2,0,B|156:192,1,80,8|0,0:0|0:0,0:0:0
119,290,175092,2,0,B|94:344|22:355|-22:313,1,160,2|0,0:0|0:0,0:0:0
39,232,175561,5,0,0:0:0
28,120,175717,1,0,0:0:0
140,108,175873,1,2,0:0:0
151,221,176030,2,0,B|187:206|236:212,1,80,10|2,0:0|0:0,0:0:0
332,265,176342,2,0,B|373:274|417:256,1,80,0|2,0:0|0:0,0:0:0
424,176,176655,6,0,B|434:90|386:24,1,160,0|2,0:0|0:0,0:0:0
382,17,177123,1,0,0:0:0
299,67,177280,2,0,B|257:59|214:62,1,80,10|0,0:0|0:0,0:0:0
121,158,177592,2,0,B|162:165|206:163,1,80
298,179,177905,5,0,0:0:0
373,244,178061,1,0,0:0:0
400,342,178217,1,2,0:0:0
496,278,178373,1,0,0:0:0
484,290,178451,1,0,0:0:0
472,301,178530,2,0,B|399:349|315:318,1,160,8|2,0:0|0:0,0:0:0
45,310,179155,2,0,B|118:262|202:293,1,160,0|2,0:0|0:0,0:0:0
310,242,179623,5,0,0:0:0
193,190,179780,1,10,0:0:0
321,144,179936,1,0,0:0:0
185,93,180092,1,2,0:0:0
333,47,180248,1,0,0:0:0
499,47,180405,6,0,B|463:67|419:58,1,80
241,22,180717,2,0,B|270:52|271:94,1,80
262,239,181030,2,0,B|235:335|140:329,1,160,14|0,0:0|0:0,0:0:0
55,325,181498,1,2,0:0:0
11,240,181655,6,0,B|2:159|7:78,1,160,0|2,0:0|0:0,0:0:0
168,23,182123,1,0,0:0:0
258,80,182280,6,0,B|267:161|262:242,1,160,10|0,0:0|0:0,0:0:0
424,284,182748,1,0,0:0:0
512,225,182904,1,0,0:0:0
484,125,183060,1,0,0:0:0
379,121,183217,1,2,0:0:0
344,219,183373,1,0,0:0:0
275,300,183530,6,0,B|198:323|113:313,1,160,8|2,0:0|0:0,0:0:0
237,84,184155,2,0,B|314:61|399:71,1,160,0|2,0:0|0:0,0:0:0
146,59,184780,6,0,B|139:102|159:137,1,80,8|0,0:0|0:0,0:0:0
366,325,185092,2,0,B|373:282|353:247,1,80,2|0,0:0|0:0,0:0:0
236,84,185405,5,0,0:0:0
216,180,185561,1,0,0:0:0
160,260,185717,1,0,0:0:0
72,304,185873,1,2,0:0:0
24,216,186030,6,0,B|112:204,1,80,10|2,0:0|0:0,0:0:0
292,308,186342,2,0,B|212:318,1,80,0|2,0:0|0:0,0:0:0
320,200,186655,2,0,B|404:236|400:328,2,160,0|2|10,0:0|0:0|0:0,0:0:0
224,168,187436,1,0,0:0:0
132,136,187592,1,2,0:0:0
72,56,187748,1,2,0:0:0
16,140,187905,6,0,B|24:228,1,80
84,296,188217,2,0,B|120:316|164:308,1,80,2|0,0:0|0:0,0:0:0
180,304,188451,1,0,0:0:0
200,300,188530,2,0,B|276:276|360:312,1,160,8|2,0:0|0:0,0:0:0
444,360,188998,1,0,0:0:0
508,284,189155,5,0,0:0:0
480,184,189311,1,2,0:0:0
376,176,189467,1,0,0:0:0
336,272,189623,1,0,0:0:0
264,192,189780,5,10,0:0:0
236,92,189936,1,0,0:0:0
132,84,190092,1,0,0:0:0
92,180,190248,1,2,0:0:0
172,248,190405,6,0,B|172:328,1,80,4|0,0:0|0:0,0:0:0
84,360,190873,1,0,0:0:0
72,264,191030,2,0,B|66:223|84:187,1,80,14|2,0:0|0:0,0:0:0
235,106,191342,2,0,B|253:143|248:184,1,80,0|2,0:0|0:0,0:0:0
156,56,191655,5,0,0:0:0
423,173,191967,1,2,0:0:0
188,346,192280,1,10,0:0:0
272,300,192436,1,0,0:0:0
364,280,192592,2,0,B|404:300,2,40
336,184,192905,6,0,B|336:124|384:96|384:96|332:76,1,160
252,128,193373,1,0,0:0:0
156,136,193530,2,0,B|115:141|79:123,1,80,10|2,0:0|0:0,0:0:0
40,240,193842,2,0,B|10:211|2:171,1,80,0|2,0:0|0:0,0:0:0
88,76,194155,2,0,B|129:76|163:53,1,80,0|2,0:0|0:0,0:0:0
44,152,194467,2,0,B|69:184|108:197,1,80
200,224,194780,1,10,0:0:0
268,292,194936,1,0,0:0:0
352,228,195092,1,2,0:0:0
388,132,195248,1,2,0:0:0
380,28,195405,6,0,B|396:83|444:128,1,119.999996423721
448,224,195873,2,0,B|444:264|418:296,1,80,0|10,0:0|0:0,0:0:0
352,228,196186,1,2,0:0:0
312,140,196342,2,0,B|304:104|304:104|256:156|192:144,1,160
216,32,196967,5,2,0:0:0
296,352,197280,1,10,0:0:0
368,292,197436,1,0,0:0:0
280,248,197592,1,0,0:0:0
212,312,197748,1,0,0:0:0
136,352,197905,6,0,B|124:348|124:348|88:356|56:348,1,80
192,228,198217,2,0,B|163:211|143:179|143:179|132:174,1,80
357,208,198530,2,0,B|384:192|404:161|404:161|416:156,1,80,10|2,0:0|0:0,0:0:0
424,352,198843,2,0,B|436:348|436:348|472:356|504:348,1,80,0|2,0:0|0:0,0:0:0
488,240,199155,5,0,0:0:0
416,156,199311,1,0,0:0:0
316,112,199467,2,0,B|300:76|300:76|240:104|184:76,1,160,2|8,0:0|0:0,0:0:0
96,120,199936,1,0,0:0:0
92,132,200014,1,0,0:0:0
88,144,200092,2,0,B|88:170|88:170|107:188|113:216,1,80,2|0,0:0|0:0,0:0:0
88,352,200405,6,0,B|59:321|53:281,1,80
164,296,200873,1,0,0:0:0
204,208,201030,2,0,B|284:204,1,80,14|2,0:0|0:0,0:0:0
448,348,201342,2,0,B|368:352,1,80,0|2,0:0|0:0,0:0:0
312,284,201655,5,0,0:0:0
148,194,201967,1,2,0:0:0
307,97,202280,1,10,0:0:0
400,112,202436,2,0,B|402:70|381:35,1,80
236,156,202748,1,0,0:0:0
68,248,202905,6,0,B|58:287|85:323,1,80
194,160,203217,2,0,B|203:119|178:83,1,80
86,140,203530,2,0,B|46:130|11:156,1,80,10|2,0:0|0:0,0:0:0
175,266,203842,2,0,B|214:275|251:249,1,80,0|2,0:0|0:0,0:0:0
332,240,204155,1,2,0:0:0
408,264,204311,1,2,0:0:0
468,316,204467,1,2,0:0:0
404,364,204623,5,2,0:0:0
408,264,204780,1,10,0:0:0
396,164,204936,1,2,0:0:0
356,72,205092,1,2,0:0:0
280,136,205248,1,2,0:0:0
232,224,205405,6,0,B|192:234|157:208,1,80,0|0,0:0|0:0,0:0:0
80,152,205873,1,0,0:0:0
64,56,206030,2,0,B|132:46|162:108,1,120,10|0,0:0|0:0,0:0:0
204,84,206342,2,0,B|244:94|279:68,1,80,0|2,0:0|0:0,0:0:0
332,148,206655,5,0,0:0:0
340,164,206967,1,2,0:0:0
348,180,207280,1,10,0:0:0
408,256,207436,2,0,B|448:260,2,40
356,336,207748,1,2,0:0:0
260,316,207905,6,0,B|224:264|224:264|232:248,1,80,0|2,0:0|0:0,0:0:0
252,68,208217,2,0,B|288:120|288:120|280:136,1,80,0|2,0:0|0:0,0:0:0
313,216,208530,2,0,B|328:224|328:224|380:188,1,80,8|2,0:0|0:0,0:0:0
198,167,208842,2,0,B|184:160|184:160|132:196,1,80,0|2,0:0|0:0,0:0:0
260,316,209155,5,0,0:0:0
380,188,209311,1,2,0:0:0
252,68,209467,1,0,0:0:0
132,196,209623,1,0,0:0:0
231,249,209780,5,10,0:0:0
313,216,209936,1,0,0:0:0
280,134,210092,1,2,0:0:0
198,167,210248,1,2,0:0:0
256,192,210405,5,4,0:0:0
