osu file format v11

[General]
AudioFilename: Grim.mp3
AudioLeadIn: 0
PreviewTime: 115405
Countdown: 0
SampleSet: Soft
StackLeniency: 0.7
Mode: 0
LetterboxInBreaks: 0

[Editor]
Bookmarks: 40405,70405,100405,110405,130405,150405,160405,190405,210405
DistanceSpacing: 1.2
BeatDivisor: 4
GridSize: 4

[Metadata]
Title:Grim
TitleUnicode:Grim
Artist:Raujika
ArtistUnicode:Raujika
Creator:JauiPlaY
Version:Easy
Source:
Tags:spboxer3 lks vivicat beren -baby strawberry-
BeatmapID:176548
BeatmapSetID:58787

[Difficulty]
HPDrainRate:2
CircleSize:3
OverallDifficulty:2
ApproachRate:3
SliderMultiplier:1.1
SliderTickRate:2

[Events]
//Background and Video events
0,0,"c064210345fa7d77a51054bc9d6be4a2.jpg"
//Break Periods
2,100605,108965
2,150605,158965
//Storyboard Layer 0 (Background)
//Storyboard Layer 1 (Fail)
//Storyboard Layer 2 (Pass)
//Storyboard Layer 3 (Foreground)
Sprite,Foreground,Centre,"by.png",320,240 M,0,100405,,105,98 F,0,100405,101030,0,1 F,0,101030,109780,1 F,0,109780,110405,1,0
Sprite,Foreground,Centre,"jpy.png",320,240 M,0,100405,,293,99 F,0,100405,101030,0,1 F,0,101030,109780,1 F,0,109780,110405,1,0
//Storyboard Sound Samples
//Background Colour Transformations
3,100,0,0,0

[TimingPoints]
30405,625,4,2,0,100,1,0
40405,-100,4,2,0,100,0,1
40561,-100,4,2,0,100,0,0
80405,-100,4,2,0,100,0,1
100405,-100,4,2,0,80,0,0
130405,-100,4,1,0,70,0,0
134155,-100,4,2,0,100,0,0
170405,-100,4,2,0,100,0,1
190248,-100,4,2,0,100,0,0
190405,-100,4,2,0,100,0,1
210248,-100,4,2,0,100,0,0
210405,-100,4,2,0,80,0,1
210561,-100,4,2,0,100,0,0

[Colours]
Combo1 : 255,117,117
Combo2 : 157,60,255
Combo3 : 84,84,252
Combo4 : 255,102,179
SliderBorder : 185,185,185

[HitObjects]
224,72,39155,6,0,B|224:36|256:20|288:36|288:72,1,110,0|2,0:0|0:0,0:0:0
256,200,40405,6,0,B|256:264|256:264|248:272|248:272|264:272|264:272|256:280|256:280|256:344,2,165,0|2|2,0:0|0:0|0:0,0:0:0
328,88,42905,2,0,P|296:60|256:48|256:48|216:60|184:88,1,165
140,212,44467,2,0,P|124:264,1,55,2|2,0:0|0:0,0:0:0
256,276,45405,6,0,P|248:204|248:204|264:204|264:204|256:128,2,165,0|2|2,0:0|0:0|0:0,0:0:0
372,212,47905,1,0,0:0:0
320,336,48530,1,0,0:0:0
192,336,49155,1,2,0:0:0
140,212,49780,1,2,0:0:0
256,148,50405,6,0,B|256:188|240:212|240:212|272:212|272:212|256:236|256:276,2,165,0|2|2,0:0|0:0|0:0,0:0:0
372,216,52905,1,0,0:0:0
328,88,53530,1,0,0:0:0
183,88,54155,1,2,0:0:0
140,216,54780,1,2,0:0:0
212,328,55405,6,0,B|224:352|256:356|256:356|288:352|300:328,1,110,0|2,0:0|0:0,0:0:0
372,216,56655,2,0,B|416:248,2,55,0|2|2,0:0|0:0|0:0,0:0:0
256,152,57905,2,0,B|256:96,2,55,0|0|2,0:0|0:0|0:0,0:0:0
140,216,59155,2,0,B|96:248,2,55,0|0|2,0:0|0:0|0:0,0:0:0
224,316,60405,6,0,B|224:280|256:264|288:280|288:316,1,110,0|8,0:0|0:0,0:0:0
356,204,61655,2,0,B|320:160|320:160|324:108,1,110,0|8,0:0|0:0,0:0:0
188,108,62905,2,0,B|192:160|192:160|156:204,1,110,0|8,0:0|0:0,0:0:0
256,276,64155,2,0,B|256:332,2,55,0|8|8,0:0|0:0|0:0,0:0:0
372,212,65405,6,0,B|356:164|384:124|384:124|372:112,2,110,0|8|0,0:0|0:0|0:0,0:0:0
256,160,67280,1,8,0:0:0
140,111,67905,2,0,B|128:124|128:124|156:164|140:212,1,110,0|8,0:0|0:0,0:0:0
256,276,69155,2,0,B|256:220,2,55,0|8|8,0:0|0:0|0:0,0:0:0
368,348,70405,5,0,0:0:0
368,348,71030,1,8,0:0:0
372,216,71655,2,0,B|424:200,2,55,0|0|8,0:0|0:0|0:0,0:0:0
256,276,72905,5,0,0:0:0
144,348,73530,1,8,0:0:0
156,216,74155,2,0,B|104:200,2,55,0|8|8,0:0|0:0|0:0,0:0:0
208,96,75405,6,0,B|240:104|256:80|256:80|272:104|304:96,2,110,0|8|0,0:0|0:0|0:0,0:0:0
256,220,77280,1,8,0:0:0
256,192,77905,12,4,80405,0:0:0
256,41,81342,6,0,B|256:104|256:104|248:112|248:112|264:112|264:112|256:120|256:120|256:184,1,165,2|2,0:0|0:0,0:0:0
184,296,82905,2,0,P|216:324|256:336|256:336|296:324|328:296,1,165
372,172,84467,2,0,P|388:116,1,55,2|2,0:0|0:0,0:0:0
256,108,85405,6,0,P|264:180|264:180|248:180|248:180|256:256,2,165,0|2|2,0:0|0:0|0:0,0:0:0
140,172,87905,1,0,0:0:0
192,48,88530,1,0,0:0:0
320,48,89155,1,2,0:0:0
372,172,89780,1,2,0:0:0
256,236,90405,6,0,B|256:196|272:172|272:172|240:172|240:172|256:148|256:108,2,165,0|2|2,0:0|0:0|0:0,0:0:0
140,168,92905,1,0,0:0:0
184,296,93530,1,0,0:0:0
329,296,94155,1,2,0:0:0
372,168,94780,1,2,0:0:0
300,56,95405,6,0,B|284:32|256:24|256:24|228:32|212:56,1,110,0|2,0:0|0:0,0:0:0
140,168,96655,2,0,B|96:136,2,55,0|2|2,0:0|0:0|0:0,0:0:0
256,232,97905,2,0,B|256:288,2,55,0|0|2,0:0|0:0|0:0,0:0:0
372,168,99155,2,0,B|416:136,2,55,0|0|2,0:0|0:0|0:0,0:0:0
256,104,100405,5,4,0:0:0
256,192,110405,6,0,B|256:304,1,110,0|8,0:0|0:0,0:0:0
360,220,111655,2,0,B|404:184,2,55,0|0|8,0:0|0:0|0:0,0:0:0
300,104,112905,2,0,B|284:80|256:72|256:72|228:80|212:104,1,110,0|8,0:0|0:0,0:0:0
152,220,114155,2,0,B|108:184,2,55,0|8|8,0:0|0:0|0:0,0:0:0
208,340,115405,6,0,P|256:364|304:340,1,110,0|8,0:0|0:0,0:0:0
256,216,116655,2,0,B|256:192|268:176|268:176|244:176|244:176|256:160|256:136,1,110,0|8,0:0|0:0,0:0:0
256,192,117905,12,4,120405,0:0:0
256,59,121655,5,2,0:0:0
256,324,122905,1,0,0:0:0
356,240,123530,1,2,0:0:0
256,152,124155,2,0,B|256:208,2,55,0|2|2,0:0|0:0|0:0,0:0:0
156,240,125405,5,0,0:0:0
388,116,126655,1,2,0:0:0
124,116,127905,1,0,0:0:0
256,344,129155,2,0,B|256:284,2,55,0|2|2,0:0|0:0|0:0,0:0:0
360,264,130405,5,0,0:0:0
316,140,131030,1,0,0:0:0
196,140,131655,1,0,0:0:0
152,264,132280,1,0,0:0:0
256,344,132905,5,0,0:0:0
360,264,133530,1,0,0:0:0
256,184,134155,2,0,B|256:244,2,55,0|2|2,0:0|0:0|0:0,0:0:0
164,280,135405,6,0,B|157:247|128:243|128:243|143:218|121:193,1,110,4|2,0:0|0:0,0:0:0
212,96,136655,2,0,B|224:72|256:68|256:68|288:72|300:96,1,110,0|2,0:0|0:0,0:0:0
390,192,137905,2,0,B|368:218|383:243|383:243|354:247|348:280,1,110,0|2,0:0|0:0,0:0:0
256,184,139155,2,0,B|256:240,2,55,0|2|2,0:0|0:0|0:0,0:0:0
176,80,140405,6,0,B|147:73|121:86|121:86|106:111|111:140,1,110,0|8,0:0|0:0,0:0:0
104,272,141655,2,0,B|60:304,2,55,0|0|8,0:0|0:0|0:0,0:0:0
208,352,142905,2,0,B|240:344|256:368|256:368|272:344|304:352,1,110,0|8,0:0|0:0,0:0:0
408,272,144155,2,0,B|452:304,2,55,0|8|8,0:0|0:0|0:0,0:0:0
400,140,145405,6,0,B|405:111|390:86|390:86|364:73|336:80,2,110,0|8|0,0:0|0:0|0:0,0:0:0
288,204,147280,2,0,B|288:240|256:256|224:240|224:204,1,110,8|0,0:0|0:0,0:0:0
128,112,148530,1,8,0:0:0
256,76,149155,2,0,B|256:20,2,55,0|8|8,0:0|0:0|0:0,0:0:0
384,112,150405,5,2,0:0:0
256,192,160405,6,0,B|256:304,1,110,0|8,0:0|0:0,0:0:0
384,336,161655,2,0,B|408:348|408:348|420:304|456:284,1,110,0|8,0:0|0:0,0:0:0
428,156,162905,5,0,0:0:0
323,76,163530,1,8,0:0:0
188,76,164155,1,0,0:0:0
84,156,164780,1,8,0:0:0
55,283,165406,6,0,B|92:304|104:348|104:348|128:336,1,110,0|8,0:0|0:0,0:0:0
224,244,166655,2,0,B|224:208|256:192|288:208|288:244,1,110,0|8,0:0|0:0,0:0:0
256,192,167905,12,4,170405,0:0:0
296,168,171342,6,0,B|308:116|256:80|204:116|216:168,1,165,2|2,0:0|0:0,0:0:0
184,296,172905,2,0,P|216:324|256:336|256:336|296:324|328:296,1,165
372,172,174467,2,0,P|388:112,1,55,2|2,0:0|0:0,0:0:0
256,104,175405,6,0,B|256:152|256:152|244:172|244:172|268:172|268:172|256:192|256:192|256:240,2,165,0|2|2,0:0|0:0|0:0,0:0:0
140,172,177905,1,0,0:0:0
192,48,178530,1,0,0:0:0
320,48,179155,1,2,0:0:0
372,172,179780,1,2,0:0:0
256,236,180405,6,0,B|256:196|272:172|272:172|240:172|240:172|256:148|256:108,2,165,0|2|2,0:0|0:0|0:0,0:0:0
140,168,182905,1,0,0:0:0
184,296,183530,1,0,0:0:0
329,296,184155,1,2,0:0:0
372,168,184780,1,2,0:0:0
300,56,185405,6,0,B|284:32|256:24|256:24|228:32|212:56,1,110,0|2,0:0|0:0,0:0:0
140,168,186655,2,0,B|96:136,2,55,0|2|2,0:0|0:0|0:0,0:0:0
256,232,187905,2,0,B|256:288,2,55,0|0|2,0:0|0:0|0:0,0:0:0
372,168,189155,2,0,B|416:136,2,55,0|0|2,0:0|0:0|0:0,0:0:0
296,276,190405,6,0,B|308:328|256:364|204:328|216:276,2,165,4|2|2,0:0|0:0|0:0,0:0:0
320,144,192905,2,0,B|296:112|256:92|256:92|216:112|192:144,1,165
256,260,194467,2,0,P|256:328,1,55,2|2,0:0|0:0,0:0:0
348,220,195405,5,0,0:0:0
256,128,196030,1,2,0:0:0
164,220,196655,2,0,B|116:192,2,55,0|2|2,0:0|0:0|0:0,0:0:0
204,344,197905,2,0,B|256:376|308:344,1,110,0|2,0:0|0:0,0:0:0
348,220,199155,2,0,B|396:192,2,55,0|2|2,0:0|0:0|0:0,0:0:0
320,92,200405,5,2,0:0:0
192,92,201030,1,2,0:0:0
176,224,201655,2,0,P|256:288|336:224,1,220,0|2,0:0|0:0,0:0:0
256,120,203530,5,2,0:0:0
136,72,204155,2,0,P|104:88|80:112,2,55,2|2|2,0:0|0:0|0:0,0:0:0
184,192,205405,2,0,P|240:176|256:116|256:116|272:176|328:192,1,220,0|2,0:0|0:0,0:0:0
376,72,207280,2,0,P|408:88|432:112,2,55,2|2|2,0:0|0:0|0:0,0:0:0
256,16,208530,5,2,0:0:0
256,148,209155,1,2,0:0:0
204,268,209780,2,0,B|256:300|308:268,1,110,2|4,0:0|0:0,0:0:0
