osu file format v12

[General]
AudioFilename: Raujika - Cry More.mp3
AudioLeadIn: 0
PreviewTime: 137674
Countdown: 0
SampleSet: Soft
StackLeniency: 0.7
Mode: 0
LetterboxInBreaks: 0
EpilepsyWarning: 1
WidescreenStoryboard: 1

[Editor]
Bookmarks: 21854,55427,71871,104759,137647,154091
DistanceSpacing: 1
BeatDivisor: 4
GridSize: 4

[Metadata]
Title:Cry More
TitleUnicode:Cry More
Artist:Raujika
ArtistUnicode:Raujika
Creator:Broccoly
Version:Softboxer
Source:
Tags:Art Of The World spinboxer spboxer3
BeatmapID:273233
BeatmapSetID:102393

[Difficulty]
HPDrainRate:6
CircleSize:4
OverallDifficulty:6
ApproachRate:7
SliderMultiplier:1.4
SliderTickRate:1

[Events]
//Background and Video events
0,0,"IA1.jpg",0,0
//Break Periods
2,104986,119175
//Storyboard Layer 0 (Background)
//Storyboard Layer 1 (Fail)
//Storyboard Layer 2 (Pass)
//Storyboard Layer 3 (Foreground)
//Storyboard Sound Samples
//Background Colour Transformations
3,100,163,162,255

[TimingPoints]
3483,379.746835443038,3,2,2,15,1,0
3483,-166.666666666667,3,2,2,15,0,0
6900,-111.111111111111,3,2,2,15,0,0
7090,-111.111111111111,3,2,2,5,0,0
7280,-111.111111111111,3,2,2,10,0,0
7470,-111.111111111111,3,2,2,5,0,0
7660,-111.111111111111,3,2,2,7,0,0
7850,-111.111111111111,3,2,2,5,0,0
8040,-166.666666666667,3,2,2,15,0,0
20951,588.235294117647,3,2,0,20,1,8
21539,342.583076396026,3,2,2,20,1,0
22566,342.583076396026,3,2,0,20,1,0
22566,-100,3,2,2,20,0,0
56739,-100,3,2,2,10,0,0
56825,-100,3,2,2,20,0,0
57081,-100,3,2,2,10,0,0
57167,-100,3,2,2,20,0,0
57424,-100,3,2,2,10,0,0
57510,-100,3,2,2,20,0,0
60850,-100,3,2,2,10,0,0
60936,-100,3,2,2,20,0,0
61192,-100,3,2,2,10,0,0
61278,-100,3,2,2,20,0,0
61535,-100,3,2,2,10,0,0
61621,-100,3,2,2,20,0,0
64790,-100,3,2,2,10,0,0
65389,-100,3,2,2,20,0,0
70870,-100,3,1,2,20,0,0
71898,-100,3,2,1,30,0,0
71984,-100,3,2,2,30,0,0
104786,-100,3,2,0,20,0,0
120202,-100,3,2,2,15,0,0
120545,-100,3,2,2,20,0,0
120888,-100,3,2,2,25,0,0
121230,-100,3,2,1,20,0,0
121316,-100,3,2,2,30,0,0
137674,-83.3333333333333,3,2,0,35,0,1
137760,-83.3333333333333,3,2,2,35,0,1
154033,-83.3333333333333,3,2,2,27,0,0
154118,-83.3333333333333,3,2,2,27,0,1
168507,-83.3333333333333,3,2,2,22,0,1
170562,-83.3333333333333,3,2,2,22,0,0
172618,-83.3333333333333,3,2,2,10,0,0

[Colours]
Combo1 : 231,218,218
Combo2 : 157,0,134
Combo3 : 77,1,201
Combo4 : 5,207,51
Combo5 : 234,199,0
Combo6 : 255,15,21

[HitObjects]
436,72,3103,1,0,0:0:0:0:
363,42,3483,6,0,P|363:102|407:146,1,125.999996154785,4|0,0:0|0:0,0:0:0:0:
407,147,4242,5,0,0:0:0:0:
316,176,4432,1,2,0:0:0:0:
408,148,4622,2,0,P|412:192|396:232,1,83.9999974365235
316,176,5381,1,2,0:0:0:0:
340,292,5761,6,0,P|300:310|256:309,1,83.9999974365235,4|0,0:0|0:0,0:0:0:0:
260,310,6520,5,0,0:0:0:0:
180,296,6710,1,0,0:0:0:0:
108,248,6900,2,0,P|79:220|70:199,1,62.9999980773926,2|0,0:0|0:0,0:0:0:0:
179,114,7280,2,0,P|168:152|154:170,1,62.9999980773926,2|0,0:0|0:0,0:0:0:0:
28,118,7660,2,0,P|66:107|88:109,1,62.9999980773926,2|0,0:0|0:0,0:0:0:0:
180,114,8039,5,4,0:0:0:0:
181,113,8799,6,0,P|224:119|259:144,1,83.9999974365235,0|2,0:0|0:0,0:0:0:0:
256,142,9938,1,0,0:0:0:0:
332,180,10318,6,0,P|384:184|432:168,1,83.9999974365235,4|0,0:0|0:0,0:0:0:0:
488,88,11077,2,0,P|436:84|388:100,1,83.9999974365235,0|2,0:0|0:0,0:0:0:0:
405,91,12027,1,0,0:0:0:0:
336,76,12217,2,0,L|280:64,1,41.9999987182618,2|2,0:0|0:0,0:0:0:0:
224,52,12596,6,0,P|204:92|200:136,1,83.9999974365235,4|0,0:0|0:0,0:0:0:0:
199,130,13356,2,0,L|256:148,1,41.9999987182618,2|0,0:0|0:0,0:0:0:0:
296,208,13736,2,0,P|260:224|204:220,1,83.9999974365235
239,142,14495,1,2,0:0:0:0:
296,208,14875,2,0,P|308:256|284:328,1,125.999996154785,4|2,0:0|0:0,0:0:0:0:
248,344,15634,2,0,P|304:324|348:324,1,83.9999974365235,0|2,0:0|0:0,0:0:0:0:
408,336,16394,1,0,0:0:0:0:
416,324,16774,1,0,0:0:0:0:
424,312,17153,6,0,L|424:216,1,83.9999974365235,4|0,0:0|0:0,0:0:0:0:
420,152,17723,1,0,0:0:0:0:
496,172,17913,2,0,L|496:116,1,41.9999987182618
428,68,18293,2,0,P|384:72|352:104,1,83.9999974365235,2|0,0:0|0:0,0:0:0:0:
420,152,19052,1,0,0:0:0:0:
268,100,19432,2,0,P|205:103|154:138,1,125.999996154785,2|0,0:0|0:0,0:0:0:0:
156,136,20191,2,0,B|198:150|246:115|246:115,1,83.9999974365235,0|2,0:0|0:0,0:0:0:0:
256,192,20666,12,0,21539,0:0:0:0:
440,116,22224,5,0,0:3:0:0:
484,248,22566,2,0,P|448:320|384:332,1,140,4|0,0:3|0:0,0:3:0:0:
312,316,23080,1,0,0:3:0:0:
200,316,23251,1,8,0:3:0:0:
256,256,23423,1,0,0:3:0:0:
117,333,23594,2,0,P|64:320|28:248,1,140,2|0,0:3|0:0,0:3:0:0:
72,116,24279,1,4,0:3:0:0:
208,80,24622,6,0,P|220:144|176:208,2,140,4|0|8,0:3|0:0|0:3,0:0:0:0:
132,68,25478,1,0,0:0:0:0:
72,116,25649,2,0,P|48:156|40:188,1,70,2|0,0:3|0:0,0:0:0:0:
112,176,25992,2,0,P|128:192|150:233,1,70,0|0,0:3|0:0,0:0:0:0:
80,236,26335,2,0,P|57:241|10:240,1,70,4|0,0:3|0:0,0:0:0:0:
132,304,26677,6,0,P|224:300|276:316,1,140,4|0,0:3|0:0,0:0:0:0:
392,288,27191,1,0,0:0:0:0:
336,340,27362,2,0,P|381:353|473:349,1,140,8|2,0:3|0:3,0:0:0:0:
488,208,28048,2,0,P|442:194|350:198,1,140,0|4,0:0|0:3,0:0:0:0:
161,185,28733,6,0,P|69:189|24:176,2,140,4|0|8,0:3|0:0|0:3,0:0:0:0:
284,116,29760,2,0,P|376:112|421:125,1,140,2|0,0:3|0:0,0:0:0:0:
421,125,30274,2,0,L|404:208,1,70,0|4,0:0|0:3,0:0:0:0:
380,332,30788,6,0,P|304:344|236:312,1,140,4|0,0:3|0:0,0:0:0:0:
140,228,31302,1,0,0:0:0:0:
208,208,31473,1,8,0:3:0:0:
192,276,31645,1,0,0:0:0:0:
96,176,31816,2,0,P|84:100|116:32,1,140,2|0,0:3|0:0,0:0:0:0:
232,120,32501,1,4,0:3:0:0:
352,192,32844,6,0,P|424:208|487:192,2,140,4|0|8,0:3|0:0|0:3,0:0:0:0:
288,164,33700,1,0,0:0:0:0:
232,120,33871,2,0,P|216:92|188:68,1,70,2|0,0:3|0:0,0:0:0:0:
91,108,34214,2,0,P|128:115|156:132,1,70
104,180,34557,2,0,P|71:179|36:192,1,70,4|0,0:3|0:0,0:0:0:0:
24,292,34899,6,0,B|47:255|78:247|78:247|68:292|68:292|88:296|88:296|96:316|96:316|120:344|160:356,1,210,4|0,0:3|0:0,0:0:0:0:
204,360,35584,2,0,P|272:360|340:328,2,140,8|2|0,0:3|0:3|0:0,0:0:0:0:
164,224,36612,2,0,L|178:155,1,70,4|0,0:3|0:0,0:0:0:0:
240,192,36955,6,0,L|286:139,1,70,4|0,0:3|0:0,0:0:0:0:
320,200,37297,2,0,L|453:156,1,140,0|8,0:0|0:3,0:0:0:0:
480,220,37811,1,0,0:0:0:0:
452,284,37982,2,0,P|408:312|312:292,2,140,2|0|4,0:3|0:0|0:3,0:0:0:0:
480,220,38839,1,0,0:0:0:0:
452,156,39010,6,0,L|392:24,1,140,4|0,0:0|0:0,0:0:0:0:
328,56,39524,2,0,P|288:60|252:44,2,70,0|4|0,0:0|0:3|0:0,0:0:0:0:
344,124,40038,1,2,0:3:0:0:
344,124,40381,2,0,P|333:193|272:253,1,140,0|4,0:0|0:3,0:0:0:0:
160,296,41066,6,0,P|90:297|20:247,1,140,4|0,0:3|0:0,0:0:0:0:
68,196,41580,2,0,P|72:156|64:120,2,70,0|4|0,0:0|0:3|0:0,0:0:0:0:
0,164,42093,1,2,0:3:0:0:
0,164,42436,2,0,L|148:152,1,140,0|4,0:0|0:3,0:0:0:0:
260,80,43121,6,0,P|280:144|268:216,1,140,4|0,0:3|0:0,0:0:0:0:
228,272,43635,1,0,0:0:0:0:
172,312,43806,2,0,P|107:331|36:320,1,140,4|2,0:3|0:3,0:0:0:0:
32,180,44492,2,0,P|96:160|168:171,1,140,0|4,0:0|0:3,0:0:0:0:
304,208,45177,6,0,P|368:227|440:216,1,140,4|0,0:3|0:0,0:0:0:0:
352,108,45862,1,4,0:3:0:0:
356,244,46204,2,0,P|415:212|457:153,1,140,2|0,0:3|0:0,0:0:0:0:
476,88,46718,1,0,0:0:0:0:
468,20,46890,1,4,0:3:0:0:
352,108,47232,6,0,L|200:96,1,140,4|0,0:3|0:0,0:0:0:0:
152,60,47746,2,0,L|72:67,1,70,0|4,0:0|0:3,0:0:0:0:
16,152,48089,2,0,L|96:159,1,70,0|2,0:0|0:3,0:0:0:0:
192,244,48603,2,0,L|40:256,1,140,0|4,0:0|0:3,0:0:0:0:
164,340,49288,6,0,P|252:336|292:232,1,210,4|0,0:3|0:0,0:0:0:0:
192,244,49973,1,4,0:3:0:0:
360,352,50315,1,2,0:3:0:0:
496,204,50658,5,4,0:3:0:0:
488,185,51001,1,8,0:3:0:0:
480,167,51343,6,0,P|424:128|344:116,1,140,4|0,0:3|0:0,0:0:0:0:
284,120,51857,1,0,0:0:0:0:
220,148,52028,2,0,P|192:172|176:216,1,70,4|0,0:3|0:0,0:0:0:0:
164,272,52371,2,0,P|84:300|20:272,2,140,2|0|4,0:3|0:0|0:3,0:0:0:0:
220,148,53399,2,0,P|339:113|435:133,1,210,4|0,0:3|0:0,0:0:0:0:
408,196,54084,2,0,L|440:56,1,140,8|2,0:3|0:3,0:0:0:0:
452,56,54769,1,4,0:3:0:0:
464,52,55112,1,8,0:3:0:0:
476,48,55454,6,0,L|316:36,1,140,4|0,0:0|0:0,0:0:0:0:
300,136,55968,1,0,0:0:0:0:
236,104,56139,1,8,0:3:0:0:
196,44,56311,1,0,0:0:0:0:
236,184,56482,2,0,P|185:164|141:126,1,105,2|0,0:3|0:0,0:0:0:0:
138,98,56825,2,0,P|146:151|135:208,1,105,0|0,0:3|0:0,0:0:0:0:
111,226,57167,2,0,P|153:191|207:173,1,105,4|0,0:3|0:0,0:0:0:0:
285,168,57510,6,0,L|432:152,1,140,4|0,0:3|0:0,0:0:0:0:
476,200,58024,2,0,P|488:240|472:272,1,70,0|8,0:0|0:3,0:0:0:0:
436,320,58366,1,0,0:0:0:0:
400,240,58537,2,0,L|256:256,1,140,2|0,0:3|0:0,0:0:0:0:
260,256,59223,1,8,0:3:0:0:
148,340,59565,6,0,P|96:316|80:216,1,140,4|0,0:3|0:0,0:0:0:0:
84,172,60079,2,0,L|96:96,1,70,0|8,0:0|0:3,0:0:0:0:
108,36,60422,1,0,0:0:0:0:
168,68,60593,2,0,P|220:80|276:72,1,105,2|0,0:3|0:0,0:0:0:0:
296,52,60936,2,0,P|259:91|238:143,1,105,0|0,0:0|0:0,0:0:0:0:
252,172,61278,2,0,P|236:120|205:80,1,105,4|0,0:3|0:0,3:0:0:0:
168,68,61621,6,0,P|100:52|12:80,2,140,4|0|8,0:3|0:0|0:3,0:0:0:0:
252,172,62648,2,0,P|267:239|251:307,1,140,2|0,0:3|0:0,0:0:0:0:
192,344,63162,2,0,L|108:328,2,70,0|8|0,0:0|0:3|0:0,0:0:0:0:
304,360,63676,6,0,P|364:352|416:264,1,140,4|0,0:3|0:0,0:0:0:0:
416,224,64190,1,0,0:0:0:0:
388,160,64361,1,8,0:3:0:0:
324,136,64533,1,0,0:0:0:0:
256,148,64704,2,0,L|216:164,4,35,2|2|2|2|2,0:3|0:0|0:0|0:0|0:0,0:0:0:0:
388,160,65389,1,4,0:3:0:0:
340,36,65732,6,0,L|192:44,1,140,4|0,0:3|0:0,0:0:0:0:
140,76,66246,2,0,P|124:120|136:156,1,70,0|8,0:0|0:3,0:0:0:0:
176,196,66588,2,0,P|192:240|180:276,1,70,0|2,0:0|0:3,0:0:0:0:
176,280,67102,1,0,0:0:0:0:
160,296,67445,1,8,0:3:0:0:
140,304,67787,6,0,L|-12:304,1,140,4|0,0:3|0:0,0:0:0:0:
36,364,68301,1,0,0:0:0:0:
68,252,68472,1,8,0:3:0:0:
104,364,68644,1,0,0:0:0:0:
136,252,68815,2,0,L|288:252,2,140,2|0|4,0:3|0:0|0:3,0:0:0:0:
0,224,69843,6,0,P|-8:148|36:80,1,140,4|0,0:3|0:0,0:0:0:0:
80,56,70357,1,0,0:0:0:0:
148,40,70528,1,8,0:3:0:0:
216,60,70699,1,0,0:0:0:0:
260,116,70870,2,0,B|284:115|298:129|298:129|311:110|307:87|307:87|311:110|330:123|330:123|342:101|342:101|384:56|440:72|468:112,1,280,0|0,2:0|0:0,0:0:0:0:
400,152,71898,6,0,L|396:308,1,140,4|0,0:2|0:0,0:0:0:0:
344,336,72412,1,0,0:0:0:0:
276,344,72583,2,0,P|236:339|201:305,1,70,8|0,0:3|0:0,0:0:0:0:
168,268,72926,2,0,L|16:284,2,140,4|0|0,0:0|0:0|0:0,0:0:0:0:
224,224,73782,1,0,0:0:0:0:
160,196,73954,6,0,P|144:136|172:64,1,140,4|0,0:3|0:0,0:0:0:0:
232,28,74468,1,0,0:0:0:0:
292,64,74639,2,0,P|304:96|300:131,1,70,8|0,0:3|0:0,0:0:0:0:
360,40,74981,2,0,L|432:24,1,70,4|0,0:0|0:0,0:0:0:0:
460,156,75324,2,0,L|412:104,1,70
504,12,75667,2,0,L|482:78,1,70
496,216,76009,6,0,B|508:288|456:360|456:360|396:304,1,210,4|0,0:3|0:0,0:0:0:0:
360,364,76694,2,0,P|324:356|288:364,1,70,8|0,0:3|0:0,0:0:0:0:
236,324,77037,2,0,P|200:276|208:172,1,140,4|0,0:0|0:0,0:0:0:0:
256,68,77722,1,0,0:0:0:0:
400,24,78065,2,0,P|408:96|382:156,1,140,4|0,0:3|0:0,0:0:0:0:
129,156,78750,2,0,P|104:96|112:24,1,140,8|4,0:3|0:0,0:0:0:0:
112,23,79778,1,0,0:0:0:0:
256,40,80120,6,0,L|256:188,1,140,4|0,0:3|0:0,0:0:0:0:
320,228,80634,2,0,L|392:200,1,70,0|8,0:0|0:3,0:0:0:0:
416,276,80977,2,0,L|488:248,1,70,0|4,0:0|0:0,0:0:0:0:
256,336,81491,1,0,0:0:0:0:
30,250,81833,1,0,0:0:0:0:
30,250,82176,6,0,P|16:168|48:96,1,140,4|0,0:3|0:0,0:0:0:0:
172,92,82861,2,0,L|244:80,1,70,8|0,0:3|0:0,0:0:0:0:
312,72,83203,1,4,0:0:0:0:
428,224,83546,1,0,0:0:0:0:
250,249,83889,1,0,0:0:0:0:
312,72,84231,6,0,P|376:100|416:168,1,140,4|0,0:3|0:0,0:0:0:0:
428,224,84745,2,0,L|416:300,1,70,0|8,0:0|0:3,0:0:0:0:
284,340,85259,2,0,L|128:352,2,140,4|0|0,0:0|0:0|0:0,0:0:0:0:
352,320,86115,1,0,0:0:0:0:
328,256,86287,2,0,L|300:184,1,70,4|0,0:3|0:0,0:0:0:0:
364,156,86629,2,0,L|308:8,1,140,0|8,0:0|0:3,0:0:0:0:
264,80,87143,1,0,0:0:0:0:
288,144,87314,2,0,P|244:156|140:120,2,140,4|0|0,0:0|0:0|0:0,0:0:0:0:
240,12,88342,6,0,L|80:32,1,140,4|0,0:3|0:0,0:0:0:0:
60,84,88856,2,0,P|44:124|52:160,1,70,0|8,0:0|0:3,0:0:0:0:
84,272,89199,2,0,P|100:232|92:196,1,70,0|4,0:0|0:0,0:0:0:0:
96,206,89713,1,0,0:0:0:0:
96,206,90055,2,0,L|180:196,1,70
228,232,90398,6,0,P|292:248|363:237,1,140,4|0,0:3|0:0,0:0:0:0:
364,236,91083,6,0,P|400:216|421:196,1,70,8|0,0:3|0:0,0:0:0:0:
388,136,91425,2,0,L|352:64,1,70,4|0,0:0|0:0,0:0:0:0:
256,98,91768,2,0,L|256:168,1,70
124,136,92111,2,0,L|160:64,1,70
48,68,92453,6,0,P|24:128|56:200,2,140,4|0|8,0:3|0:0|0:3,0:0:0:0:
180,24,93481,2,0,L|264:32,1,70,4|0,0:0|0:0,0:0:0:0:
336,112,93824,2,0,L|252:120,1,70
184,204,94166,2,0,L|268:212,1,70
336,288,94509,6,0,P|304:344|232:376,1,140,4|0,0:3|0:0,0:0:0:0:
340,216,95194,1,8,0:3:0:0:
238,375,95536,6,0,P|173:375|109:328,1,140,4|2,0:0|0:3,0:0:0:0:
100,316,96222,1,2,0:3:0:0:
96,296,96564,6,0,L|96:148,1,140,4|0,0:3|0:0,0:0:0:0:
136,96,97078,1,0,0:0:0:0:
196,60,97249,2,0,P|228:52|284:60,1,70,8|0,0:3|0:0,0:0:0:0:
332,76,97592,2,0,L|488:48,2,140,4|0|0,0:0|0:0|0:0,0:0:0:0:
416,188,98620,2,0,P|403:264|288:340,1,210,4|0,0:3|0:0,0:0:0:0:
368,360,99305,2,0,L|232:316,2,140,8|4|0,0:3|0:0|0:0,0:0:0:0:
308,232,100333,2,0,L|212:200,1,70
176,188,100675,6,0,P|124:244|120:308,2,140,4|0|8,0:3|0:0|0:3,0:0:0:0:
188,184,101703,1,4,0:0:0:0:
200,180,102046,1,0,0:0:0:0:
212,176,102388,1,0,0:0:0:0:
220,172,102731,6,0,L|376:172,1,140,4|0,0:3|0:0,0:0:0:0:
408,120,103245,2,0,P|416:92|412:52,2,70,0|8|0,0:0|0:3|0:0,0:0:0:0:
452,176,103758,2,0,P|468:236|436:304,2,140,4|0|0,0:0|0:0|0:0,0:0:0:0:
256,192,104786,5,4,0:1:0:0:
356,308,120202,6,0,L|445:288,1,70,2|0,0:0|0:0,0:0:0:0:
378,242,120545,2,0,L|446:180,1,70,2|0,0:0|0:0,0:0:0:0:
363,172,120888,2,0,L|391:84,1,70,2|0,0:0|0:0,3:0:0:0:
316,120,121230,6,0,P|232:104|176:140,1,140,4|0,0:0|0:0,0:0:0:0:
144,184,121744,1,0,0:0:0:0:
160,252,121915,2,0,L|176:336,1,70,2|0,0:0|0:0,0:0:0:0:
240,344,122258,2,0,P|308:348|376:308,2,140,8|0|2,0:3|0:0|0:0,0:0:0:0:
108,300,123286,6,0,L|76:152,1,140,4|0,0:3|0:0,0:0:0:0:
80,164,123971,6,0,P|113:136|153:136,1,70,0|2,0:0|0:0,0:0:0:0:
208,136,124313,2,0,P|248:151|268:186,1,70,8|0,0:3|0:0,0:0:0:0:
325,212,124656,2,0,P|291:239|251:239,1,70,0|0,0:0|0:0,0:0:0:0:
202,269,124999,2,0,P|195:226|215:191,1,70,2|0,0:0|0:0,0:0:0:0:
304,112,125341,6,0,P|372:96|440:124,1,140,4|0,0:3|0:0,0:0:0:0:
476,176,125855,2,0,L|484:256,2,70,0|2|0,0:0|0:0|0:0,0:0:0:0:
435,120,126369,6,0,P|372:96|304:112,1,140,8|0,0:3|0:3,0:0:0:0:
256,164,126883,2,0,L|264:244,2,70,0|2|0,0:0|0:0|0:0,0:0:0:0:
208,112,127397,6,0,P|140:96|76:120,1,140,4|0,0:3|0:0,0:0:0:0:
148,240,128082,1,2,0:0:0:0:
277,97,128424,2,0,L|181:117,1,70,8|0,0:3|0:0,0:0:0:0:
152,68,128767,2,0,L|141:165,1,70,0|0,0:0|0:0,0:0:0:0:
88,180,129110,2,0,L|177:220,1,70,2|0,0:0|0:0,0:0:0:0:
172,276,129452,6,0,L|237:203,2,70,4|0|0,0:3|0:0|0:0,0:0:0:0:
128,328,129966,1,0,0:0:0:0:
188,360,130137,2,0,P|232:364|264:356,1,70,2|0,0:0|0:0,0:0:0:0:
320,332,130480,2,0,L|356:188,2,140,8|0|2,0:3|0:0|0:0,0:0:0:0:
460,344,131508,6,0,P|488:304|476:204,1,140,4|0,0:3|0:0,0:0:0:0:
444,160,132022,1,0,0:0:0:0:
388,116,132193,2,0,L|300:124,1,70,0|2,0:0|0:0,0:0:0:0:
253,140,132535,2,0,P|248:112|264:76,1,70,8|0,0:3|0:0,0:0:0:0:
228,208,132878,2,0,P|196:184|186:156,1,70
233,275,133221,2,0,P|194:271|172:252,1,70,2|0,0:0|0:0,0:0:0:0:
264,340,133563,6,0,L|96:352,1,140,4|0,0:3|0:0,0:0:0:0:
108,216,134248,1,2,0:0:0:0:
367,199,134591,2,0,L|199:211,1,140,8|0,0:3|0:0,0:0:0:0:
216,76,135276,2,0,L|208:0,1,70,2|0,0:0|0:0,0:0:0:0:
296,96,135619,6,0,L|304:166,2,70,4|0|2,0:3|0:0|0:0,0:0:0:0:
416,36,136304,1,0,0:0:0:0:
348,36,136475,1,0,0:0:0:0:
416,36,136646,6,0,P|452:44|488:76,1,70,8|0,0:3|0:0,0:0:0:0:
424,108,136989,2,0,P|451:132|466:178,1,70,2|0,0:0|0:0,0:0:0:0:
396,176,137332,2,0,P|407:211|397:258,1,70,2|2,0:0|0:0,0:0:0:0:
356,312,137674,6,0,L|248:328,1,83.9999974365235,4|0,0:0|0:0,0:0:0:0:
252,176,138017,2,0,L|319:261,1,83.9999974365235
188,336,138359,2,0,L|228:234,1,83.9999974365235,2|0,0:0|0:0,0:0:0:0:
100,364,138702,6,0,P|36:336|0:248,1,167.999994873047,8|0,0:3|0:0,0:0:0:0:
48,88,139387,1,2,0:0:0:0:
192,176,139730,6,0,P|264:184|356:144,1,167.999994873047,4|0,0:3|0:3,0:3:0:0:
408,88,140244,1,0,0:0:0:0:
436,168,140415,2,0,L|464:260,1,83.9999974365235,2|0,0:0|0:0,0:0:0:0:
488,328,140757,6,0,P|406:317|376:236,2,167.999994873047,8|2|0,0:3|0:0|0:0,0:0:0:0:
292,332,141785,6,0,P|216:340|124:264,1,167.999994873047,4|0,0:3|0:0,0:0:0:0:
96,220,142299,2,0,P|84:164|96:116,1,83.9999974365235,0|2,0:0|0:0,0:0:0:0:
116,60,142642,1,0,0:0:0:0:
168,128,142813,2,0,P|244:144|331:127,1,167.999994873047,8|0,0:3|0:0,0:0:0:0:
400,80,143327,1,0,0:0:0:0:
468,132,143498,2,0,P|488:176|496:220,1,83.9999974365235,2|0,0:0|0:0,0:0:0:0:
436,268,143841,6,0,L|332:284,1,83.9999974365235,4|0,0:3|0:0,0:0:0:0:
228,224,144183,2,0,L|332:208,1,83.9999974365235
216,304,144526,2,0,L|112:320,1,83.9999974365235,2|0,0:0|0:0,0:0:0:0:
8,260,144868,1,8,0:3:0:0:
12,176,145040,1,2,0:0:0:0:
16,240,145211,1,0,0:0:0:0:
34,157,145382,1,0,0:0:0:0:
24,220,145554,1,2,0:0:0:0:
56,141,145725,1,0,3:0:0:0:
136,120,145896,6,0,L|219:116,2,83.9999974365235,4|0|0,0:0|0:0|0:0,0:0:0:0:
180,192,146410,1,0,0:0:0:0:
308,112,146581,2,0,L|400:108,1,83.9999974365235,2|0,0:0|0:0,0:0:0:0:
472,140,146924,2,0,P|488:200|480:232,1,83.9999974365235,8|0,0:3|0:0,0:0:0:0:
340,244,147266,2,0,P|383:200|403:193,1,83.9999974365235
496,304,147609,2,0,P|436:287|420:274,1,83.9999974365235,2|0,0:0|0:0,0:0:0:0:
352,324,147952,6,0,L|184:335,1,167.999994873047,4|0,0:3|0:0,0:0:0:0:
100,340,148466,1,0,0:0:0:0:
40,284,148637,2,0,P|24:244|28:196,1,83.9999974365235,2|0,0:0|0:0,0:0:0:0:
56,128,148979,2,0,L|224:96,2,167.999994873047,8|2|0,0:3|0:0|0:0,0:0:0:0:
208,196,150007,6,0,P|272:184|320:84,1,167.999994873047,4|0,0:3|0:0,0:0:0:0:
308,16,150521,1,0,0:0:0:0:
408,124,150692,2,0,P|456:132|500:128,1,83.9999974365235,2|0,0:0|0:0,0:0:0:0:
496,212,151035,2,0,P|464:292|384:320,1,167.999994873047,8|0,0:3|0:0,0:0:0:0:
260,260,151549,1,0,0:0:0:0:
392,320,151720,2,0,L|288:336,1,83.9999974365235,2|0,0:0|0:0,0:0:0:0:
176,272,152063,6,0,L|80:288,1,83.9999974365235,4|0,0:3|0:0,0:0:0:0:
36,224,152405,2,0,P|16:136|64:64,1,167.999994873047,0|2,0:0|0:0,0:0:0:0:
124,28,152919,1,0,0:0:0:0:
180,92,153090,2,0,L|280:104,1,83.9999974365235,8|0,0:3|0:0,0:0:0:0:
284,184,153433,2,0,L|384:196,1,83.9999974365235,2|0,0:0|0:0,0:0:0:0:
388,276,153776,2,0,L|488:288,1,83.9999974365235,2|2,0:0|0:0,0:0:0:0:
500,208,154118,6,0,P|504:164|480:124,2,83.9999974365235,4|0|0,1:0|0:0|0:0,0:0:0:0:
420,184,154632,1,0,0:0:0:0:
391,103,154803,2,0,P|358:123|340:164,1,83.9999974365235,2|0,0:0|0:0,0:0:0:0:
336,248,155146,2,0,L|344:332,1,83.9999974365235,8|0,0:3|0:0,0:0:0:0:
268,372,155488,2,0,L|252:204,1,167.999994873047,0|2,0:0|0:0,0:0:0:0:
252,204,156174,6,0,P|208:196|152:212,1,83.9999974365235,4|0,0:3|0:0,0:0:0:0:
88,212,156516,1,0,0:0:0:0:
132,284,156688,2,0,P|87:292|31:276,2,83.9999974365235,0|2|0,0:0|0:0|0:0,0:0:0:0:
88,212,157201,2,0,L|88:40,2,167.999994873047,8|0|2,0:3|0:0|0:0,0:0:0:0:
232,124,158229,6,0,P|272:108|316:112,2,83.9999974365235,4|0|0,0:3|0:0|0:0,0:0:0:0:
284,192,158743,1,0,0:0:0:0:
200,208,158914,6,0,P|217:244|251:270,1,83.9999974365235,2|0,0:0|0:0,0:0:0:0:
332,300,159257,2,0,P|372:302|412:286,1,83.9999974365235,8|0,0:3|0:0,0:0:0:0:
476,232,159599,2,0,L|484:60,1,167.999994873047,0|2,0:0|0:0,0:0:0:0:
332,136,160285,6,0,P|256:104|180:135,1,167.999994873047,4|0,0:3|0:0,0:0:0:0:
256,288,160970,1,2,0:0:0:0:
332,136,161312,2,0,L|368:56,1,83.9999974365235,8|0,0:3|0:0,0:0:0:0:
408,132,161655,2,0,L|495:123,1,83.9999974365235,2|0,0:0|0:0,0:0:0:0:
448,196,161998,2,0,L|499:267,1,83.9999974365235,2|2,0:0|0:0,0:0:0:0:
412,264,162340,6,0,L|376:343,2,83.9999974365235,4|0|0,0:0|0:0|0:0,0:0:0:0:
448,196,162854,1,0,0:0:0:0:
364,200,163025,2,0,L|320:300,1,83.9999974365235,2|0,0:0|0:0,0:0:0:0:
296,352,163368,2,0,P|232:360|128:316,2,167.999994873047,8|0|2,0:3|0:0|0:0,0:0:0:0:
168,240,164396,6,0,P|68:272|52:336,1,167.999994873047,4|0,0:3|0:0,0:0:0:0:
139,323,164910,1,0,0:0:0:0:
168,240,165081,2,0,L|192:156,1,83.9999974365235,2|0,0:0|0:0,0:0:0:0:
216,80,165423,2,0,B|152:68|152:68|112:80|112:80|44:72,2,167.999994873047,8|0|2,0:3|0:0|0:0,0:0:0:0:
392,48,166451,6,0,P|424:96|400:204,1,167.999994873047,4|0,0:3|0:0,0:0:0:0:
340,252,166965,1,0,0:0:0:0:
324,168,167136,1,2,0:0:0:0:
404,200,167308,1,0,0:0:0:0:
260,228,167479,2,0,L|80:256,2,167.999994873047,8|0|2,0:3|0:0|0:0,0:0:0:0:
260,228,168507,6,0,P|312:180|216:52,1,251.999992309571,4|0,0:3|0:0,0:0:0:0:
160,96,169192,2,0,L|52:84,1,83.9999974365235,2|0,0:0|0:0,0:0:0:0:
36,184,169534,2,0,L|215:166,1,167.999994873047,2|0,0:0|0:0,0:0:0:0:
168,244,170048,2,0,L|156:328,2,83.9999974365235,0|2|2,0:0|0:0|0:0,0:0:0:0:
256,192,170562,1,4,0:0:0:0:
256,192,170648,12,0,172618,0:0:0:0:
