osu file format v12

[General]
AudioFilename: Raujika - Cry More.mp3
AudioLeadIn: 0
PreviewTime: 137674
Countdown: 0
SampleSet: Soft
StackLeniency: 0.7
Mode: 0
LetterboxInBreaks: 0
EpilepsyWarning: 1
WidescreenStoryboard: 1

[Editor]
Bookmarks: 21854
DistanceSpacing: 1.6
BeatDivisor: 4
GridSize: 4

[Metadata]
Title:Cry More
TitleUnicode:Cry More
Artist:Raujika
ArtistUnicode:Raujika
Creator:Broccoly
Version:Normal
Source:
Tags:Art Of The World spinboxer spboxer3
BeatmapID:273232
BeatmapSetID:102393

[Difficulty]
HPDrainRate:4
CircleSize:3
OverallDifficulty:4
ApproachRate:4
SliderMultiplier:0.9
SliderTickRate:1

[Events]
//Background and Video events
0,0,"IA1.jpg",0,0
//Break Periods
2,104986,119175
//Storyboard Layer 0 (Background)
//Storyboard Layer 1 (Fail)
//Storyboard Layer 2 (Pass)
//Storyboard Layer 3 (Foreground)
//Storyboard Sound Samples
//Background Colour Transformations
3,100,163,162,255

[TimingPoints]
3483,379.746835443038,3,2,2,10,1,0
3483,-125,3,2,2,10,0,0
20951,588.235294117647,3,2,0,20,1,8
21539,342.583076396026,3,2,2,20,1,0
22566,342.583076396026,3,2,0,20,1,0
22566,-125,3,2,2,20,0,0
39010,-125,3,2,2,25,0,0
70870,-125,3,2,2,26,0,0
71898,-125,3,2,2,30,0,0
121230,-125,3,2,2,32,0,0
137674,-111.111111111111,3,2,2,34,0,1
154033,-111.111111111111,3,2,2,34,0,0
154118,-111.111111111111,3,2,2,34,0,1
168849,-111.111111111111,3,2,2,20,0,1
169192,-111.111111111111,3,2,2,18,0,1
169534,-111.111111111111,3,2,2,16,0,1
170562,-111.111111111111,3,2,2,16,0,0
172618,-111.111111111111,3,2,2,9,0,0

[Colours]
Combo1 : 231,218,218
Combo2 : 157,0,134
Combo3 : 77,1,201
Combo4 : 5,207,51
Combo5 : 234,199,0
Combo6 : 255,15,21

[HitObjects]
88,296,3103,1,0,0:0:0:0:
40,208,3483,2,0,P|96:196|172:244,1,144,4|0,0:0|0:0,0:0:0:0:
208,344,4622,2,0,P|256:316|276:220,1,144
312,124,5761,6,0,P|252:120|180:180,1,144,4|0,0:0|0:0,0:0:0:0:
284,236,6900,2,0,P|320:244|360:228,1,72
432,152,7660,1,0,0:0:0:0:
456,264,8039,6,0,P|460:304|452:344,2,72,4|0|0,0:0|0:0|0:0,0:0:0:0:
432,152,9179,2,0,P|428:112|436:72,2,72
352,236,10318,6,0,P|304:240|220:176,1,144,4|0,0:0|0:0,0:0:0:0:
324,124,11457,2,0,P|276:80|192:76,1,144
124,160,12596,6,0,P|96:224|16:244,1,144,4|0,0:0|0:0,0:0:0:0:
112,328,13736,2,0,P|144:348|192:344,1,72
220,244,14495,1,0,0:0:0:0:
288,336,14875,22,0,P|320:304|320:196,1,144,4|0,0:0|0:0,0:0:0:0:
416,136,16014,2,0,P|416:180|428:216,1,72
436,324,16774,1,0,0:0:0:0:
320,340,17153,6,0,P|268:328|228:248,1,144,4|0,0:0|0:0,0:0:0:0:
324,188,18293,2,0,P|324:220|304:268,2,72
216,148,19432,5,4,0:0:0:0:
100,140,19812,2,0,L|64:148,2,36
256,192,22224,5,0,0:0:0:0:
316,84,22566,2,0,P|340:96|392:100,2,72,2|4|4,0:0|0:0|0:0,0:0:0:0:
356,184,23594,2,0,P|368:216|400:252,1,72,0|2,0:0|0:0,0:0:0:0:
460,328,24279,1,2,0:0:0:0:
360,340,24622,6,0,P|300:348|232:296,1,144,2|4,0:0|0:0,0:0:0:0:
136,340,25649,2,0,P|152:296|104:208,1,144,2|2,0:0|0:0,0:0:0:0:
40,296,26677,21,2,0:0:0:0:
16,192,27020,2,0,L|4:148,2,36,4|0|4,0:0|0:0|0:0,0:0:0:0:
96,116,27705,2,0,P|112:88|116:36,1,72,2|2,0:0|0:0,0:0:0:0:
224,60,28390,1,2,0:0:0:0:
188,164,28733,6,0,P|204:196|304:240,1,144,2|4,0:0|0:0,0:0:0:0:
388,184,29760,2,0,P|404:224|364:324,1,144,2|2,0:0|0:0,0:0:0:0:
264,332,30788,5,2,0:0:0:0:
156,332,31131,2,0,L|132:368,2,36,4|0|4,0:0|0:0|0:0,0:0:0:0:
52,300,31816,2,0,P|68:268|60:220,1,72,2|2,0:0|0:0,0:0:0:0:
56,124,32501,1,2,0:0:0:0:
156,168,32844,6,0,P|184:156|224:52,1,144,2|4,0:0|0:0,0:0:0:0:
324,96,33871,2,0,P|388:88|448:140,1,144,2|2,0:0|0:0,0:0:0:0:
356,196,34899,6,0,P|312:204|284:192,2,72,2|4|4,0:0|0:0|0:0,0:0:0:0:
452,248,35927,2,0,P|472:288|440:380,1,144,2|2,0:0|0:0,0:0:0:0:
360,308,36955,22,0,L|288:320,1,72,2|4,0:0|0:0,0:0:0:0:
180,336,37640,1,4,0:0:0:0:
72,348,37982,2,0,P|68:280|-4:232,1,144,2|2,0:0|0:0,0:0:0:0:
72,144,39010,5,2,0:0:0:0:
64,36,39353,2,0,L|29:45,2,36,4|0|4,0:0|0:0|0:0,0:0:0:0:
160,84,40038,2,0,P|196:80|228:60,1,72,2|2,0:0|0:0,0:0:0:0:
332,48,40723,1,2,0:0:0:0:
432,92,41066,6,0,P|456:132|428:228,1,144,2|4,0:0|0:0,0:0:0:0:
460,332,42093,2,0,L|308:304,1,144,2|2,0:0|0:0,0:0:0:0:
208,340,43121,5,2,0:0:0:0:
232,228,43464,2,0,L|208:184,2,36,4|0|4,0:0|0:0|0:0,0:0:0:0:
124,264,44149,2,0,P|96:276|52:276,2,72,2|2|2,0:0|0:0|0:0,0:0:0:0:
108,148,45177,6,0,P|76:136|36:32,1,144,2|4,0:0|0:0,0:0:0:0:
148,52,46204,2,0,B|220:36,2,72,2|2|2,0:0|0:0|0:0,0:0:0:0:
212,148,47232,22,0,P|288:164|340:208,1,144,2|4,0:0|0:0,0:0:0:0:
432,140,48260,2,0,P|440:104|368:36,1,144,2|2,0:0|0:0,0:0:0:0:
324,140,49288,6,0,P|324:168|304:224,2,72,2|4|4,0:0|0:0|0:0,0:0:0:0:
400,224,50315,2,0,P|424:248|436:288,2,72,2|2|2,0:0|0:0|0:0,0:0:0:0:
324,312,51343,6,0,P|300:332|192:336,1,144,2|4,0:0|0:0,0:0:0:0:
80,352,52371,2,0,P|104:304|80:220,1,144,2|2,0:0|0:0,0:0:0:0:
84,104,53399,5,4,0:0:0:0:
428,104,54426,1,4,0:0:0:0:
152,316,55454,6,0,P|226:273|292:296,1,144,2|2,0:0|0:0,0:0:0:0:
380,348,56482,2,0,P|348:368|304:376,2,72,2|4|4,0:0|0:0|0:0,0:0:0:0:
460,264,57510,22,0,P|408:244|364:160,1,144,2|2,0:0|0:0,0:0:0:0:
476,148,58537,1,2,0:0:0:0:
268,52,59223,1,4,0:0:0:0:
268,52,59565,6,0,L|120:68,1,144,2|2,0:0|0:0,0:0:0:0:
60,164,60593,2,0,L|136:184,2,72,2|4|4,0:0|0:0|0:0,0:0:0:0:
72,280,61621,6,0,P|88:336|176:368,1,144,2|2,0:0|0:0,0:0:0:0:
184,256,62648,2,0,L|195:199,2,36,2|0|4,0:0|0:0|0:0,0:0:0:0:
272,336,63334,1,4,0:0:0:0:
272,336,63676,6,0,P|308:297|408:272,1,144,2|2,0:0|0:0,0:0:0:0:
432,160,64704,2,0,L|480:104,2,72,2|4|4,0:0|0:0|0:0,0:0:0:0:
320,176,65732,6,0,P|280:152|248:64,1,144,2|2,0:0|0:0,0:0:0:0:
152,120,66759,2,0,P|120:152|88:160,2,72,2|4|4,0:0|0:0|0:0,0:0:0:0:
56,56,67787,22,0,P|16:104|16:192,1,144,2|2,0:0|0:0,0:0:0:0:
8,296,68815,2,0,P|56:280|144:344,1,144,2|4,0:0|0:0,0:0:0:0:
136,208,69843,6,0,P|192:192|224:168,2,72,2|2|2,0:0|0:0|0:0,0:0:0:0:
224,280,70870,6,2,P|264:304|288:216,1,144,2|8,0:0|0:0,0:0:0:0:
408,296,71898,6,0,P|408:240|488:168,1,144,2|2,0:0|0:0,0:0:0:0:
352,136,72926,2,0,P|360:88|376:56,1,72,2|4,0:0|0:0,0:0:0:0:
256,48,73611,1,4,0:0:0:0:
240,160,73954,6,0,P|200:184|96:176,1,144,2|2,0:0|0:0,0:0:0:0:
48,80,74981,2,0,P|88:48|104:24,2,72,2|4|4,0:0|0:0|0:0,0:0:0:0:
0,184,76009,22,0,P|0:240|64:296,1,144,2|2,0:0|0:0,0:0:0:0:
168,336,77037,2,0,P|192:296|288:272,1,144,2|4,0:0|0:0,0:0:0:0:
372,332,78065,6,0,P|397:349|437:357,2,72,2|2|2,0:0|0:0|0:0,0:0:0:0:
384,224,79092,2,0,P|432:184|440:96,1,144,2|4,0:0|0:0,0:0:0:0:
336,124,80120,6,0,L|192:76,1,144,2|2,0:0|0:0,0:0:0:0:
96,128,81148,2,0,L|48:64,2,72,2|4|4,0:0|0:0|0:0,0:0:0:0:
188,192,82176,6,0,P|136:240|52:232,1,144,2|2,0:0|0:0,0:0:0:0:
88,344,83203,2,0,P|136:368|224:352,1,144,2|4,0:0|0:0,0:0:0:0:
336,320,84231,6,0,P|288:280|296:192,1,144,2|2,0:0|0:0,0:0:0:0:
399,234,85259,1,2,0:0:0:0:
272,40,85944,2,0,L|290:70,2,36,4|2|2,0:0|0:0|0:0,0:0:0:0:
200,128,86629,22,0,P|200:176|224:208,1,72,2|2,0:0|0:0,0:0:0:0:
104,160,87314,2,0,L|80:120,2,36,2|2|4,0:0|0:0|0:0,0:0:0:0:
152,264,88000,1,4,0:0:0:0:
40,256,88342,6,0,P|48:320|123:372,1,144,2|2,0:0|0:0,0:0:0:0:
220,360,89370,2,0,P|250:338|292:328,2,72,2|4|4,0:0|0:0|0:0,0:0:0:0:
152,264,90398,6,0,P|176:224|276:192,1,144,2|2,0:0|0:0,0:0:0:0:
352,264,91425,2,0,P|356:304|388:336,2,72,2|4|4,0:0|0:0|0:0,0:0:0:0:
456,216,92453,6,0,P|392:168|400:92,1,144,2|2,0:0|0:0,0:0:0:0:
276,124,93481,2,0,L|124:104,1,144,2|4,0:0|0:0,0:0:0:0:
40,176,94509,6,0,P|88:204|100:244,2,72,2|2|2,0:0|0:0|0:0,0:0:0:0:
40,292,95536,2,0,P|88:312|172:268,1,144,2|4,0:0|0:0,0:0:0:0:
268,328,96564,22,0,P|284:288|312:264,1,72,2|2,0:0|0:0,0:0:0:0:
228,184,97249,1,2,0:0:0:0:
228,184,97592,2,0,P|268:152|288:104,2,72,2|4|4,0:0|0:0|0:0,0:0:0:0:
344,196,98620,6,0,P|388:192|456:104,1,144,2|2,0:0|0:0,0:0:0:0:
344,92,99647,2,0,P|288:84|268:52,1,72,2|4,0:0|0:0,0:0:0:0:
168,48,100333,1,4,0:0:0:0:
52,52,100675,6,0,P|64:112|144:156,1,144,2|2,0:0|0:0,0:0:0:0:
68,252,101703,2,0,P|52:292|16:320,2,72,2|4|4,0:0|0:0|0:0,0:0:0:0:
184,260,102731,5,4,0:0:0:0:
328,124,103758,1,4,0:0:0:0:
380,316,104786,1,4,0:0:0:0:
416,336,121230,6,0,L|368:248,1,72,2|4,0:0|0:0,0:0:0:0:
332,168,121915,1,4,0:0:0:0:
444,192,122258,2,2,P|448:144|368:64,1,144,2|2,0:0|0:0,0:0:0:0:
276,68,123286,22,2,P|208:76|140:16,1,144,2|4,0:0|0:0,0:0:0:0:
132,148,124313,2,2,P|124:212|48:252,1,144,2|2,0:0|0:0,0:0:0:0:
156,320,125341,6,0,P|180:353|216:372,2,72,2|4|4,0:0|0:0|0:0,0:0:0:0:
224,228,126369,2,0,P|256:188|256:152,2,72,2|4|4,0:0|0:0|0:0,0:0:0:0:
300,316,127397,6,2,P|348:328|436:288,1,144,2|2,0:0|0:0,0:0:0:0:
352,212,128424,2,2,P|344:140|404:76,1,144,2|2,0:0|0:0,0:0:0:0:
272,56,129452,6,0,P|261:31|264:0,2,36,2|2|4,0:0|0:0|0:0,0:0:0:0:
232,164,130137,1,4,0:0:0:0:
160,72,130480,2,2,P|112:56|16:96,1,144,2|2,0:0|0:0,0:0:0:0:
104,172,131508,6,0,P|124:204|124:252,2,72,2|4|4,0:0|0:0|0:0,0:0:0:0:
16,248,132535,2,2,P|48:320|112:344,1,144,2|2,0:0|0:0,0:0:0:0:
216,312,133563,22,0,P|240:272|292:256,2,72,2|4|4,0:0|0:0|0:0,0:0:0:0:
200,196,134591,2,2,P|220:140|184:64,1,144,2|2,0:0|0:0,0:0:0:0:
304,68,135619,6,0,P|356:68|400:40,1,72,2|4,0:0|0:0,0:0:0:0:
484,28,136304,1,4,0:0:0:0:
456,140,136646,2,2,P|480:176|472:284,1,144,2|2,0:0|0:0,0:0:0:0:
360,220,137674,6,2,L|200:144,1,161.999995056153,2|2,0:0|0:0,0:0:0:0:
136,48,138702,2,0,L|60:92,2,80.9999975280763,2|4|4,0:0|0:0|0:0,0:0:0:0:
116,176,139730,6,0,P|120:248|100:280,1,80.9999975280763,2|2,0:0|0:0,0:0:0:0:
32,352,140415,1,2,0:0:0:0:
160,336,140757,2,0,P|208:324|244:276,1,80.9999975280763,2|4,0:0|0:0,0:0:0:0:
304,196,141443,1,4,0:0:0:0:
356,316,141785,6,2,P|412:280|488:324,1,161.999995056153,2|2,0:0|0:0,0:0:0:0:
472,196,142813,2,0,P|452:136|460:88,2,80.9999975280763,2|4|4,0:0|0:0|0:0,0:0:0:0:
344,184,143841,22,2,P|292:152|296:52,1,161.999995056153,2|2,0:0|0:0,0:0:0:0:
164,80,144868,2,2,P|108:92|24:36,1,161.999995056153,2|2,0:0|0:0,0:0:0:0:
40,168,145896,6,0,P|40:216|12:256,1,80.9999975280763,2|4,0:0|0:0,0:0:0:0:
140,184,146581,1,4,0:0:0:0:
132,312,146924,2,2,P|200:300|256:212,1,161.999995056153,2|2,0:0|0:0,0:0:0:0:
368,296,147952,6,0,P|416:304|468:276,2,80.9999975280763,2|4|4,0:0|0:0|0:0,0:0:0:0:
368,168,148979,2,0,P|412:144|424:104,2,80.9999975280763,2|4|4,0:0|0:0|0:0,0:0:0:0:
244,164,150007,6,2,L|64:180,1,161.999995056153,2|4,0:0|0:0,0:0:0:0:
12,68,151035,2,0,L|92:88,2,80.9999975280763,2|2|2,0:0|0:0|0:0,0:0:0:0:
0,196,152063,6,2,P|52:260|128:252,1,161.999995056153,2|4,0:0|0:0,0:0:0:0:
224,336,153090,2,0,L|248:368,2,40.4999987640381,2|2|4,0:0|0:0|0:0,0:0:0:0:
244,208,153776,1,4,0:0:0:0:
344,288,154118,22,2,P|396:296|496:232,1,161.999995056153,2|2,0:0|0:0,0:0:0:0:
384,168,155146,2,0,L|408:84,2,80.9999975280763,2|4|4,0:0|0:0|0:0,0:0:0:0:
256,180,156174,6,0,P|208:144|188:76,1,121.499996292114,2|2,0:0|0:0,0:0:0:0:
188,88,156859,1,2,0:0:0:0:
124,200,157201,2,0,P|60:200|24:172,2,80.9999975280763,2|4|4,0:0|0:0|0:0,0:0:0:0:
48,304,158229,6,2,P|96:352|188:340,1,161.999995056153,2|2,0:0|0:0,0:0:0:0:
236,240,159257,2,0,P|280:268|292:304,2,80.9999975280763,2|4|4,0:0|0:0|0:0,0:0:0:0:
364,236,160285,6,2,P|432:216|476:120,1,161.999995056153,2|2,0:0|0:0,0:0:0:0:
352,108,161312,2,0,P|321:72|320:34,2,80.9999975280763
428,212,162340,6,2,P|388:268|280:276,1,161.999995056153,2|2,0:0|0:0,0:0:0:0:
196,212,163368,2,2,P|236:152|204:72,1,161.999995056153,2|2,0:0|0:0,0:0:0:0:
96,140,164396,22,0,P|60:104|52:64,2,80.9999975280763,2|4|4,0:0|0:0|0:0,0:0:0:0:
76,268,165423,2,0,P|56:316|28:340,1,80.9999975280763,2|2,0:0|0:0,0:0:0:0:
156,364,166109,1,2,0:0:0:0:
280,348,166451,6,2,P|244:296|284:204,1,161.999995056153,2|4,0:0|0:0,0:0:0:0:
376,300,167479,2,0,L|472:276,2,80.9999975280763,4|2|2,0:0|0:0|0:0,0:0:0:0:
380,172,168507,6,0,P|408:136|408:76,1,80.9999975280763,2|4,0:0|0:0,0:0:0:0:
284,88,169192,1,4,0:0:0:0:
176,156,169534,2,0,P|132:176|88:176,2,80.9999975280763
256,192,170561,12,0,172617,0:0:0:0:
