osu file format v12

[General]
AudioFilename: Raujika - Cry More.mp3
AudioLeadIn: 0
PreviewTime: 137674
Countdown: 0
SampleSet: Soft
StackLeniency: 0.7
Mode: 0
LetterboxInBreaks: 0
EpilepsyWarning: 1
WidescreenStoryboard: 1

[Editor]
Bookmarks: 21854
DistanceSpacing: 1.6
BeatDivisor: 4
GridSize: 4

[Metadata]
Title:Cry More
TitleUnicode:Cry More
Artist:Raujika
ArtistUnicode:Raujika
Creator:Broccoly
Version:Broccoly
Source:
Tags:Art Of The World spinboxer spboxer3
BeatmapID:270586
BeatmapSetID:102393

[Difficulty]
HPDrainRate:7
CircleSize:4
OverallDifficulty:8
ApproachRate:9
SliderMultiplier:1.5
SliderTickRate:1

[Events]
//Background and Video events
0,0,"IA1.jpg",0,0
//Break Periods
2,20571,21624
2,104986,119175
//Storyboard Layer 0 (Background)
//Storyboard Layer 1 (Fail)
//Storyboard Layer 2 (Pass)
//Storyboard Layer 3 (Foreground)
//Storyboard Sound Samples
//Background Colour Transformations
3,100,163,162,255

[TimingPoints]
3483,379.746835443038,3,2,2,15,1,0
3483,-166.666666666667,3,2,2,15,0,0
20951,588.235294117647,3,2,0,20,1,8
21539,342.583076396026,3,2,2,30,1,0
22224,-111.111111111111,3,2,2,28,0,0
22566,342.583076396026,3,2,2,30,1,0
24279,-200,3,2,2,30,0,0
24536,-200,3,2,2,15,0,0
24622,-111.111111111111,3,2,2,30,0,0
27619,-111.111111111111,3,2,2,15,0,0
27705,-111.111111111111,3,2,2,30,0,0
32501,-200,3,2,2,30,0,0
32758,-200,3,2,2,15,0,0
32844,-111.111111111111,3,2,2,30,0,0
37554,-111.111111111111,3,2,2,15,0,0
37640,-111.111111111111,3,2,2,30,0,0
40723,-200,3,2,2,30,0,0
40980,-200,3,2,2,15,0,0
41066,-111.111111111111,3,2,2,30,0,0
44063,-111.111111111111,3,2,2,15,0,0
44149,-111.111111111111,3,2,2,30,0,0
48945,-200,3,2,2,30,0,0
49202,-200,3,2,2,15,0,0
49288,-111.111111111111,3,2,2,30,0,0
52628,-111.111111111111,3,2,2,15,0,0
52714,-111.111111111111,3,2,2,30,0,0
52970,-111.111111111111,3,2,2,15,0,0
53056,-111.111111111111,3,2,2,30,0,0
53227,-111.111111111111,3,2,2,25,0,0
53399,-111.111111111111,3,2,2,30,0,0
54426,-133.333333333333,3,2,2,30,0,0
55454,-111.111111111111,3,2,2,30,0,0
56482,-111.111111111111,3,2,2,15,0,0
56825,-111.111111111111,3,2,2,30,0,0
57167,-200,3,2,2,30,0,0
57424,-200,3,2,2,15,0,0
57510,-111.111111111111,3,2,2,30,0,0
62648,-111.111111111111,3,2,2,15,0,0
62991,-111.111111111111,3,2,2,30,0,0
64704,-111.111111111111,3,2,2,15,0,0
64961,-111.111111111111,3,2,2,30,0,0
71556,-111.111111111111,3,2,2,20,0,0
71898,-105.263157894737,3,2,2,31,0,0
73611,-200,3,2,2,31,0,0
73868,-200,3,2,2,15,0,0
73954,-105.263157894737,3,2,2,31,0,0
76951,-105.263157894737,3,2,2,15,0,0
77037,-105.263157894737,3,2,2,31,0,0
81833,-200,3,2,2,31,0,0
82090,-200,3,2,2,15,0,0
82176,-105.263157894737,3,2,2,31,0,0
84916,-200,3,2,2,31,0,0
85173,-200,3,2,2,15,0,0
85259,-133.333333333333,3,2,2,31,0,0
85858,-133.333333333333,3,2,2,19,0,0
86030,-133.333333333333,3,2,2,31,0,0
86287,-105.263157894737,3,2,2,31,0,0
89370,-105.263157894737,3,2,2,16,0,0
89627,-105.263157894737,3,2,2,31,0,0
89713,-200,3,2,2,31,0,0
89969,-200,3,2,2,15,0,0
90055,-105.263157894737,3,2,2,31,0,0
90226,-105.263157894737,3,2,2,15,0,0
90398,-105.263157894737,3,2,2,31,0,0
91682,-105.263157894737,3,2,2,15,0,0
91768,-105.263157894737,3,2,2,31,0,0
92111,-200,3,2,2,31,0,0
92368,-200,3,2,2,15,0,0
92453,-105.263157894737,3,2,2,31,0,0
95536,-105.263157894737,3,2,2,16,0,0
95793,-105.263157894737,3,2,2,31,0,0
97592,-105.263157894737,3,2,2,16,0,0
97849,-105.263157894737,3,2,2,31,0,0
97935,-200,3,2,2,31,0,0
98191,-200,3,2,2,15,0,0
98277,-105.263157894737,3,2,2,31,0,0
103416,-200,3,2,2,31,0,0
103758,-200,3,2,2,15,0,0
104786,-105.263157894737,3,2,1,31,0,0
119860,-105.263157894737,3,2,2,32,0,0
122943,-200,3,2,2,32,0,0
123200,-200,3,2,2,15,0,0
123286,-105.263157894737,3,2,2,32,0,0
126711,-105.263157894737,3,2,2,20,0,0
126882,-105.263157894737,3,2,2,23,0,0
127053,-105.263157894737,3,2,2,26,0,0
127225,-105.263157894737,3,2,2,29,0,0
127397,-105.263157894737,3,2,2,32,0,0
129452,-105.263157894737,3,2,2,25,0,0
129623,-105.263157894737,3,2,2,32,0,0
131165,-200,3,2,2,32,0,0
131422,-200,3,2,2,15,0,0
131508,-105.263157894737,3,2,2,32,0,0
135961,-133.333333333333,3,2,2,31,0,0
136304,-133.333333333333,3,2,2,20,0,0
136646,-105.263157894737,3,2,2,15,0,0
136989,-105.263157894737,3,2,2,25,0,0
137332,-105.263157894737,3,2,2,35,0,0
137589,-133.333333333333,3,2,2,15,0,0
137674,-100,3,2,2,35,0,1
139387,-181.818181818182,3,2,2,35,0,1
139644,-181.818181818182,3,2,2,15,0,1
139730,-100,3,2,2,35,0,1
149236,-100,3,2,2,15,0,1
149321,-100,3,2,2,35,0,1
154033,-100,3,2,2,35,0,0
154118,-95.2380952380952,3,2,2,31,0,1
155659,-95.2380952380952,3,2,2,18,0,1
155830,-95.2380952380952,3,2,2,31,0,1
168849,-95.2380952380952,3,2,2,23,0,1
169192,-95.2380952380952,3,2,2,18,0,1
169534,-95.2380952380952,3,2,2,13,0,1
170562,-95.2380952380952,3,2,2,13,0,0
172618,-95.2380952380952,3,2,2,8,0,0

[Colours]
Combo1 : 231,218,218
Combo2 : 157,0,134
Combo3 : 77,1,201
Combo4 : 5,207,51
Combo5 : 234,199,0
Combo6 : 255,15,21

[HitObjects]
368,300,3103,1,0,0:0:0:0:
368,300,3483,2,0,P|406:269|399:177,1,134.999995880127,4|0,0:0|0:0,0:0:0:0:
320,188,4242,2,0,L|344:236,1,44.999998626709
296,316,4622,2,0,L|254:228,1,89.9999972534181
167,63,5381,1,0,0:0:0:0:
80,188,5761,6,0,P|124:220|216:204,1,134.999995880127,4|0,0:0|0:0,0:0:0:0:
156,136,6520,2,0,L|164:84,1,44.999998626709
284,80,6900,2,0,L|249:109,1,44.999998626709
364,119,7280,2,0,L|412:111,1,44.999998626709
508,96,7660,1,0,0:0:0:0:
508,276,8039,6,0,P|440:272|400:220,1,134.999995880127,4|0,0:0|0:0,0:0:0:0:
388,116,8799,1,0,0:0:0:0:
352,292,9179,2,0,P|312:328|228:316,1,134.999995880127
204,216,9938,1,0,0:0:0:0:
124,340,10318,6,0,L|140:288,1,44.999998626709,4|0,0:0|0:0,0:0:0:0:
88,216,10698,2,0,L|53:245,1,44.999998626709
168,160,11077,1,0,0:0:0:0:
8,52,11457,2,0,P|15:90|99:132,1,134.999995880127
152,76,12217,1,0,0:0:0:0:
228,52,12407,1,0,0:0:0:0:
308,60,12596,6,0,P|356:96|348:180,1,134.999995880127,4|0,0:0|0:0,0:0:0:0:
436,220,13356,2,0,B|432:196|432:196|444:164,1,44.999998626709
476,80,13736,1,0,0:0:0:0:
358,249,14115,2,0,L|366:297,1,44.999998626709
284,356,14495,2,0,L|288:312,1,44.999998626709
184,368,14875,22,0,P|192:308|132:256,1,134.999995880127,4|0,0:0|0:0,0:0:0:0:
40,204,15634,1,0,0:0:0:0:
40,204,16014,2,0,P|65:181|72:160,1,44.999998626709
112,96,16394,2,0,L|148:136,1,44.999998626709
136,212,16774,2,0,L|144:260,1,44.999998626709
216,200,17153,6,0,P|236:176|212:80,1,134.999995880127,4|0,0:0|0:0,0:0:0:0:
292,36,17913,1,0,0:0:0:0:
380,28,18103,1,0,0:0:0:0:
460,68,18293,2,0,L|480:128,1,44.999998626709
496,200,18672,1,0,0:0:0:0:
412,172,18862,1,0,0:0:0:0:
432,260,19052,2,0,P|438:289|448:320,1,44.999998626709
348,352,19432,6,0,P|345:306|335:244,1,89.9999972534181,4|0,0:0|0:0,0:0:0:0:
324,176,20001,1,0,0:0:0:0:
276,104,20191,1,0,0:0:0:0:
100,84,22224,5,0,0:0:0:0:
100,84,22566,2,0,P|76:144|140:200,1,150,2|4,0:0|0:0,0:0:0:0:
200,148,23080,1,0,0:0:0:0:
288,108,23251,1,4,0:0:0:0:
380,108,23423,1,0,0:0:0:0:
464,208,23594,2,0,P|426:203|372:192,1,75,2|0,0:0|0:0,0:0:0:0:
272,284,23937,2,0,P|308:283|356:276,1,75,2|0,0:0|0:0,0:0:0:0:
417,152,24279,22,0,P|386:153|356:164,1,56.25,2|0,0:0|0:0,0:0:0:0:
396,231,24622,70,0,P|340:236|284:172,1,134.999995880127,2|4,0:0|0:0,0:0:0:0:
184,244,25136,1,0,0:0:0:0:
116,312,25307,2,0,B|96:284|96:284|88:240,1,67.4999979400635,4|0,0:0|0:0,0:0:0:0:
76,100,25649,2,0,P|68:144|44:164,1,67.4999979400635,2|0,0:0|0:0,0:0:0:0:
68,20,25992,1,2,0:0:0:0:
308,104,26335,2,0,L|228:72,1,67.4999979400635,2|0,0:0|0:0,0:0:0:0:
392,76,26677,22,0,P|392:140|314:192,1,134.999995880127,2|4,0:0|0:0,0:0:0:0:
476,148,27191,1,0,0:0:0:0:
452,236,27362,2,0,P|444:288|478:338,1,101.249996910095,4|0,0:0|0:0,0:0:0:0:
478,351,27705,2,0,B|426:336|426:336|378:359|318:340,1,134.999995880127,2|2,0:0|0:0,0:0:0:0:
360,72,28390,2,0,P|374:115|359:162,1,67.4999979400635,2|0,0:0|0:0,0:0:0:0:
292,300,28733,6,0,P|278:257|293:210,1,67.4999979400635,2|0,0:0|0:0,0:0:0:0:
360,72,29075,1,4,0:0:0:0:
212,192,29247,1,0,0:0:0:0:
304,152,29418,2,0,B|321:185|321:185|327:239,1,67.4999979400635,4|0,0:0|0:0,0:0:0:0:
192,280,29760,2,0,P|148:256|129:162,1,134.999995880127,2|2,0:0|0:0,0:0:0:0:
446,200,30446,1,2,0:0:0:0:
168,112,30788,6,0,P|120:96|48:144,1,134.999995880127,2|4,0:0|0:0,0:0:0:0:
48,244,31302,1,0,0:0:0:0:
16,144,31473,1,4,0:0:0:0:
120,172,31645,1,0,0:0:0:0:
88,48,31816,2,0,L|164:36,1,67.4999979400635,2|0,0:0|0:0,0:0:0:0:
308,72,32159,2,0,L|240:96,1,67.4999979400635,2|0,0:0|0:0,0:0:0:0:
220,240,32501,38,0,P|250:223|272:200,1,56.25,2|0,0:0|0:0,0:0:0:0:
324,264,32844,6,0,P|300:204|352:136,1,134.999995880127,2|4,0:0|0:0,0:0:0:0:
392,212,33358,1,0,0:0:0:0:
224,192,33529,1,4,0:0:0:0:
392,212,33700,1,0,0:0:0:0:
236,276,33871,2,0,P|204:284|168:276,1,67.4999979400635,2|0,0:0|0:0,0:0:0:0:
212,356,34214,2,0,P|256:372|296:368,1,67.4999979400635,2|0,0:0|0:0,0:0:0:0:
204,200,34557,1,2,0:0:0:0:
412,232,34899,6,0,P|356:256|288:192,1,134.999995880127,2|4,0:0|0:0,0:0:0:0:
368,96,35413,1,0,0:0:0:0:
268,116,35584,1,4,0:0:0:0:
136,276,35927,2,0,P|84:224|100:152,1,134.999995880127,2|2,0:0|0:0,0:0:0:0:
196,356,36612,2,0,P|196:316|184:280,1,67.4999979400635,2|0,0:0|0:0,0:0:0:0:
120,120,36955,5,2,0:0:0:0:
224,180,37126,1,0,0:0:0:0:
224,64,37297,2,0,P|248:40|316:32,1,101.249996910095,4|0,0:0|0:0,0:0:0:0:
349,64,37640,2,0,P|382:59|413:44,1,67.4999979400635,4|0,0:0|0:0,0:0:0:0:
292,116,37982,2,0,P|243:151|164:127,1,134.999995880127,2|2,0:0|0:0,0:0:0:0:
484,300,38668,1,2,0:0:0:0:
268,278,39010,6,0,L|188:254,1,67.4999979400635,2|0,0:0|0:0,0:0:0:0:
124,312,39353,1,4,0:0:0:0:
76,236,39524,1,0,0:0:0:0:
84,148,39695,1,4,0:0:0:0:
64,64,39867,1,0,0:0:0:0:
172,68,40038,2,0,L|256:52,1,67.4999979400635,2|0,0:0|0:0,0:0:0:0:
360,144,40381,2,0,L|292:140,1,67.4999979400635,2|0,0:0|0:0,0:0:0:0:
416,232,40723,22,0,P|444:232|472:228,1,56.25,2|0,0:0|0:0,0:0:0:0:
452,312,41066,70,0,P|400:320|332:256,1,134.999995880127,2|4,0:0|0:0,0:0:0:0:
288,200,41580,1,0,0:0:0:0:
200,256,41751,1,4,0:0:0:0:
96,264,41922,1,0,0:0:0:0:
108,160,42093,2,0,P|111:124|120:88,1,67.4999979400635,2|0,0:0|0:0,0:0:0:0:
200,276,42436,2,0,P|196:312|188:348,1,67.4999979400635,2|0,0:0|0:0,0:0:0:0:
208,172,42779,1,2,0:0:0:0:
208,172,43121,22,0,L|284:188,1,67.4999979400635,2|0,0:0|0:0,0:0:0:0:
468,234,43464,1,4,0:0:0:0:
357,291,43635,1,0,0:0:0:0:
468,234,43806,2,0,P|480:186|450:129,1,101.249996910095,4|0,0:0|0:0,0:0:0:0:
420,152,44149,2,0,P|380:192|288:160,1,134.999995880127,2|2,0:0|0:0,0:0:0:0:
488,360,44834,1,2,0:0:0:0:
304,80,45177,6,0,B|332:97|332:97|352:125,1,67.4999979400635,2|0,0:0|0:0,0:0:0:0:
244,140,45519,2,0,P|210:141|176:148,1,67.4999979400635,4|0,0:0|0:0,0:0:0:0:
104,245,45862,2,0,P|137:238|172:225,1,67.4999979400635,4|0,0:0|0:0,0:0:0:0:
320,316,46204,2,0,P|276:332|188:280,1,134.999995880127,2|2,0:0|0:0,0:0:0:0:
380,184,46890,2,0,P|383:220|392:268,1,67.4999979400635,2|0,0:0|0:0,0:0:0:0:
452,340,47232,6,0,L|480:248,1,67.4999979400635,2|0,0:0|0:0,0:0:0:0:
302,181,47575,1,4,0:0:0:0:
468,192,47746,1,0,0:0:0:0:
384,104,47917,1,4,0:0:0:0:
468,192,48089,1,0,0:0:0:0:
329,49,48260,1,2,0:0:0:0:
364,276,48603,2,0,P|372:247|375:210,1,67.4999979400635,2|0,0:0|0:0,0:0:0:0:
244,176,48945,38,0,P|240:140|248:108,1,56.25,2|0,0:0|0:0,0:0:0:0:
296,233,49288,54,0,P|248:253|170:198,1,134.999995880127,2|4,0:0|0:0,0:0:0:0:
140,128,49802,1,0,0:0:0:0:
88,224,49973,2,0,L|44:288,1,67.4999979400635,4|0,0:0|0:0,0:0:0:0:
176,228,50315,2,0,P|225:195|239:109,1,134.999995880127,2|2,0:0|0:0,0:0:0:0:
456,280,51001,1,2,0:0:0:0:
248,336,51343,2,0,L|104:328,1,134.999995880127,2|4,0:0|0:0,0:0:0:0:
308,284,51857,1,0,0:0:0:0:
328,204,52028,1,4,0:0:0:0:
312,124,52200,1,0,0:0:0:0:
372,52,52371,6,0,P|384:96|436:132,1,101.249996910095,2|0,0:0|0:0,0:0:0:0:
472,164,52714,2,0,B|464:200|464:200|400:224,1,101.249996910095,2|0,0:0|0:0,0:0:0:0:
408,296,53056,2,0,L|471:273,1,67.4999979400635,2|0,0:0|0:0,0:0:0:0:
344,260,53399,2,0,P|304:276|200:232,1,134.999995880127,2|4,0:0|0:0,0:0:0:0:
156,192,53913,1,0,0:0:0:0:
76,160,54084,1,4,0:0:0:0:
56,304,54426,6,0,P|120:304|168:260,1,112.500004291535,2|2,0:0|0:0,0:0:0:0:
256,56,55112,1,4,0:0:0:0:
347,173,55454,6,0,P|384:220|456:228,1,134.999995880127,2|4,0:0|0:0,0:0:0:0:
252,228,55968,1,0,0:0:0:0:
428,152,56139,1,0,0:0:0:0:
364,244,56311,1,4,0:0:0:0:
220,128,56482,2,0,L|176:140,4,33.7499989700318,2|2|2|0|2,0:0|0:0|0:0|0:0|0:0,0:0:0:0:
220,56,56996,1,0,0:0:0:0:
152,204,57167,70,0,P|136:236|116:260,1,56.25,2|0,0:0|0:0,0:0:0:0:
152,319,57510,22,0,P|85:314|50:245,1,134.999995880127,2|4,0:0|0:0,0:0:0:0:
144,120,58024,1,0,0:0:0:0:
232,191,58195,2,0,B|244:223|244:223|248:271,1,67.4999979400635,4|0,0:0|0:0,0:0:0:0:
228,104,58537,2,0,P|256:76|352:100,1,134.999995880127,2|2,0:0|0:0,0:0:0:0:
52,48,59223,1,2,0:0:0:0:
296,152,59565,6,0,P|312:192|248:276,1,134.999995880127,2|4,0:0|0:0,0:0:0:0:
360,224,60079,1,0,0:0:0:0:
232,200,60250,1,4,0:0:0:0:
252,84,60422,1,0,0:0:0:0:
232,200,60593,2,0,P|226:232|213:273,1,67.4999979400635,2|0,0:0|0:0,0:0:0:0:
112,292,60936,2,0,P|129:252|152:216,1,67.4999979400635,2|0,0:0|0:0,0:0:0:0:
44,252,61278,2,0,P|17:277|-8:312,1,67.4999979400635,2|0,0:0|0:0,0:0:0:0:
80,180,61621,6,0,P|92:120|40:60,1,134.999995880127,2|4,0:0|0:0,0:0:0:0:
404,64,62306,1,4,0:0:0:0:
248,196,62648,2,0,L|208:236,4,33.7499989700318,2|2|2|0|2,0:0|0:0|0:0|0:0|0:0,0:0:0:0:
232,124,63162,1,0,0:0:0:0:
280,264,63334,1,2,0:0:0:0:
144,236,63505,1,0,0:0:0:0:
236,336,63676,6,0,P|295:348|360:284,1,134.999995880127,2|4,0:0|0:0,0:0:0:0:
364,168,64190,1,0,0:0:0:0:
280,264,64361,2,0,P|277:225|280:180,1,67.4999979400635,4|0,0:0|0:0,0:0:0:0:
448,140,64704,2,0,P|468:139|492:140,3,33.7499989700318,2|2|2|0,0:0|0:0|0:0|0:0,0:0:0:0:
448,140,65047,2,0,P|452:176|448:224,1,67.4999979400635,2|0,0:0|0:0,0:0:0:0:
328,112,65389,2,0,P|324:72|328:36,1,67.4999979400635,2|0,0:0|0:0,0:0:0:0:
280,196,65732,22,0,P|216:208|160:160,1,134.999995880127,2|4,0:0|0:0,0:0:0:0:
244,96,66246,1,0,0:0:0:0:
152,148,66417,1,4,0:0:0:0:
44,160,66588,1,0,0:0:0:0:
128,232,66759,2,0,P|136:276|120:312,1,67.4999979400635,2|0,0:0|0:0,0:0:0:0:
228,336,67102,2,0,P|264:304|276:280,1,67.4999979400635,2|0,0:0|0:0,0:0:0:0:
420,344,67445,2,0,P|384:364|348:368,1,67.4999979400635,2|0,0:0|0:0,0:0:0:0:
440,260,67787,6,0,B|456:204|456:204|444:128,1,134.999995880127,2|4,0:0|0:0,0:0:0:0:
404,228,68301,1,0,0:0:0:0:
368,124,68472,1,4,0:0:0:0:
284,56,68644,1,0,0:0:0:0:
180,180,68815,2,0,P|268:176|280:136,1,134.999995880127,2|2,0:0|0:0,0:0:0:0:
0,247,69500,1,2,0:0:0:0:
79,117,69843,6,0,B|131:113|151:129|151:129|159:165|187:185,1,134.999995880127,2|4,0:0|0:0,0:0:0:0:
264,112,70357,1,0,0:0:0:0:
376,120,70528,1,4,0:0:0:0:
472,176,70699,1,0,0:0:0:0:
448,316,70870,2,0,B|424:355|371:354|346:311|355:282|355:282|359:268|369:257|369:257|336:248|336:248|347:209|285:208,1,269.999991760254,2|8,0:0|0:0,0:0:0:0:
28,216,71898,6,0,P|60:252|160:236,1,142.49999619484,2|4,0:0|0:0,0:0:0:0:
172,152,72412,1,0,0:0:0:0:
264,88,72583,1,4,0:0:0:0:
380,88,72755,1,0,0:0:0:0:
424,184,72926,2,0,L|444:280,1,71.2499980974198,2|0,0:0|0:0,0:0:0:0:
334,350,73269,2,0,L|328:280,1,71.2499980974198,2|0,0:0|0:0,0:0:0:0:
220,112,73611,22,0,P|214:146|205:176,1,56.25,2|0,0:0|0:0,0:0:0:0:
253,235,73954,70,0,P|177:243|129:171,1,142.49999619484,2|4,0:0|0:0,0:0:0:0:
36,116,74468,1,0,0:0:0:0:
24,228,74639,2,0,P|20:264|16:308,1,71.2499980974198,4|0,0:0|0:0,0:0:0:0:
200,192,74981,1,2,0:0:0:0:
220,184,75324,1,2,0:0:0:0:
240,176,75667,2,0,L|324:144,1,71.2499980974198,2|0,0:0|0:0,0:0:0:0:
492,216,76009,22,0,P|440:264|360:232,1,142.49999619484,2|4,0:0|0:0,0:0:0:0:
398,105,76523,1,0,0:0:0:0:
464,144,76694,2,0,B|484:99|459:61|459:61|476:32,1,106.87499714613,4|0,0:0|0:0,0:0:0:0:
398,105,77037,2,0,P|362:129|270:61,1,142.49999619484,2|2,0:0|0:0,0:0:0:0:
92,324,77722,1,2,0:0:0:0:
352,336,78065,6,0,P|338:302|332:268,1,71.2499980974198,2|0,0:0|0:0,0:0:0:0:
262,141,78407,2,0,P|252:176|248:216,1,71.2499980974198,4|0,0:0|0:0,0:0:0:0:
232,336,78750,2,0,P|188:320|160:296,1,71.2499980974198,4|0,0:0|0:0,0:0:0:0:
176,164,79092,2,0,P|160:220|64:232,1,142.49999619484,2|2,0:0|0:0,0:0:0:0:
388,168,79778,1,2,0:0:0:0:
104,172,80120,6,0,P|96:128|100:92,1,71.2499980974198,2|0,0:0|0:0,0:0:0:0:
200,52,80463,1,4,0:0:0:0:
188,152,80634,1,0,0:0:0:0:
224,240,80805,1,4,0:0:0:0:
200,328,80977,1,0,0:0:0:0:
296,312,81148,2,0,P|324:276|324:248,1,71.2499980974198,2|0,0:0|0:0,0:0:0:0:
308,132,81491,1,2,0:0:0:0:
416,180,81662,1,0,0:0:0:0:
256,252,81833,38,0,P|232:252|192:236,1,56.25,2|0,0:0|0:0,0:0:0:0:
152,298,82176,54,0,P|126:253|185:169,1,142.49999619484,2|4,0:0|0:0,0:0:0:0:
209,57,82690,1,0,0:0:0:0:
153,153,82861,1,4,0:0:0:0:
53,177,83032,1,0,0:0:0:0:
244,152,83203,2,0,P|284:148|320:156,1,71.2499980974198,2|0,0:0|0:0,0:0:0:0:
364,280,83546,2,0,P|368:240|368:196,1,71.2499980974198,2|0,0:0|0:0,0:0:0:0:
404,48,83889,2,0,P|400:88|400:128,1,71.2499980974198,2|0,0:0|0:0,0:0:0:0:
440,296,84231,6,0,P|404:348|320:344,1,142.49999619484,2|4,0:0|0:0,0:0:0:0:
224,304,84745,1,0,0:0:0:0:
156,352,84916,6,0,P|128:324|121:295,1,56.25,4|0,0:0|0:0,0:0:0:0:
56,268,85259,2,0,P|88:280|136:147,1,225.000008583069,2|10,0:0|0:0,0:0:0:0:
96,208,86115,1,0,0:0:0:0:
220,216,86287,6,0,P|260:212|300:196,1,71.2499980974198,2|0,0:0|0:0,0:0:0:0:
360,112,86629,2,0,P|400:160|384:256,1,142.49999619484,4|4,0:0|0:0,0:0:0:0:
320,300,87143,1,0,0:0:0:0:
288,168,87314,1,2,0:0:0:0:
288,168,87486,1,0,0:0:0:0:
288,168,87657,2,0,P|248:136|200:200,1,142.49999619484,2|2,0:0|0:0,0:0:0:0:
52,352,88342,6,0,P|88:304|72:208,1,142.49999619484,2|4,0:0|0:0,0:0:0:0:
136,152,88856,1,0,0:0:0:0:
16,88,89027,2,0,P|76:84|108:64,1,71.2499980974198,4|0,0:0|0:0,0:0:0:0:
224,48,89370,2,0,L|272:64,3,35.6249990487099,2|2|2|0,0:0|0:0|0:0|0:0,0:0:0:0:
224,48,89713,54,0,P|216:72|192:104,1,56.25,2|0,0:0|0:0,0:0:0:0:
216,180,90055,22,0,P|204:199|196:247,1,71.2499980974198,2|0,0:0|0:0,0:0:0:0:
248,356,90398,6,0,P|288:332|300:236,1,142.49999619484,2|4,0:0|0:0,0:0:0:0:
260,144,90912,1,0,0:0:0:0:
348,92,91083,1,4,0:0:0:0:
448,112,91254,1,0,0:0:0:0:
472,216,91425,2,0,P|402:211|360:165,1,106.87499714613,2|0,0:0|0:0,0:0:0:0:
358,138,91768,1,2,0:0:0:0:
408,356,92111,38,0,P|410:326|398:297,1,56.25,2|0,0:0|0:0,0:0:0:0:
336,336,92453,54,0,P|280:344|192:288,1,142.49999619484,2|4,0:0|0:0,0:0:0:0:
120,352,92967,1,0,0:0:0:0:
56,272,93138,1,4,0:0:0:0:
60,172,93310,1,0,0:0:0:0:
152,240,93481,2,0,P|200:256|284:196,1,142.49999619484,2|2,0:0|0:0,0:0:0:0:
24,80,94166,1,2,0:0:0:0:
244,140,94509,6,0,P|284:140|316:128,1,71.2499980974198,2|0,0:0|0:0,0:0:0:0:
460,192,94851,2,0,P|420:192|388:204,1,71.2499980974198,4|0,0:0|0:0,0:0:0:0:
296,296,95194,2,0,P|296:248|308:216,1,71.2499980974198,4|0,0:0|0:0,0:0:0:0:
416,76,95536,2,0,P|437:69|456:56,3,35.6249990487099,2|2|2|0,0:0|0:0|0:0|0:0,0:0:0:0:
416,76,95879,2,0,P|404:116|408:168,1,71.2499980974198,2|0,0:0|0:0,0:0:0:0:
424,304,96222,1,2,0:0:0:0:
304,224,96393,1,0,0:0:0:0:
344,332,96564,22,0,P|284:340|212:284,1,142.49999619484,2|4,0:0|0:0,0:0:0:0:
100,312,97078,1,0,0:0:0:0:
108,184,97249,1,4,0:0:0:0:
208,260,97421,1,0,0:0:0:0:
208,157,97592,2,0,P|207:136|208:113,3,35.6249990487099,2|2|0|0,0:0|0:0|0:0|0:0,0:0:0:0:
208,169,97935,70,0,P|204:193|220:237,1,56.25,2|0,0:0|0:0,0:0:0:0:
283,194,98277,6,0,B|315:178|315:178|371:178,1,71.2499980974198,2|0,0:0|0:0,0:0:0:0:
512,232,98620,6,0,P|468:284|380:248,1,142.49999619484,2|4,0:0|0:0,0:0:0:0:
432,164,99134,1,0,0:0:0:0:
356,288,99305,2,0,B|324:304|324:304|268:304,1,71.2499980974198,4|0,0:0|0:0,0:0:0:0:
200,364,99647,2,0,P|184:272|232:216,1,142.49999619484,2|2,0:0|0:0,0:0:0:0:
460,76,100333,1,2,0:0:0:0:
432,164,100504,1,0,0:0:0:0:
368,96,100675,6,0,B|336:80|336:80|280:76,1,71.2499980974198,2|0,0:0|0:0,0:0:0:0:
184,188,101018,2,0,P|228:176|252:156,1,71.2499980974198,4|0,0:0|0:0,0:0:0:0:
152,48,101360,2,0,P|108:60|84:80,1,71.2499980974198,4|0,0:0|0:0,0:0:0:0:
32,264,101703,1,2,0:0:0:0:
256,320,102046,1,2,0:0:0:0:
480,264,102388,1,2,0:0:0:0:
192,125,102731,6,0,P|253:99|321:125,1,142.49999619484,2|4,0:0|0:0,0:0:0:0:
212,208,103245,1,0,0:0:0:0:
300,208,103416,22,0,P|292:248|262:280,1,75
256,192,103844,12,4,104786,0:0:0:0:
388,304,120202,70,0,P|392:268|384:224,1,71.2499980974198,2|0,0:0|0:0,0:0:0:0:
312,112,120545,1,2,0:0:0:0:
344,204,120716,1,0,0:0:0:0:
440,176,120888,1,2,0:0:0:0:
408,84,121059,1,0,0:0:0:0:
336,156,121230,22,0,P|288:164|216:96,1,142.49999619484,2|4,0:0|0:0,0:0:0:0:
336,348,121915,1,4,0:0:0:0:
336,256,122087,1,0,0:0:0:0:
412,304,122258,2,0,P|456:308|488:304,1,71.2499980974198,2|0,0:0|0:0,0:0:0:0:
260,304,122601,2,0,P|216:300|184:304,1,71.2499980974198,2|0,0:0|0:0,0:0:0:0:
224,160,122943,70,0,P|225:191|224:216,1,56.25,2|0,0:0|0:0,0:0:0:0:
164,296,123286,22,0,P|120:272|108:180,1,142.49999619484,2|4,0:0|0:0,0:0:0:0:
144,68,123800,1,0,0:0:0:0:
180,216,123971,2,0,P|224:208|260:184,1,71.2499980974198,4|0,0:0|0:0,0:0:0:0:
408,228,124313,2,0,P|364:236|328:260,1,71.2499980974198,2|0,0:0|0:0,0:0:0:0:
332,132,124656,2,0,B|336:100|336:100|328:48,1,71.2499980974198,2|0,0:0|0:0,0:0:0:0:
272,268,124999,1,2,0:0:0:0:
272,268,125341,6,0,P|292:308|400:312,1,142.49999619484,2|4,0:0|0:0,0:0:0:0:
376,208,125855,1,0,0:0:0:0:
472,272,126026,2,0,B|488:240|488:240|492:188,1,71.2499980974198,4|0,0:0|0:0,0:0:0:0:
392,48,126369,2,0,B|376:80|376:80|372:132,1,71.2499980974198,2|0,0:0|0:0,0:0:0:0:
284,192,126712,1,2,0:0:0:0:
392,132,126883,1,2,0:0:0:0:
356,300,127054,1,2,0:0:0:0:
464,240,127225,1,0,0:0:0:0:
356,300,127397,6,0,P|320:316|260:304,1,71.2499980974198,6|0,0:0|0:0,0:0:0:0:
120,264,127739,2,0,P|160:252|196:228,1,71.2499980974198,4|0,0:0|0:0,0:0:0:0:
104,112,128082,2,0,P|64:124|28:148,1,71.2499980974198,4|0,0:0|0:0,0:0:0:0:
180,156,128424,2,0,P|192:112|180:72,1,71.2499980974198,2|0,0:0|0:0,0:0:0:0:
292,24,128767,1,2,0:0:0:0:
364,120,128938,1,0,0:0:0:0:
376,244,129110,1,0,0:0:0:0:
480,176,129281,1,2,0:0:0:0:
332,336,129452,6,0,P|292:348|240:344,2,71.2499980974198,2|0|4,0:0|0:0|0:0,0:0:0:0:
64,244,130137,2,0,P|92:284|104:320,1,71.2499980974198,4|0,0:0|0:0,0:0:0:0:
150,163,130480,2,0,B|152:131|152:131|170:92,1,71.2499980974198,2|0,0:0|0:0,0:0:0:0:
40,28,130823,2,0,B|38:60|38:60|20:99,1,71.2499980974198,2|0,0:0|0:0,0:0:0:0:
168,56,131165,6,0,P|204:60|228:76,1,56.25,2|0,0:0|0:0,0:0:0:0:
224,144,131508,6,0,P|272:124|284:32,1,142.49999619484,2|4,0:0|0:0,0:0:0:0:
436,48,132022,1,0,0:0:0:0:
332,172,132193,2,0,P|328:212|336:256,1,71.2499980974198,4|0,0:0|0:0,0:0:0:0:
448,212,132535,2,0,P|450:178|443:127,1,71.2499980974198,2|0,0:0|0:0,0:0:0:0:
416,284,132878,2,0,P|448:320|476:328,1,71.2499980974198,2|0,0:0|0:0,0:0:0:0:
348,328,133221,2,0,P|304:324|260:284,1,71.2499980974198,2|0,0:0|0:0,0:0:0:0:
120,328,133563,6,0,P|188:320|192:232,1,142.49999619484,2|4,0:0|0:0,0:0:0:0:
208,160,134077,1,0,0:0:0:0:
80,240,134248,2,0,P|45:271|4:284,1,71.2499980974198,4|0,0:0|0:0,0:0:0:0:
36,172,134591,2,0,P|28:116|80:48,1,142.49999619484,2|2,0:0|0:0,0:0:0:0:
448,132,135276,1,2,0:0:0:0:
448,132,135447,1,0,0:0:0:0:
300,80,135619,5,2,0:0:0:0:
416,28,135790,1,0,0:0:0:0:
344,156,135961,38,0,P|338:195|387:258,1,112.500004291535,4|4,0:0|0:0,0:0:0:0:
432,180,136475,37,2,0:0:0:0:
320,324,136646,1,4,0:0:0:0:
260,220,136818,1,2,0:0:0:0:
180,336,136989,1,4,0:0:0:0:
164,176,137160,1,4,0:0:0:0:
48,344,137332,1,2,0:0:0:0:
64,140,137503,1,6,0:0:0:0:
0,272,137674,6,0,P|40:304|136:272,1,150,4|0,0:0|0:0,0:0:0:0:
88,152,138188,1,0,0:0:0:0:
192,60,138359,1,4,0:0:0:0:
336,68,138531,1,0,0:0:0:0:
420,188,138702,2,0,P|451:212|492:216,1,75,2|0,0:0|0:0,0:0:0:0:
273,250,139044,1,2,0:0:0:0:
332,88,139216,1,0,0:0:0:0:
273,250,139387,22,0,P|275:283|285:315,1,61.8750018882752,2|0,0:0|0:0,0:0:0:0:
200,300,139730,70,0,P|156:272|160:172,1,150,2|4,0:0|0:0,0:0:0:0:
96,76,140244,1,0,0:0:0:0:
224,224,140415,2,0,P|264:192|276:152,1,75,4|0,0:0|0:0,0:0:0:0:
63,164,140757,2,0,P|60:206|65:256,1,75,2|0,0:0|0:0,0:0:0:0:
224,224,141100,2,0,P|225:280|224:324,1,75,2|0,0:0|0:0,0:0:0:0:
394,168,141443,2,0,P|396:207|396:247,1,75,2|0,0:0|0:0,0:0:0:0:
184,136,141785,22,0,P|252:120|312:180,1,150,2|4,0:0|0:0,0:0:0:0:
320,64,142299,1,0,0:0:0:0:
236,196,142470,2,0,P|220:244|232:292,1,75,4|0,0:0|0:0,0:0:0:0:
332,360,142813,2,0,P|356:300|280:252,1,150,2|2,0:0|0:0,0:0:0:0:
332,172,143327,1,0,0:0:0:0:
160,224,143498,2,0,P|108:244|64:248,1,75,2|0,0:0|0:0,0:0:0:0:
119,49,143841,6,0,P|117:82|120:124,1,75,2|0,0:0|0:0,0:0:0:0:
280,216,144183,2,0,P|281:160|280:141,1,75,4|0,0:0|0:0,0:0:0:0:
448,164,144526,2,0,P|450:125|450:89,1,75,4|0,0:0|0:0,0:0:0:0:
380,236,144868,2,0,P|380:280|384:320,1,75,2|0,0:0|0:0,0:0:0:0:
468,264,145211,1,2,0:0:0:0:
376,176,145382,1,0,0:0:0:0:
288,272,145554,1,2,0:0:0:0:
384,344,145725,1,0,0:0:0:0:
240,344,145896,5,2,0:0:0:0:
172,272,146067,1,0,0:0:0:0:
172,272,146239,2,0,P|144:244|108:224,1,75,4|0,0:0|0:0,0:0:0:0:
216,196,146581,1,4,0:0:0:0:
32,248,146753,1,0,0:0:0:0:
256,268,146924,2,0,P|300:216|272:136,1,150,2|2,0:0|0:0,0:0:0:0:
216,84,147438,1,0,0:0:0:0:
332,236,147609,2,0,P|372:273|410:276,1,75,2|0,0:0|0:0,0:0:0:0:
216,196,147952,6,0,P|160:176|80:220,1,150,2|4,0:0|0:0,0:0:0:0:
160,264,148466,1,0,0:0:0:0:
44,148,148637,2,0,P|36:116|40:64,1,75,4|0,0:0|0:0,0:0:0:0:
48,228,148979,2,0,B|56:264|56:308|44:340,1,112.5,2|0,0:0|0:0,0:0:0:0:
120,368,149322,2,0,P|92:370|48:354,1,75,2|0,0:0|0:0,0:0:0:0:
224,224,149665,2,0,P|180:208|132:218,1,75,2|0,0:0|0:0,0:0:0:0:
304,344,150007,6,0,P|368:312|384:240,1,150,2|0,0:0|0:0,0:0:0:0:
456,336,150521,1,0,0:0:0:0:
304,260,150692,2,0,P|296:216|304:172,1,75,4|0,0:0|0:0,0:0:0:0:
512,224,151035,2,0,P|444:236|400:160,1,150,2|2,0:0|0:0,0:0:0:0:
416,60,151549,1,0,0:0:0:0:
268,100,151720,1,2,0:0:0:0:
268,100,151891,1,0,0:0:0:0:
396,140,152063,21,2,0:0:0:0:
268,100,152234,1,0,0:0:0:0:
356,208,152405,2,0,P|376:236|372:304,1,75,4|0,0:0|0:0,0:0:0:0:
232,361,152748,2,0,P|212:333|216:265,1,75,4|0,0:0|0:0,0:0:0:0:
212,152,153090,2,0,P|200:200|104:224,1,150,2|2,0:0|0:0,0:0:0:0:
88,308,153604,1,0,0:0:0:0:
128,140,153776,1,2,0:0:0:0:
272,88,153947,1,0,0:0:0:0:
460,176,154118,6,0,P|444:240|364:276,1,157.499995193482,2|4,0:0|0:0,0:0:0:0:
232,212,154632,1,0,0:0:0:0:
382,185,154803,2,0,P|418:177|466:177,1,78.7499975967408,4|0,0:0|0:0,0:0:0:0:
280,288,155146,2,0,P|160:256|172:148,1,236.249992790222,2|2,0:0|0:0,0:0:0:0:
108,248,155831,2,0,P|64:220|52:168,1,78.7499975967408,2|0,0:0|0:0,0:0:0:0:
299,98,156174,6,0,P|299:170|211:210,1,157.499995193482,2|4,0:0|0:0,0:0:0:0:
416,104,156688,1,0,0:0:0:0:
460,204,156859,1,4,0:0:0:0:
416,304,157030,1,0,0:0:0:0:
328,312,157201,2,0,P|288:324|244:324,1,78.7499975967408,2|0,0:0|0:0,0:0:0:0:
228,120,157544,2,0,P|258:148|280:186,1,78.7499975967408,2|0,0:0|0:0,0:0:0:0:
108,296,157887,2,0,P|117:255|139:217,1,78.7499975967408,2|0,0:0|0:0,0:0:0:0:
32,52,158229,6,0,P|52:108|156:132,1,157.499995193482,2|4,0:0|0:0,0:0:0:0:
252,84,158743,1,0,0:0:0:0:
376,60,158914,1,4,0:0:0:0:
488,120,159086,1,0,0:0:0:0:
412,244,159257,2,0,P|344:220|336:132,1,157.499995193482,2|2,0:0|0:0,0:0:0:0:
376,60,159771,1,0,0:0:0:0:
304,224,159942,2,0,P|268:248|216:252,1,78.7499975967408,2|0,0:0|0:0,0:0:0:0:
144,352,160285,6,0,P|104:304|104:256,1,78.7499975967408,2|0,0:0|0:0,0:0:0:0:
196,116,160627,2,0,P|236:164|236:212,1,78.7499975967408,4|0,0:0|0:0,0:0:0:0:
306,81,160970,2,0,P|342:57|378:61,1,78.7499975967408,4|0,0:0|0:0,0:0:0:0:
492,244,161312,2,0,P|416:264|372:192,1,157.499995193482,2|2,0:0|0:0,0:0:0:0:
312,264,161826,1,0,0:0:0:0:
200,252,161998,1,2,0:0:0:0:
104,184,162169,1,0,0:0:0:0:
200,140,162340,21,2,0:0:0:0:
200,332,162511,1,0,0:0:0:0:
28,224,162683,1,4,0:0:0:0:
36,180,162854,1,0,0:0:0:0:
20,268,163025,1,0,0:0:0:0:
44,136,163197,1,4,0:0:0:0:
12,312,163368,2,0,P|117:321|145:289,1,157.499995193482,2|2,0:0|0:0,0:0:0:0:
52,92,163882,1,0,0:0:0:0:
78,202,164053,2,0,P|76:180|44:136,1,78.7499975967408
168,232,164396,6,0,P|216:264|316:212,1,157.499995193482,2|4,0:0|0:0,0:0:0:0:
312,40,164910,1,0,0:0:0:0:
396,224,165081,1,4,0:0:0:0:
388,116,165252,1,0,0:0:0:0:
304,216,165423,2,0,P|300:264|304:300,1,78.7499975967408,2|0,0:0|0:0,0:0:0:0:
184,176,165766,2,0,P|144:148|111:134,1,78.7499975967408,2|0,0:0|0:0,0:0:0:0:
272,80,166109,2,0,P|315:59|344:37,1,78.7499975967408,2|0,0:0|0:0,0:0:0:0:
488,180,166451,6,0,P|472:212|348:200,1,157.499995193482,2|4,0:0|0:0,0:0:0:0:
414,160,166965,1,0,0:0:0:0:
216,144,167136,1,0,0:0:0:0:
296,264,167308,1,4,0:0:0:0:
272,80,167479,2,0,P|185:65|136:115,1,157.499995193482,2|2,0:0|0:0,0:0:0:0:
468,40,168164,1,2,0:0:0:0:
272,200,168507,6,0,P|264:240|272:288,1,78.7499975967408,2|0,0:0|0:0,0:0:0:0:
456,240,168849,2,0,P|464:200|456:152,1,78.7499975967408,4|0,0:0|0:0,0:0:0:0:
264,64,169192,1,6,0:0:0:0:
356,160,169363,1,0,0:0:0:0:
196,256,169534,2,0,P|148:264|60:196,1,157.499995193482,2|2,0:0|0:0,0:0:0:0:
356,160,170048,1,2,0:0:0:0:
156,160,170220,1,0,0:0:0:0:
256,312,170391,1,0,0:0:0:0:
256,212,170562,5,0,0:0:0:0:
256,192,170648,12,0,172618,0:0:0:0:
