osu file format v9

[General]
AudioFilename: MENDES[BLACK ANOTHER].mp3
AudioLeadIn: 0
PreviewTime: 1810
Countdown: 0
SampleSet: Soft
StackLeniency: 0.2
Mode: 0
LetterboxInBreaks: 1

[Editor]
Bookmarks: 29587,50846,60483,70120,87410
DistanceSpacing: 1.5
BeatDivisor: 4
GridSize: 16

[Metadata]
Title:hogehoge
Artist:Rasupi vs YasimiKiller as Apricot respect for P.S.C
Creator:Rigeru
Version:MENDES+4
Source:Beatmania IIDX
Tags:wac yoshitaka Troopers EMPRESS onemore extra

[Difficulty]
HPDrainRate:5
CircleSize:5
OverallDifficulty:5
ApproachRate:9
SliderMultiplier:1.6
SliderTickRate:0.5

[Events]
//Background and Video events
0,0,"img_1480552_60000025_2.jpg"
//Break Periods
//Storyboard Layer 0 (Background)
//Storyboard Layer 1 (Fail)
//Storyboard Layer 2 (Pass)
//Storyboard Layer 3 (Foreground)
//Storyboard Sound Samples
//Background Colour Transformations
3,100,163,162,255

[TimingPoints]
1810,283.446712018141,4,2,1,30,1,0
10809,-100,4,2,1,70,0,0
11447,-100,4,2,1,30,0,0
28453,-100,4,2,1,70,0,0
29516,-100,4,2,1,85,0,0
35823,-100,4,2,1,30,0,0
41775,-100,4,2,1,30,0,0
54176,-50,4,2,1,60,0,0
54460,-100,4,2,1,30,0,0
55452,-100,4,2,1,30,0,0
69482,-100,4,2,1,10,0,0
70049,-100,4,2,1,30,0,0
83655,-100,4,2,1,15,0,0
87340,-100,4,2,1,5,0,0

[Colours]
Combo1 : 255,255,0
Combo2 : 255,0,0
Combo3 : 0,128,64

[HitObjects]
80,72,1809,1,0
104,72,1880,1,0
128,72,1951,1,0
152,72,2022,1,0
176,72,2093,1,0
200,72,2164,1,0
224,72,2235,1,0
248,72,2306,1,0
272,72,2376,1,0
296,72,2447,1,0
320,72,2518,1,0
344,72,2589,1,0
368,72,2660,1,0
392,72,2731,1,0
408,80,2802,1,0
424,96,2873,1,0
432,112,2944,1,0
432,128,3015,1,0
424,144,3085,1,0
408,160,3156,1,0
392,168,3227,1,0
368,168,3298,1,0
344,168,3369,1,0
320,168,3440,1,0
296,168,3511,1,0
272,168,3582,1,0
248,168,3653,1,0
224,168,3724,1,0
200,168,3794,1,0
176,168,3865,1,0
152,168,3935,1,0
128,168,4006,6,0,B|72:208,3,40
80,208,4290,2,0,B|88:264,3,40
88,272,4573,2,0,B|136:320,3,40
136,312,4857,2,0,B|208:312,3,40
200,312,5140,1,2
224,304,5211,1,0
248,296,5282,1,0
272,288,5353,1,0
296,280,5423,1,2
320,272,5494,1,0
344,264,5565,1,0
368,256,5636,1,0
392,248,5707,6,0,B|432:200,3,40,2|0|0|0
432,200,5990,2,0,B|392:152,3,40,2|0|0|0
376,168,6274,1,0
352,168,6345,1,0
328,168,6415,1,0
304,168,6486,1,0
280,168,6557,1,0
256,168,6628,1,0
232,168,6699,1,0
208,168,6770,1,0
184,168,6841,1,0
160,168,6912,1,0
136,168,6982,1,0
112,168,7053,1,0
88,168,7124,1,0
104,152,7195,1,0
120,136,7266,1,0
136,120,7337,1,0
152,104,7408,1,0
168,88,7478,1,0
184,72,7549,1,0
208,72,7620,1,0
232,72,7691,1,0
256,72,7762,1,0
280,72,7833,1,0
304,72,7904,1,0
328,72,7974,6,0,B|392:80,3,40
392,80,8258,2,0,B|376:128,3,40
368,144,8541,1,2
352,168,8612,1,0
336,192,8683,1,0
320,216,8754,1,0
304,240,8825,1,2
288,264,8896,1,0
272,288,8967,1,0
256,312,9037,1,0
240,288,9108,5,2
224,264,9179,1,0
208,240,9250,1,0
192,216,9321,1,0
176,192,9392,1,2
160,168,9463,1,0
144,144,9533,1,0
128,120,9604,1,0
112,96,9675,2,0,B|48:72,3,40,2|0|0|0
112,96,9959,2,0,B|160:80,3,40,2|0|0|0
112,96,10242,2,0,B|112:40,7,40,2|0|0|0|2|0|0|0
184,88,10880,6,2,B|184:40,1,40
256,192,11022,2,2,B|320:192,1,40
184,288,11163,2,2,B|184:336,1,40
112,192,11305,2,2,B|72:192,1,40
72,168,11447,5,0
80,144,11518,1,0
96,120,11588,1,0
112,104,11659,1,0
136,88,11730,1,0
160,80,11801,1,0
184,80,11872,1,0
208,80,11943,1,2
232,88,12014,1,0
256,104,12084,1,0
272,128,12155,1,0
280,152,12226,1,0
296,176,12296,1,0
312,192,12367,1,0
336,208,12438,1,0
360,216,12509,1,2
384,216,12580,1,0
408,216,12651,1,0
432,208,12722,1,0
456,192,12792,1,0
472,168,12864,1,0
480,144,12935,1,0
488,120,13006,1,0
488,96,13077,1,2
480,72,13147,1,0
464,56,13218,1,0
448,40,13289,1,0
424,32,13360,1,0
392,32,13431,1,0
368,40,13502,1,0
344,56,13573,1,0
328,72,13643,1,2
312,96,13714,6,0,B|248:72,3,40
248,72,13998,2,0,B|216:32,3,40
200,32,14281,2,0,B|136:40,3,40,2|0|0|0
144,56,14565,2,0,B|96:112,3,40
104,104,14848,1,2
88,128,14919,1,0
80,152,14990,1,0
80,176,15061,1,0
88,200,15131,1,2
104,216,15202,1,0
120,232,15273,1,0
144,240,15344,1,0
168,240,15415,1,2
192,232,15486,1,0
208,216,15557,1,0
224,192,15628,1,0
232,168,15698,1,2
248,152,15769,1,0
272,136,15840,1,0
296,128,15911,1,0
320,128,15982,5,2
344,136,16052,1,0
360,152,16123,1,0
376,168,16194,1,0
384,192,16265,1,0
384,216,16336,1,0
376,240,16407,1,0
360,256,16478,1,0
336,272,16549,1,0
312,280,16619,1,0
288,280,16690,1,0
264,272,16761,1,0
248,256,16832,1,0
232,232,16903,1,0
224,208,16974,1,0
216,184,17045,1,2
208,160,17116,2,0,B|224:96,3,40
232,104,17399,2,0,B|280:56,3,40
280,64,17683,2,0,B|336:40,3,40
336,40,17966,2,0,B|400:40,3,40
400,56,18249,5,2
400,80,18320,1,0
400,104,18391,1,0
400,128,18462,1,0
376,128,18533,5,2
360,152,18604,1,0
344,176,18675,1,0
328,200,18745,1,0
304,200,18816,5,2
280,208,18887,1,0
256,216,18958,1,0
232,224,19029,1,0
224,200,19100,5,2
200,200,19171,1,0
176,200,19241,1,0
152,200,19312,1,0
136,176,19383,6,0,B|88:120,3,40,2|0|0|0
136,136,19667,2,0,B|184:80,3,40,2|0|0|0
136,104,19950,2,0,B|88:48,3,40,2|0|0|0
136,64,20234,2,0,B|184:8,3,40,2|0|0|0
184,48,20517,5,2
200,64,20588,1,0
216,80,20659,1,0
232,96,20730,1,0
248,112,20800,2,0,B|288:72,3,40
264,128,21084,5,2
280,144,21155,1,0
296,160,21226,1,0
312,176,21296,1,0
328,192,21367,2,0,B|288:232,3,40
344,208,21651,5,2
360,224,21722,1,0
376,240,21793,1,0
392,256,21864,1,0
408,272,21934,2,0,B|448:232,3,40
456,224,22218,5,2
456,200,22289,1,0
456,176,22359,1,0
456,152,22430,1,0
456,128,22501,1,2
456,104,22572,1,0
456,80,22643,1,0
456,56,22714,1,0
432,56,22785,2,0,B|392:96,3,40,2|0|0|0
392,56,23068,2,0,B|352:16,3,40
352,56,23351,2,0,B|312:96,3,40,2|0|0|0
312,56,23635,2,0,B|272:16,3,40
272,56,23918,5,2
248,64,23989,1,0
224,56,24060,1,0
200,64,24131,1,0
176,56,24202,1,0
152,64,24273,1,0
128,56,24344,1,0
104,64,24414,1,2
80,56,24485,1,0
64,80,24556,1,0
80,104,24627,1,0
64,128,24698,1,0
80,144,24769,1,0
64,168,24840,1,0
80,192,24910,1,0
64,208,24981,1,0
80,232,25052,6,0,B|56:280,3,40,2|0|0|0
64,296,25336,2,0,B|88:344,3,40
104,320,25619,2,0,B|152:296,3,40,2|0|0|0
160,296,25902,2,0,B|208:320,3,40
216,296,26186,1,2
240,312,26257,1,0
264,296,26328,1,0
288,312,26399,1,0
312,296,26469,1,0
336,312,26540,1,0
360,296,26611,1,0
384,312,26682,1,0
408,296,26753,6,0,B|408:248,3,40,2|0|0|0
408,232,27036,2,0,B|384:192,3,40,2|0|0|0
360,192,27320,1,2
320,192,27391,1,0
288,192,27461,1,0
256,192,27532,1,0
224,192,27603,1,2
192,192,27674,1,0
160,192,27745,1,0
128,192,27816,1,0
96,192,27887,2,0,B|96:128,3,40,2|0|0|0
96,128,28170,2,0,B|128:80,3,40,2|0|0|0
200,72,28453,6,0,B|200:32,2,40,2|0|0
288,192,28737,2,0,B|328:192,2,40,2|0|0
200,296,29020,2,0,B|200:344,2,40,2|0|0
112,192,29304,2,0,B|72:192,2,40,2|0|0
72,192,29587,5,4
256,320,29729,1,0
448,192,29871,1,4
256,192,30154,1,0
256,64,30438,5,4
256,320,30579,1,4
256,320,30863,5,0
128,128,31005,1,0
384,128,31146,1,0
256,320,31288,1,0
128,128,31430,1,4
256,160,31713,5,0
256,288,31855,1,0
256,32,31997,1,0
256,96,32138,5,2
256,120,32209,1,0
256,144,32280,1,0
256,168,32351,1,0
256,192,32422,1,2
256,216,32493,1,0
256,240,32563,1,0
256,264,32634,1,0
256,288,32705,5,0
352,128,32847,1,0
160,128,32989,1,0
256,32,33272,1,4
160,32,33556,5,0
352,224,33697,1,0
256,128,33981,1,4
256,352,34264,5,0
64,192,34406,1,0
448,192,34548,1,0
160,320,34831,5,0
256,128,34973,1,0
352,320,35114,1,0
256,256,35256,5,2
256,232,35327,1,0
256,208,35398,1,0
256,184,35469,1,0
256,160,35540,1,2
256,136,35611,1,0
256,112,35681,1,0
256,88,35752,1,0
256,56,35823,6,0,B|192:56,3,40
192,56,36107,2,0,B|136:88,3,40
136,88,36390,2,0,B|120:152,3,40
120,152,36673,2,0,B|136:216,3,40
144,216,36957,2,0,B|128:280,3,40
160,264,37240,2,0,B|176:328,3,40
192,304,37524,5,2
216,296,37595,1,0
240,288,37666,1,0
264,280,37736,1,0
288,272,37807,1,2
312,264,37878,1,0
336,256,37949,1,0
360,248,38020,1,0
384,240,38091,1,2
408,232,38162,1,0
432,224,38232,1,0
456,216,38303,1,0
480,208,38374,1,6
112,64,41775,5,2
112,80,41870,1,0
112,96,41964,1,0
112,112,42059,1,2
112,128,42153,1,0
112,144,42248,1,0
112,160,42342,1,2
112,176,42437,1,0
112,192,42531,1,0
112,208,42626,1,2
112,224,42720,1,0
112,240,42815,1,0
112,256,42909,1,2
112,256,43476,1,0
232,312,44043,5,2
232,296,44138,1,0
232,280,44232,1,0
232,264,44327,1,2
232,248,44421,1,0
232,232,44516,1,0
232,216,44610,1,2
232,200,44705,1,0
232,184,44799,1,0
232,168,44894,1,2
232,152,44988,1,0
232,136,45083,1,0
232,120,45177,1,2
232,120,45744,1,0
120,56,46311,5,2
136,56,46406,1,0
152,56,46500,1,0
168,56,46595,1,2
184,56,46689,1,0
200,56,46784,1,0
216,56,46878,1,2
232,56,46973,1,0
248,56,47067,1,0
264,56,47162,1,2
280,56,47256,1,0
296,56,47351,1,0
312,56,47445,1,2
312,56,48012,1,0
352,176,48578,5,2
336,176,48673,1,0
320,176,48767,1,0
304,176,48862,1,2
288,176,48956,1,0
272,176,49051,1,0
256,176,49145,1,2
240,176,49240,1,0
224,176,49334,1,0
208,176,49429,1,2
192,176,49523,1,0
176,176,49618,1,0
160,176,49712,1,2
160,176,50279,1,0
272,112,50846,6,0,B|352:64,1,80
360,128,51129,2,0,B|408:208,1,80,2|0
360,240,51413,1,0
304,264,51554,1,0
248,240,51696,1,2
192,264,51838,1,0
120,224,51980,6,0,B|200:176,1,80
128,136,52263,2,0,B|80:56,1,80,2|0
168,64,52547,1,0
248,88,52688,1,0
280,160,52830,1,2
264,240,52972,1,0
336,296,53113,6,0,B|384:272|384:272|424:272,1,80
432,176,53397,2,0,B|408:128|408:128|408:88,1,80,2|0
320,72,53680,1,0
320,168,53821,1,0
224,168,53963,1,2
224,264,54105,1,0
144,208,54247,6,0,B|144:160|144:160|144:192|144:192|144:64,1,160,0|4
144,56,54814,2,0,B|208:56|208:56|184:56|184:56|192:56|192:56|200:56|200:56|184:56|184:56|184:56|184:56|176:56|176:56|176:56|176:56|200:56|200:56|192:56|192:56|192:56|192:56|208:56|208:56|184:56|184:56|200:56|200:56|200:72|192:56|192:56|192:56|192:56|184:56|184:56|184:56|184:56|192:56|192:56|192:56|192:56|200:40|200:56|200:56|224:56|224:56|272:56,1,320,0|4
320,160,55664,5,0
224,248,55948,1,0
128,160,56231,1,0
128,160,56515,2,0,B|192:96,1,80
256,352,56798,2,0,B|256:256,1,80,2|0
384,160,57082,2,0,B|320:96,1,80
256,64,57365,1,2
256,160,57507,1,0
256,256,57649,1,4
256,256,58074,5,0
256,256,58782,5,2
256,128,59066,1,0
256,32,59349,1,0
256,32,59420,1,0
256,32,59491,2,0,B|256:50|248:64|248:64|256:96|256:96|264:64|264:64|256:64|256:64|256:144,1,160,0|4
256,184,59916,6,0,B|304:152|304:152|352:152,1,80,2|0
304,216,60200,2,0,B|336:264|336:264|336:312,1,80
272,264,60483,2,0,B|224:296|224:296|176:296,1,80,2|0
224,232,60766,2,0,B|192:184|192:184|192:136,1,80
256,184,61050,1,2
304,216,61192,1,0
272,264,61333,1,2
224,232,61475,1,0
288,136,61617,5,2
352,248,61759,1,0
240,312,61900,1,2
176,200,62042,1,0
176,200,62184,6,0,B|177:192|177:192|168:199|168:199|175:208|175:208|184:201|184:201|177:192|177:192|168:199|168:199|175:208|175:208|184:201|184:201|177:192|177:192|168:199|168:199|175:208|175:208|184:201|184:201|177:192|177:192|168:199|168:199|175:208|175:208|184:201|184:201|177:192|177:192|168:199|168:199|175:208|175:208|184:201|184:201|177:192|177:192|168:199|168:199|175:208|175:208|184:201|184:201|177:192|177:192|168:199|168:199|175:208|175:208|192:203|192:203|179:184|179:184|160:198|160:198|174:216|174:216|192:203|192:203|179:184|179:184|160:198|160:198|174:216|174:216|192:203|192:203|179:184|179:184|160:198|160:198|174:216|174:216|184:136|184:136,1,640,4|6
192,64,63884,5,0
192,64,63955,1,0
192,64,64026,2,0,B|264:88|264:88|240:80|240:80|312:104,1,160
336,144,64451,6,0,B|344:200|280:240,1,80
280,160,64735,2,0,B|224:168|184:104,1,80
264,104,65018,2,0,B|256:48|320:8,1,80
320,88,65302,2,0,B|376:80|416:144,1,80
336,144,65585,6,0,B|376:216,1,80,2|0
280,160,65868,2,0,B|208:200,1,80,2|0
264,104,66152,2,0,B|224:32,1,80,2|0
320,88,66435,2,0,B|392:48,1,80,2|0
392,48,66719,5,0
376,216,66861,1,0
208,200,67002,1,0
224,32,67144,1,0
336,144,67286,1,0
280,160,67427,1,0
264,104,67569,1,0
320,88,67711,1,0
300,124,67853,6,0,B|216:268,1,160,2|4
192,312,68419,5,0
192,312,68490,1,0
192,312,68561,1,0
192,312,68703,1,0
192,312,68845,1,4
192,312,69553,6,0,B|208:288,8,20
192,312,70120,5,0
144,272,70262,1,0
96,232,70404,1,0
48,192,70545,1,2
72,176,70616,1,0
96,160,70687,1,0
120,144,70758,1,0
144,128,70829,1,0
208,88,70970,5,0
248,152,71112,1,0
312,128,71254,1,0
344,192,71396,1,2
328,224,71467,1,0
312,256,71537,1,0
296,288,71608,1,0
280,320,71679,1,0
208,280,71821,5,0
184,208,71963,1,0
208,136,72104,1,0
264,80,72246,1,2
304,80,72317,1,0
344,80,72388,1,0
384,80,72459,1,0
424,80,72529,1,0
440,168,72671,5,0
440,256,72813,1,0
352,264,72955,1,0
352,176,73096,1,2
320,152,73167,1,0
288,128,73238,1,0
256,104,73309,1,0
224,80,73380,1,0
136,120,73522,5,0
200,192,73663,1,0
264,264,73805,1,0
328,336,73947,1,2
360,304,74018,1,0
392,272,74088,1,0
424,240,74159,1,0
456,208,74230,1,0
392,120,74372,5,0
320,200,74514,1,0
248,120,74655,1,0
320,40,74797,1,2
320,96,74868,1,0
320,152,74939,1,0
320,208,75010,1,0
320,256,75080,1,0
208,264,75222,5,0
120,192,75364,1,0
208,120,75506,1,0
288,192,75647,1,2
344,192,75718,1,0
400,192,75789,1,0
456,192,75860,1,0
512,192,75931,1,0
472,304,76073,5,0
352,304,76214,1,0
232,304,76356,1,0
112,304,76498,1,2
112,240,76569,1,0
112,176,76639,1,0
112,112,76710,1,0
112,48,76781,1,0
256,160,76923,5,0
228,208,77065,1,0
284,208,77206,1,0
256,192,77348,1,2
256,192,77419,1,0
256,192,77490,1,0
256,192,77561,1,0
256,192,77631,1,0
256,256,77773,5,0
200,160,77915,1,0
312,160,78057,1,0
256,192,78198,1,2
256,192,78269,1,0
256,192,78340,1,0
256,192,78411,1,0
256,192,78482,1,0
312,256,78624,5,0
200,256,78765,1,0
256,120,78907,1,0
256,192,79049,1,2
256,192,79120,1,0
256,192,79190,1,0
256,192,79261,1,0
256,192,79332,1,0
352,120,79474,5,0
256,288,79616,1,0
160,120,79757,1,0
256,192,79899,1,2
256,192,79970,1,0
256,192,80041,1,0
256,192,80112,1,0
256,192,80183,1,0
256,64,80324,5,0
128,288,80466,1,0
384,288,80608,1,0
256,192,80749,1,2
256,192,80820,1,0
256,192,80891,1,0
256,192,80962,1,0
256,192,81033,1,0
256,336,81175,5,0
112,64,81316,1,0
400,64,81458,1,0
256,192,81600,1,2
256,192,81671,1,0
256,192,81741,1,0
256,192,81812,1,0
256,192,81883,1,0
224,192,82025,5,0
256,144,82167,1,0
288,192,82308,1,0
192,240,82450,1,0
256,96,82592,1,0
320,240,82734,1,0
160,288,82875,1,0
256,48,83017,1,0
352,288,83159,1,0
160,96,83300,1,0
352,96,83442,1,0
256,320,83584,1,0
256,192,83726,5,0
256,192,83796,1,0
256,192,83867,1,0
256,192,83938,1,0
256,192,84009,1,0
256,192,84080,1,0
256,192,84151,1,0
256,192,84222,1,0
256,192,84292,1,0
256,192,84363,1,0
256,192,84434,1,0
256,192,84505,1,0
256,192,84576,1,0
256,192,84647,1,0
256,192,84718,1,0
256,192,84789,1,0
256,192,84859,1,0
256,192,84930,1,0
256,192,85001,1,0
256,192,85072,1,0
256,192,85143,1,0
256,192,85214,1,0
256,192,85285,1,0
256,192,85355,1,0
256,192,85426,1,0
256,192,85497,1,0
256,192,85568,1,0
256,192,85639,1,0
256,192,85710,1,0
256,192,85781,1,0
256,192,85851,1,0
256,192,85922,1,0
256,192,85993,1,0
256,192,86064,1,0
256,192,86135,1,0
256,192,86206,1,0
256,192,86277,1,0
256,192,87410,6,0,B|256:256|256:256|256:232|256:232|256:240|256:240|256:248|256:248|256:232|256:232|256:232|256:232|256:224|256:224|256:224|256:224|256:248|256:248|256:240|256:240|256:240|256:240|256:256|256:256|256:232|256:232|256:248|256:248|256:240|256:240|256:240|256:240|256:232|256:232|256:232|256:232|256:240|256:240|256:240|256:240|256:248|256:248|256:224|256:224|256:304,1,320
