osu file format v9

[General]
AudioFilename: himiko key sound.mp3
AudioLeadIn: 0
PreviewTime: 104382
Countdown: 0
SampleSet: Soft
StackLeniency: 0.1
Mode: 0
LetterboxInBreaks: 1

[Editor]
DistanceSpacing: 1
BeatDivisor: 8
GridSize: 8

[Metadata]
Title:hogehoge
Artist:Rasupi vs YasimiKiller as Apricot respect for P.S.C
Creator:Rigeru
Version:Himiko
Source:Beatmania IIDX
Tags:wac yoshitaka Troopers EMPRESS onemore extra

[Difficulty]
HPDrainRate:6
CircleSize:5
OverallDifficulty:7
ApproachRate:8
SliderMultiplier:1.6
SliderTickRate:0.5

[Events]
//Background and Video events
0,0,"2671391471_cb5d0d8b48_o.jpg"
//Break Periods
//Storyboard Layer 0 (Background)
//Storyboard Layer 1 (Fail)
//Storyboard Layer 2 (Pass)
//Storyboard Layer 3 (Foreground)
//Storyboard Sound Samples
//Background Colour Transformations
3,100,163,162,255

[TimingPoints]
2220,324.324324324324,4,2,1,50,1,0
30760,-100,4,2,1,70,0,0
47949,-100,4,2,1,5,0,0
49895,-100,4,2,1,15,0,0
50544,-100,4,2,1,25,0,0
51192,-100,4,2,1,35,0,0
51517,-100,4,2,1,50,0,0
93030,-66.6666666666667,4,2,1,5,0,0
93841,-100,4,2,1,50,0,0
103084,-66.6666666666667,4,2,1,5,0,0
104057,-100,4,2,1,80,0,0
104219,-100,4,2,1,80,0,0
114760,685.714285714286,4,2,1,50,1,0
114760,-100,4,2,1,50,0,0
120245,705.882352941176,4,2,1,50,1,0
124480,727.272727272727,4,2,1,50,1,0
126116,-100,4,2,1,5,0,0

[Colours]
Combo1 : 255,255,0
Combo2 : 255,0,0
Combo3 : 0,128,64

[HitObjects]
256,144,2220,1,0
256,144,2868,1,0
160,128,3517,6,0,B|72:192,1,80,2|0
192,200,3841,2,0,B|168:296,1,80,2|0
280,232,4165,2,0,B|320:312,1,80,2|0
392,240,4490,1,0
256,80,6111,5,2
136,288,6598,1,0
376,288,7084,1,0
256,192,7895,1,0
80,72,9111,5,0
104,96,9192,1,0
80,128,9274,1,0
104,152,9355,1,0
80,176,9436,1,0
104,208,9517,1,0
80,232,9598,1,0
104,264,9679,2,0,B|128:328|128:328|224:288,1,160,0|0
376,304,10328,5,0
336,288,10409,1,0
352,248,10490,1,0
312,240,10571,1,0
320,200,10652,1,0
280,192,10733,1,0
296,160,10814,1,0
264,144,10895,1,0
272,104,10976,2,0,B|192:64|192:64|120:72,1,160
64,224,11625,5,0
80,256,11706,1,0
112,248,11787,1,0
120,280,11868,1,0
152,272,11949,1,0
168,304,12030,1,0
200,296,12111,1,0
216,328,12192,1,0
248,312,12274,2,0,B|288:232|288:232|280:160,1,160,0|0
160,56,12922,5,0
192,40,13003,1,0
224,56,13084,1,0
248,32,13165,1,0
280,48,13247,1,0
296,16,13328,1,0
328,24,13409,1,0
352,0,13490,1,0
384,0,13571,2,0,B|424:80|424:80|360:136,1,160
424,280,14220,5,0
392,296,14301,1,0
360,280,14382,1,0
336,304,14463,1,0
304,288,14544,1,0
288,320,14625,1,0
256,312,14706,1,0
232,336,14787,1,0
200,336,14868,2,0,B|160:256|160:256|224:200,1,160
120,80,15517,5,0
152,64,15598,1,0
184,80,15679,1,0
208,56,15760,1,0
240,72,15841,1,0
256,40,15922,1,0
288,48,16003,1,0
312,24,16084,1,0
344,24,16165,2,0,B|384:104|384:104|424:192,1,160
312,296,16814,5,0
288,264,16895,1,0
312,232,16976,1,0
288,208,17057,1,0
304,176,17138,1,0
272,160,17220,1,0
280,128,17301,1,0
256,104,17382,1,0
256,72,17463,2,0,B|336:32|336:32|400:64,1,160
384,224,18111,5,0
360,240,18192,1,0
336,256,18274,1,0
312,272,18355,1,0
288,288,18436,1,0
264,304,18517,1,0
240,320,18598,1,0
216,336,18679,1,0
192,352,18760,2,0,B|152:272|152:272|80:312,1,160,0|4
256,88,19409,5,0
256,112,19490,1,0
256,136,19571,1,0
256,160,19652,1,0
256,184,19733,1,0
256,208,19814,1,0
256,232,19895,1,0
256,256,19976,1,0
256,280,20057,1,0
256,304,20138,1,0
256,328,20219,1,0
336,320,20382,6,0,B|376:312|376:312|392:256,1,80
392,256,20706,1,0
408,200,20868,1,2
408,200,20949,1,0
408,200,21030,1,0
424,144,21192,1,0
440,88,21355,1,0
456,32,21517,1,0
400,48,21679,6,0,B|360:56|360:56|344:112,1,80
344,112,22003,1,0
328,168,22165,1,2
328,168,22247,1,0
328,168,22328,1,0
312,224,22490,1,0
296,280,22652,1,0
280,336,22814,1,0
224,328,22976,6,0,B|184:320|184:320|184:248,1,80
184,264,23301,1,0
208,192,23463,1,2
208,192,23544,1,0
208,192,23625,1,0
264,152,23787,1,0
208,112,23949,1,0
272,72,24111,1,0
224,16,24274,6,0,B|184:24|184:24|144:88,1,80
152,72,24598,1,0
136,160,24760,1,2
136,160,24841,1,0
136,160,24922,1,0
56,184,25084,1,0
120,248,25247,1,0
40,272,25409,1,0
104,328,25571,6,0,B|152:312|152:312|192:328,1,80
192,328,25895,1,0
208,224,26057,1,2
208,224,26138,1,0
208,224,26219,1,0
264,136,26382,1,0
312,224,26544,1,0
376,136,26706,1,0
480,136,26868,6,0,B|464:88|464:88|416:64,1,80
424,64,27192,1,0
312,96,27355,1,2
312,96,27436,1,0
312,96,27517,1,0
400,176,27679,1,0
320,264,27841,1,0
232,184,28003,1,0
144,96,28165,6,0,B|112:184,1,80
112,184,28490,1,0
160,312,28652,1,2
160,312,28733,1,0
160,312,28814,1,0
256,216,28976,1,0
360,304,29138,1,0
448,200,29301,1,0
384,80,29463,6,0,B|320:144,1,80,4|0
320,144,29787,1,0
224,248,29949,1,2
224,248,30030,1,0
224,248,30111,1,0
184,112,30274,1,0
320,80,30436,1,0
360,216,30598,1,0
360,136,30760,5,2
360,136,30841,1,0
360,136,30922,1,0
312,72,31084,1,0
280,144,31247,1,2
280,144,31328,1,0
248,216,31490,1,0
248,216,31571,1,0
192,160,31733,1,2
192,160,31814,1,0
192,160,31895,1,0
200,80,32057,5,0
120,72,32219,1,2
120,72,32301,1,0
88,144,32463,1,2
88,144,32544,1,0
96,224,32706,1,2
96,224,32787,1,0
96,224,32868,1,0
96,304,33030,5,2
168,264,33192,1,0
168,264,33274,1,0
192,344,33436,1,0
192,344,33517,1,0
256,296,33679,1,2
256,296,33760,1,0
256,296,33841,1,0
296,360,34003,5,2
352,304,34165,1,0
352,304,34247,1,0
408,360,34409,1,2
408,360,34490,1,0
416,280,34652,1,2
416,280,34733,1,0
416,280,34814,1,0
488,312,34976,5,2
496,232,35138,1,2
496,232,35219,1,0
424,192,35382,1,0
424,192,35463,1,0
448,120,35625,2,0,B|496:96,3,40
360,136,35949,5,2
360,136,36030,1,0
360,136,36111,1,0
296,56,36274,1,0
248,144,36436,1,2
248,144,36517,1,0
176,72,36679,1,0
176,72,36760,1,0
144,168,36922,1,2
144,168,37003,1,0
144,168,37084,1,0
168,272,37247,5,0
256,216,37409,1,2
256,216,37490,1,0
280,320,37652,1,2
280,320,37733,1,0
368,264,37895,1,2
368,264,37976,1,0
368,264,38057,1,0
472,264,38219,5,0
408,184,38382,1,2
408,184,38463,1,0
344,264,38625,1,0
344,264,38706,1,0
408,344,38868,1,2
408,344,38949,1,0
408,344,39030,1,0
344,264,39192,5,0
240,264,39355,1,2
240,264,39436,1,0
240,160,39598,1,2
240,160,39679,1,0
344,160,39841,1,0
344,160,39922,1,0
344,160,40003,1,0
344,56,40165,5,0
272,136,40328,1,2
272,136,40409,1,0
200,56,40571,1,2
200,56,40652,1,0
128,136,40814,1,2
128,136,40895,1,0
128,136,40976,1,0
128,240,41138,5,0
128,344,41301,1,2
128,344,41382,1,0
128,344,41463,2,0,B|176:320,3,40
216,320,41787,5,0
216,320,41868,1,0
216,320,41949,1,0
312,240,42111,1,0
216,320,42274,1,2
216,320,42355,1,0
120,240,42517,1,2
120,240,42598,1,0
216,152,42760,1,2
216,152,42841,1,0
216,152,42922,1,0
312,64,43084,5,0
216,152,43247,1,0
216,152,43328,1,0
128,64,43490,1,2
128,64,43571,1,0
216,152,43733,1,2
216,152,43814,1,0
216,152,43895,1,0
216,280,44057,5,0
320,208,44219,1,0
320,208,44301,1,0
216,280,44463,1,0
216,280,44544,1,0
112,208,44706,1,2
112,208,44787,1,0
112,208,44868,1,0
216,128,45030,5,0
216,256,45192,1,2
216,256,45274,1,0
336,160,45436,1,2
336,160,45517,1,0
216,64,45679,1,0
216,64,45760,1,0
216,64,45841,1,0
104,160,46003,5,0
216,64,46165,1,0
216,64,46247,1,0
336,160,46409,1,2
336,160,46490,1,0
216,256,46652,1,2
216,256,46733,1,0
216,256,46814,1,0
344,328,46976,5,0
480,256,47138,1,0
480,256,47219,1,0
408,120,47382,1,2
408,120,47463,1,0
272,192,47625,1,2
272,192,47706,1,0
272,192,47787,1,0
272,192,47949,5,0
272,192,48598,1,0
272,192,49247,1,0
272,192,49895,1,0
272,192,50544,1,0
272,128,51192,1,2
320,128,51517,1,0
368,128,51841,1,0
368,128,52490,5,0
368,224,53138,1,2
304,296,53787,1,0
240,224,54436,1,0
240,128,55084,1,2
288,128,55409,1,0
336,128,55733,1,0
336,224,56382,1,0
288,160,56706,1,0
240,224,57030,1,0
288,288,57355,1,2
336,224,57679,1,0
88,96,58328,5,0
104,176,58490,1,0
184,152,58652,2,0,B|176:192|176:192|232:192,1,80,2|0
280,168,58976,1,0
336,112,59138,1,0
392,168,59301,1,0
336,224,59463,1,0
288,288,59625,5,0
232,232,59787,1,0
208,312,59949,2,0,B|208:344|208:344|144:312,1,80,2|0
112,272,60274,1,0
56,216,60436,1,0
112,160,60598,1,0
168,216,60760,1,0
232,168,60922,5,0
296,216,61084,1,0
320,136,61247,2,0,B|328:104|328:104|376:136,1,80,2|0
384,200,61571,5,0
432,264,61733,1,0
384,328,61895,1,0
336,264,62057,1,0
272,312,62219,5,0
208,264,62382,1,0
272,216,62544,1,0
208,168,62706,1,0
272,120,62868,6,0,B|304:80|304:80|336:64,1,80,2|0
224,64,63192,2,0,B|224:-16,1,80,2|0
176,120,63517,2,0,B|144:80|144:80|112:64,1,80,2|0
96,136,63841,5,0
120,216,64003,1,0
200,216,64165,2,0,B|256:192|256:192|256:168,1,80,2|0
272,248,64490,2,0,B|333:279|333:279|336:304,1,80,2|0
336,208,64814,2,0,B|384:176|384:176|416:192,1,80,2|0
400,256,65138,2,0,B|448:280|448:280|472:272,1,80,2|0
464,192,65463,5,0
472,112,65625,1,0
400,72,65787,1,2
344,136,65949,1,0
384,208,66111,1,2
256,80,66760,5,2
256,136,67084,1,2
256,192,67409,1,2
256,192,68057,1,0
256,192,68219,1,0
256,192,68382,1,0
80,104,68706,5,0
88,144,68787,1,0
112,176,68868,1,2
144,192,68949,1,0
184,192,69030,1,0
192,112,69192,5,0
232,120,69274,1,0
264,144,69355,1,2
280,176,69436,1,0
280,216,69517,1,0
208,256,69679,5,0
216,296,69760,1,0
240,328,69841,1,0
272,344,69922,1,0
312,344,70003,1,0
352,336,70084,1,0
384,312,70165,1,0
416,288,70247,1,0
432,248,70328,1,0
440,208,70409,1,0
424,168,70490,1,0
376,96,70652,5,0
344,120,70733,1,0
320,152,70814,1,2
304,192,70895,1,0
296,232,70976,1,0
376,208,71138,5,0
408,232,71219,1,0
432,264,71301,1,2
448,304,71382,1,0
456,344,71463,1,0
368,328,71625,5,0
400,296,71706,1,0
424,264,71787,1,0
440,224,71868,1,0
448,184,71949,1,0
440,144,72030,1,0
416,104,72111,1,0
384,72,72192,1,0
344,56,72274,1,0
304,40,72355,1,0
264,32,72436,1,0
208,216,72598,5,0
176,192,72679,1,0
144,168,72760,1,2
112,144,72841,1,0
80,120,72922,1,0
304,216,73084,5,0
336,192,73165,1,0
368,168,73247,1,2
400,144,73328,1,0
432,120,73409,1,0
256,336,73571,5,0
256,312,73652,1,0
256,288,73733,1,0
256,264,73814,1,0
256,240,73895,1,0
256,216,73976,1,0
256,192,74057,1,0
256,168,74138,1,0
256,144,74219,1,0
256,120,74301,1,0
256,96,74382,1,0
80,104,74544,5,0
104,144,74625,1,0
128,184,74706,1,2
104,224,74787,1,0
80,264,74868,1,0
272,328,75030,5,0
248,288,75111,1,0
224,248,75192,1,2
248,208,75273,1,0
272,168,75354,1,0
320,88,75517,5,0
360,80,75598,1,0
400,96,75679,1,0
416,136,75760,1,0
416,176,75841,1,0
400,216,75922,1,0
376,256,76003,1,0
352,296,76084,1,0
320,328,76165,1,0
280,352,76247,1,0
240,352,76328,1,0
72,264,76490,5,0
96,224,76571,1,0
136,200,76652,1,2
176,224,76733,1,0
200,264,76814,1,0
288,264,76976,5,0
312,304,77057,1,0
352,328,77138,1,2
392,304,77219,1,0
416,264,77301,1,0
432,168,77463,5,0
408,128,77544,1,0
368,104,77625,1,0
328,128,77706,1,0
304,168,77787,1,0
280,208,77868,1,0
256,248,77949,1,0
232,288,78030,1,0
192,312,78111,1,0
152,288,78192,1,0
128,248,78274,1,0
48,184,78436,5,0
88,208,78517,1,0
128,232,78598,1,2
168,256,78679,1,0
208,280,78760,1,0
464,184,78922,5,0
424,208,79003,1,0
384,232,79084,1,2
344,256,79165,1,0
304,280,79247,1,0
256,128,79409,5,0
256,152,79490,1,0
256,176,79571,1,0
256,200,79652,1,0
256,224,79733,1,0
256,248,79814,1,0
256,272,79895,1,0
256,304,79976,1,0
256,328,80057,1,0
256,352,80138,1,0
256,376,80219,1,0
320,312,80382,5,0
328,264,80463,1,0
344,216,80544,1,2
384,184,80625,1,0
432,184,80706,1,0
192,312,80868,5,0
184,264,80949,1,0
168,216,81030,1,2
128,184,81111,1,0
80,184,81192,1,0
256,376,81355,5,0
256,344,81436,1,0
256,312,81517,1,0
256,280,81598,1,0
256,248,81679,1,0
256,216,81760,1,0
256,184,81841,1,0
256,152,81922,1,0
256,120,82003,1,0
256,88,82084,1,0
256,56,82165,1,0
256,24,82247,1,0
240,48,82328,5,2
224,72,82409,1,0
208,96,82490,1,0
192,120,82571,1,0
176,144,82652,1,2
160,168,82733,1,0
144,192,82814,1,0
128,216,82895,1,0
112,240,82976,1,0
152,264,83138,6,0,B|192:320|240:272,1,80,0|0
216,232,83463,2,0,B|256:176|304:224,1,80,0|0
304,264,83787,1,2
304,264,83868,1,0
296,264,83949,1,0
312,264,84030,1,0
304,248,84111,1,0
304,280,84192,1,0
304,264,84274,1,0
360,280,84436,6,0,B|392:336|392:336|432:304,1,80,0|0
448,272,84760,2,0,B|408:216|408:216|376:240,1,80,0|0
336,184,85084,1,2
336,184,85165,1,0
336,160,85247,1,0
336,200,85328,1,0
320,184,85409,1,0
352,184,85490,1,0
336,184,85571,1,0
360,112,85733,6,0,B|384:136|384:136|384:168|384:168|408:192,1,80,0|0
480,184,86057,2,0,B|456:208|456:208|456:240|456:240|432:264,1,80,0|0
376,304,86382,1,2
376,304,86463,1,0
368,296,86544,1,0
384,312,86625,1,0
392,288,86706,1,0
360,320,86787,1,0
376,304,86868,1,0
312,248,87030,6,0,B|312:272|312:272|312:296|312:296|280:312,1,80,0|0
200,248,87355,2,0,B|200:224|200:224|200:200|200:200|232:184,1,80,0|0
304,112,87679,1,2
304,112,87760,1,0
304,112,87841,1,0
296,120,87922,1,0
312,104,88003,1,0
320,128,88084,1,0
288,96,88165,1,0
200,88,88328,6,0,B|144:168|144:168,1,80,0|0
152,272,88652,2,0,B|208:352|208:352,1,80,0|0
288,256,88976,1,2
288,256,89057,1,0
288,256,89138,1,0
288,232,89219,1,0
288,280,89301,1,0
312,256,89382,1,0
264,256,89463,1,0
408,224,89625,6,0,B|456:304|368:272|368:272,1,80,0|0
256,224,89949,2,0,B|208:144|296:176|296:176,1,80,0|0
384,88,90274,1,2
384,88,90355,1,0
384,88,90436,1,0
400,72,90517,1,0
368,104,90598,1,0
368,72,90679,1,0
400,104,90760,1,0
360,240,90922,5,0
296,104,91084,1,0
168,184,91247,1,0
240,320,91409,1,0
168,184,91571,1,0
296,104,91733,1,0
360,240,91895,1,0
264,208,92057,5,2
264,216,92138,1,0
256,208,92219,1,0
264,200,92301,1,0
272,208,92382,1,0
256,216,92463,1,0
256,200,92544,1,0
272,200,92625,1,0
272,216,92706,1,0
264,208,92787,1,0
264,208,92868,1,0
264,208,92949,1,0
264,208,93030,6,0,B|264:176|264:176|264:184|264:184|264:176|264:176|264:184|264:184|264:176|264:176|264:184|264:184|264:176|264:176|264:184|264:184|264:176|264:176|264:184|264:184|264:176|264:176|264:184|264:184|264:176|264:176|264:184|264:184|264:176|264:176|264:184|264:184|264:176|264:176|264:184|264:184|264:176|264:176|264:184|264:184|264:176|264:176|264:184|264:184|264:176|264:176|264:184|264:184|264:176|264:176|264:184|264:184|264:176|264:176|264:184|264:184|264:176|264:176|264:184|264:184|264:176|264:176|264:184|264:184|264:176|264:176|264:184|264:184|264:176|264:176|264:184|264:184|264:176|264:176|264:184|264:184|264:176|264:176|264:184|264:184|264:176|264:176|264:184|264:184|264:176|264:176|264:184|264:184|264:176|264:176|264:184|264:184|264:176|264:176|264:184|264:184|264:176|264:176|264:184|264:184|264:176|264:176|264:184|264:184|264:176|264:176|264:184|264:184|264:176|264:176|264:100,1,540,0|4
72,88,94003,5,2
56,120,94084,1,0
64,152,94165,1,0
96,160,94247,1,0
96,192,94328,1,0
128,200,94409,1,0
136,232,94490,1,0
168,224,94571,1,0
192,240,94652,2,0,B|208:288,3,40
232,264,94976,2,0,B|248:216,3,40
272,240,95301,5,2
288,208,95382,1,0
320,208,95463,1,0
336,176,95544,1,0
336,144,95625,1,0
360,120,95706,1,0
376,88,95787,1,0
376,56,95868,1,0
408,64,95949,2,0,B|448:96,3,40,0|0|0|0
464,104,96274,2,0,B|432:144,3,40,0|0|0|0
440,168,96598,5,2
432,200,96679,1,0
424,232,96760,1,0
392,240,96841,1,0
368,264,96922,2,0,B|376:312,3,40
344,304,97247,5,2
312,304,97328,1,0
296,272,97409,1,0
264,264,97490,1,0
232,248,97571,2,0,B|176:280,3,40,0|0|0|0
208,224,97895,5,2
200,192,97976,1,0
176,200,98057,1,0
168,168,98138,1,0
144,176,98219,1,2
136,144,98301,1,0
104,152,98382,1,0
104,120,98463,1,0
72,112,98544,2,0,B|40:64,3,40,2|0|0|0
80,72,98868,2,0,B|112:16,3,40,2|0|0|0
128,56,99192,5,2
152,80,99274,1,0
184,80,99355,1,0
200,104,99436,1,0
232,112,99517,1,0
256,136,99598,1,0
288,136,99679,1,0
312,160,99760,1,0
304,192,99841,5,2
280,208,99922,1,0
264,232,100003,1,0
232,240,100084,1,0
208,264,100165,1,0
176,264,100247,1,0
152,280,100328,1,0
120,280,100409,1,0
96,296,100490,2,0,B|80:352,3,40,2|0|0|0
120,328,100814,2,0,B|136:368,3,40,2|0|0|0
168,352,101138,5,2
200,344,101219,1,0
232,344,101301,1,0
264,352,101382,1,0
296,344,101463,1,0
328,336,101544,1,0
360,336,101625,1,0
392,352,101706,1,0
416,328,101787,2,0,B|376:272,3,40,2|0|0|0
424,288,102111,2,0,B|448:240,3,40,2|0|0|0
408,248,102436,2,0,B|392:192,3,40,2|0|0|0
432,208,102760,2,0,B|448:152,3,40,2|0|0|0
416,152,103084,22,0,B|376:176|376:176|392:168|392:168|336:136|336:136|376:160|376:160|352:144|352:144|296:184|296:184|312:192|312:192|328:200|328:200|238:155|238:155|248:184|248:184|248:192|248:192|248:120|248:120|272:120|272:120|288:128|288:128|232:96|232:96|168:176|168:176,1,719.999978542328
160,0,104382,5,2
136,32,104463,1,0
112,64,104544,1,0
88,96,104625,1,0
64,128,104706,1,0
40,160,104787,1,0
64,192,104868,1,0
88,224,104949,1,0
112,256,105030,1,0
136,288,105111,1,0
160,320,105192,1,0
184,352,105274,1,0
208,384,105355,2,0,B|248:384,2,40
456,120,105679,5,2
424,96,105760,1,0
392,72,105841,1,0
360,48,105922,1,0
320,48,106003,1,0
280,48,106084,1,0
240,48,106165,1,0
200,48,106247,1,0
160,48,106328,1,0
120,48,106409,1,0
88,72,106490,1,0
56,96,106571,1,0
24,120,106652,2,0,B|48:152,2,40
32,320,106976,5,2
64,296,107057,1,0
96,272,107138,1,0
128,248,107219,1,0
160,224,107301,1,0
192,200,107382,1,0
224,176,107463,1,0
256,200,107544,1,0
288,224,107625,1,2
320,256,107706,1,0
352,272,107787,1,0
384,296,107868,1,0
416,320,107949,1,0
448,296,108030,1,0
480,272,108111,1,0
512,248,108192,1,0
480,224,108274,2,0,B|432:216,3,40,2|0|0|0
464,176,108598,2,0,B|512:160,3,40,2|0|0|0
480,120,108922,5,2
440,96,109003,1,0
400,80,109084,1,0
360,72,109165,1,0
320,64,109247,1,0
280,72,109328,1,0
240,88,109409,1,0
208,120,109490,1,0
184,152,109571,1,2
176,192,109652,1,0
184,232,109733,1,0
200,272,109814,1,0
224,304,109895,1,0
264,328,109976,1,0
304,328,110057,1,0
344,320,110138,1,0
384,304,110219,1,0
376,216,110382,6,0,B|352:240,2,20,0|0|0
400,96,110706,6,0,B|384:112,2,20
360,128,110868,1,2
328,152,110949,1,0
296,176,111030,1,0
264,200,111111,1,0
232,224,111192,1,0
200,248,111274,1,0
168,272,111355,1,0
136,296,111436,1,0
104,320,111517,1,0
80,232,111679,6,0,B|56:256,2,20
72,104,112003,6,0,B|96:80,2,20,0|0|0
96,144,112165,1,2
120,184,112247,1,0
144,224,112328,1,0
168,264,112409,1,0
192,304,112490,1,0
216,264,112571,1,0
240,224,112652,1,0
264,184,112733,1,0
288,144,112814,1,2
312,104,112895,1,0
336,144,112976,1,0
360,184,113057,1,0
384,224,113138,1,0
408,264,113219,1,0
432,304,113301,1,0
456,344,113382,6,0,B|480:296,3,40,0|2|0|0
496,272,113706,2,0,B|464:224,4,40,0|2|0|0|0
456,176,114111,6,0,B|472:128,1,40,2|0
368,104,114274,2,0,B|384:56,1,40,2|0
272,176,114436,2,0,B|256:224,1,40,2|0
168,104,114598,2,0,B|152:152,1,40,2|0
156,142,114760,22,0,B|140:198,1,40
208,304,115274,2,0,B|224:248,1,40
344,256,115788,1,0
384,208,115959,1,0
408,144,116131,6,0,B|424:88,1,40,2|0
296,160,116645,1,0
272,224,116817,1,0
136,256,117159,2,0,B|152:200,1,40
104,168,117502,6,0,B|88:224,1,40,2|0
216,144,118017,1,0
240,80,118188,1,0
336,176,118531,2,0,B|376:120,1,40
416,104,118874,5,2
440,40,119045,1,0
448,176,119388,1,0
424,240,119559,1,0
384,112,119902,2,0,B|328:112,1,40
336,176,120245,6,0,B|288:216,1,40,2|0
416,280,120774,1,0
368,328,120950,1,0
280,224,121303,1,0
336,184,121480,1,0
304,120,121656,6,0,B|256:168,1,40,2|0
144,192,122186,1,0
168,128,122363,1,0
264,32,122715,1,0
312,80,122892,1,0
376,56,123068,6,0,B|424:104,1,40,2|0
400,224,123597,2,0,B|432:176,1,40
288,168,124127,1,0
256,224,124303,1,0
224,280,124480,1,0
432,296,125207,5,0
336,112,125934,1,0
256,192,126116,12,0,127934
