osu file format v5

[General]
AudioFilename: Rasputina - The Olde HeadBoard.mp3
AudioLeadIn: 0
PreviewTime: 57253
Countdown: 1
SampleSet: Normal
StackLeniency: 0.7
Mode: 0
LetterboxInBreaks: 1
EditorBookmarks: 56996

[Metadata]
Title:The Olde HeadBoard
Artist:Rasputina
Creator:Mogsworth
Version:Normal
Source:
Tags:Rasputina cello rock the old head board melora creager creepy yo no comprendo mi amor

[Difficulty]
HPDrainRate:5
CircleSize:5
OverallDifficulty:5
SliderMultiplier:1.6
SliderTickRate:2

[Events]
//Background and Video events
0,0,"oldeheadboard.JPG"
//Break Periods
2,23870,32487
2,52186,56090
2,71348,82028
2,101987,105596
//Storyboard Layer 0 (Background)
//Storyboard Layer 1 (Failing)
//Storyboard Layer 2 (Passing)
//Storyboard Layer 3 (Foreground)
//Storyboard Sound Samples
//Background Colour Transformations
3,100,0,0,0

[TimingPoints]
443,589.217322989296,4,1,0,80,1,0
83154,-100,4,2,0,100,0,0
100830,-100,4,1,0,50,0,0
101676,-100,4,1,0,100,0,0
120605,-100,4,2,0,100,0,0
130087,-100,4,1,0,100,0,0
167780,-100,4,2,0,70,0,0

[HitObjects]
168,192,5451,2,0,B|96:192,2,40
248,192,6041,2,0,B|304:176,1,40
368,184,6482,2,0,B|432:200,1,40
344,296,7072,2,0,B|400:296,2,40
344,296,7513,2,0,B|344:240|264:248|168:272|377:296|131:290,1,240
58,292,8692,1,0
140,290,8986,1,0
140,209,9281,1,8
140,291,9575,1,8
312,192,10312,6,0,B|272:192,1,40
208,144,10754,2,0,B|152:144,1,40
88,144,11196,2,0,B|16:144,1,40
128,232,11785,2,0,B|80:232,2,40
128,232,12227,2,0,B|184:152|176:264|264:224,1,120
307,237,12963,2,0,B|307:293,2,40
308,237,13405,2,8,B|364:157|356:269|444:229,2,120,0|8|8
153,195,14878,5,0
153,274,15172,1,0
224,230,15467,2,0,B|242:181|319:208|203:299|318:359,1,200
368,272,16499,2,0,B|320:272,2,40
368,272,16941,2,0,B|413:243|448:287|208:352|512:336,1,240,0|0
496,256,18118,1,0
497,175,18413,1,0
417,175,18707,1,0
336,175,19002,1,8
93,192,19886,5,0
93,192,20180,2,0,B|36:241|155:269|67:347,2,160
419,192,22242,5,0
419,192,22536,2,4,B|476:241|357:269|445:347,2,160,0|4|4
434,192,33731,6,0,B|506:192,2,40
354,192,34321,2,0,B|298:176,1,40
234,184,34762,2,0,B|170:200,1,40
105,273,35351,2,0,B|49:273,2,40
105,273,35792,2,0,B|105:329|185:321|146:267|325:317,1,240
400,315,36971,1,0
320,315,37266,1,0
321,234,37561,1,0
320,315,37855,1,0
181,234,38444,6,0,B|280:234,1,80
333,198,39033,2,0,B|392:198,1,40
454,195,39475,2,0,B|513:195,1,40
374,198,40064,2,0,B|374:271,2,40
374,198,40506,2,0,B|369:137|311:117|284:157|315:201|161:194,1,240
98,196,41685,1,0
100,275,41979,2,0,B|161:275,1,40
142,355,42421,2,0,B|81:355,1,40
142,199,43158,6,0,B|248:199,1,80
304,200,43747,2,0,B|352:160,1,40
416,176,44189,2,0,B|456:208,1,40
368,288,44778,2,0,B|416:288,2,40
368,288,45220,2,0,B|344:344|296:264|112:312,1,240
58,306,46398,1,0
59,225,46693,1,0
138,225,46987,1,0
139,305,47282,1,0
255,95,48165,5,0
255,95,48459,2,0,B|304:152|332:33|410:121,2,160
260,335,50521,5,0
260,335,50815,2,4,B|211:392|183:273|105:361,2,160,0|4|4
49,264,57297,6,0,B|124:281|222:261,1,160
348,340,58476,2,0,B|273:357|175:337,2,160
208,264,60243,2,0,B|122:249|95:143,2,160,0|4|4
351,192,62011,6,0,B|298:243|399:283|346:363,1,160
196,341,63189,2,0,B|249:290|148:250|201:170,1,160
335,124,64367,2,4,B|284:71|245:156|167:105,3,160
183,114,66429,1,8
118,163,66729,5,0
186,204,67024,1,0
264,219,67319,1,0
343,214,67613,2,0,B|393:306|222:249|68:325,1,320,4|8
43,248,69086,5,0
111,207,69381,1,0
189,192,69676,1,0
256,150,69970,2,0,B|374:27|293:250|528:248,1,320,4|4
301,192,83228,6,0,L|366:191,2,40
220,194,83817,1,0
220,194,83964,2,0,B|152:219|263:215|195:269,3,80
107,192,85290,5,2
266,191,85879,1,0
266,191,86174,6,0,B|395:185|306:258|439:361,1,240
261,342,87647,5,2
101,343,88236,1,0
100,343,88531,6,0,B|216:255|127:182|256:188,1,240,0|0
294,189,89562,6,0,B|346:189,2,40
294,189,90004,2,0,B|359:264|257:240|270:309,1,120,2|0
154,314,90887,2,0,B|111:335|69:310,4,80,0|0|0|2|2
255,190,92655,6,0,B|375:190,1,80
338,270,93244,2,0,B|258:270,1,80
270,349,93833,1,0
270,349,93981,2,0,B|234:321|213:368|55:356,1,200,0|2
57,117,95601,6,0,B|170:91|96:224|282:199,1,240
342,191,96780,6,0,B|395:191,2,40,0|0|2
82,194,97958,6,0,B|27:195,2,40,0|0|2
256,194,98842,5,0
256,194,99136,1,2
140,358,100904,6,0,B|282:322|203:388|380:362,1,240,0|4
463,264,106796,6,0,B|388:281|290:261,1,160
164,340,107975,2,0,B|239:357|337:337,2,160
304,264,109742,2,0,B|390:249|417:143,2,160,0|4|4
161,192,111510,6,0,B|214:243|113:283|166:363,1,160
316,341,112688,2,0,B|263:290|364:250|311:170,1,160
177,124,113866,2,4,B|228:71|267:156|345:105,3,160
329,114,115928,1,8
256,192,116224,12,4,118286
256,192,118581,12,4,120643
